  0
SECTION
  2
HEADER
  9
$ACADVER
  1
AC1015
  9
$ACADMAINTVER
 70
     6
  9
$DWGCODEPAGE
  3
ANSI_1252
  9
$INSBASE
 10
0.0
 20
0.0
 30
0.0
  9
$EXTMIN
 10
50.56066830345934
 20
-61.70028897990414
 30
0.0
  9
$EXTMAX
 10
813.5408860640746
 20
485.1768720592474
 30
0.0
  9
$LIMMIN
 10
0.0
 20
0.0
  9
$LIMMAX
 10
12.0
 20
9.0
  9
$ORTHOMODE
 70
     0
  9
$REGENMODE
 70
     1
  9
$FILLMODE
 70
     1
  9
$QTEXTMODE
 70
     0
  9
$MIRRTEXT
 70
     1
  9
$LTSCALE
 40
1.0
  9
$ATTMODE
 70
     1
  9
$TEXTSIZE
 40
0.2
  9
$TRACEWID
 40
0.05
  9
$TEXTSTYLE
  7
Standard
  9
$CLAYER
  8
popis
  9
$CELTYPE
  6
ByLayer
  9
$CECOLOR
 62
   256
  9
$CELTSCALE
 40
1.0
  9
$DISPSILH
 70
     0
  9
$DIMSCALE
 40
10.0
  9
$DIMASZ
 40
2.0
  9
$DIMEXO
 40
0.625
  9
$DIMDLI
 40
0.38
  9
$DIMRND
 40
0.0
  9
$DIMDLE
 40
0.0
  9
$DIMEXE
 40
1.25
  9
$DIMTP
 40
0.0
  9
$DIMTM
 40
0.0
  9
$DIMTXT
 40
2.0
  9
$DIMCEN
 40
0.09
  9
$DIMTSZ
 40
0.0
  9
$DIMTOL
 70
     0
  9
$DIMLIM
 70
     0
  9
$DIMTIH
 70
     0
  9
$DIMTOH
 70
     0
  9
$DIMSE1
 70
     0
  9
$DIMSE2
 70
     0
  9
$DIMTAD
 70
     1
  9
$DIMZIN
 70
     0
  9
$DIMBLK
  1
VDDIM_DEFAULT
  9
$DIMASO
 70
     1
  9
$DIMSHO
 70
     1
  9
$DIMPOST
  1

  9
$DIMAPOST
  1

  9
$DIMALT
 70
     0
  9
$DIMALTD
 70
     2
  9
$DIMALTF
 40
25.4
  9
$DIMLFAC
 40
1.0
  9
$DIMTOFL
 70
     1
  9
$DIMTVP
 40
0.0
  9
$DIMTIX
 70
     1
  9
$DIMSOXD
 70
     0
  9
$DIMSAH
 70
     0
  9
$DIMBLK1
  1

  9
$DIMBLK2
  1

  9
$DIMSTYLE
  2
ISO-25
  9
$DIMCLRD
 70
     0
  9
$DIMCLRE
 70
     0
  9
$DIMCLRT
 70
   256
  9
$DIMTFAC
 40
1.0
  9
$DIMGAP
 40
0.625
  9
$DIMJUST
 70
     0
  9
$DIMSD1
 70
     0
  9
$DIMSD2
 70
     0
  9
$DIMTOLJ
 70
     1
  9
$DIMTZIN
 70
     0
  9
$DIMALTZ
 70
     0
  9
$DIMALTTZ
 70
     0
  9
$DIMUPT
 70
     1
  9
$DIMDEC
 70
     0
  9
$DIMTDEC
 70
     4
  9
$DIMALTU
 70
     2
  9
$DIMALTTD
 70
     2
  9
$DIMTXSTY
  7
Standard
  9
$DIMAUNIT
 70
     0
  9
$DIMADEC
 70
     0
  9
$DIMALTRND
 40
0.0
  9
$DIMAZIN
 70
     0
  9
$DIMDSEP
 70
    46
  9
$DIMATFIT
 70
     3
  9
$DIMFRAC
 70
     0
  9
$DIMLDRBLK
  1

  9
$DIMLUNIT
 70
     2
  9
$DIMLWD
 70
    -2
  9
$DIMLWE
 70
    -2
  9
$DIMTMOVE
 70
     0
  9
$LUNITS
 70
     2
  9
$LUPREC
 70
     4
  9
$SKETCHINC
 40
0.1
  9
$FILLETRAD
 40
0.5
  9
$AUNITS
 70
     0
  9
$AUPREC
 70
     0
  9
$MENU
  1
.
  9
$ELEVATION
 40
0.0
  9
$PELEVATION
 40
0.0
  9
$THICKNESS
 40
0.0
  9
$LIMCHECK
 70
     0
  9
$CHAMFERA
 40
0.5
  9
$CHAMFERB
 40
0.5
  9
$CHAMFERC
 40
1.0
  9
$CHAMFERD
 40
0.0
  9
$SKPOLY
 70
     0
  9
$TDCREATE
 40
2455638.467141921
  9
$TDUCREATE
 40
2455638.425475255
  9
$TDUPDATE
 40
2455638.467141933
  9
$TDUUPDATE
 40
2455638.425475266
  9
$TDINDWG
 40
0.0000000116
  9
$TDUSRTIMER
 40
0.0000000116
  9
$USRTIMER
 70
     1
  9
$ANGBASE
 50
0.0
  9
$ANGDIR
 70
     0
  9
$PDMODE
 70
     0
  9
$PDSIZE
 40
0.0
  9
$PLINEWID
 40
0.0
  9
$SPLFRAME
 70
     0
  9
$SPLINETYPE
 70
     6
  9
$SPLINESEGS
 70
     8
  9
$HANDSEED
  5
24D
  9
$SURFTAB1
 70
     6
  9
$SURFTAB2
 70
     6
  9
$SURFTYPE
 70
     6
  9
$SURFU
 70
     6
  9
$SURFV
 70
     6
  9
$UCSBASE
  2

  9
$UCSNAME
  2

  9
$UCSORG
 10
0.0
 20
0.0
 30
0.0
  9
$UCSXDIR
 10
1.0
 20
0.0
 30
0.0
  9
$UCSYDIR
 10
0.0
 20
1.0
 30
0.0
  9
$UCSORTHOREF
  2

  9
$UCSORTHOVIEW
 70
     0
  9
$UCSORGTOP
 10
0.0
 20
0.0
 30
0.0
  9
$UCSORGBOTTOM
 10
0.0
 20
0.0
 30
0.0
  9
$UCSORGLEFT
 10
0.0
 20
0.0
 30
0.0
  9
$UCSORGRIGHT
 10
0.0
 20
0.0
 30
0.0
  9
$UCSORGFRONT
 10
0.0
 20
0.0
 30
0.0
  9
$UCSORGBACK
 10
0.0
 20
0.0
 30
0.0
  9
$PUCSBASE
  2

  9
$PUCSNAME
  2

  9
$PUCSORG
 10
0.0
 20
0.0
 30
0.0
  9
$PUCSXDIR
 10
1.0
 20
0.0
 30
0.0
  9
$PUCSYDIR
 10
0.0
 20
1.0
 30
0.0
  9
$PUCSORTHOREF
  2

  9
$PUCSORTHOVIEW
 70
     0
  9
$PUCSORGTOP
 10
0.0
 20
0.0
 30
0.0
  9
$PUCSORGBOTTOM
 10
0.0
 20
0.0
 30
0.0
  9
$PUCSORGLEFT
 10
0.0
 20
0.0
 30
0.0
  9
$PUCSORGRIGHT
 10
0.0
 20
0.0
 30
0.0
  9
$PUCSORGFRONT
 10
0.0
 20
0.0
 30
0.0
  9
$PUCSORGBACK
 10
0.0
 20
0.0
 30
0.0
  9
$USERI1
 70
     0
  9
$USERI2
 70
     0
  9
$USERI3
 70
     0
  9
$USERI4
 70
     0
  9
$USERI5
 70
     0
  9
$USERR1
 40
0.0
  9
$USERR2
 40
0.0
  9
$USERR3
 40
0.0
  9
$USERR4
 40
0.0
  9
$USERR5
 40
0.0
  9
$WORLDVIEW
 70
     1
  9
$SHADEDGE
 70
     3
  9
$SHADEDIF
 70
    70
  9
$TILEMODE
 70
     1
  9
$MAXACTVP
 70
    64
  9
$PINSBASE
 10
0.0
 20
0.0
 30
0.0
  9
$PLIMCHECK
 70
     0
  9
$PEXTMIN
 10
1.000000000000000E+20
 20
1.000000000000000E+20
 30
1.000000000000000E+20
  9
$PEXTMAX
 10
-1.000000000000000E+20
 20
-1.000000000000000E+20
 30
-1.000000000000000E+20
  9
$PLIMMIN
 10
0.0
 20
0.0
  9
$PLIMMAX
 10
12.0
 20
9.0
  9
$UNITMODE
 70
     0
  9
$VISRETAIN
 70
     1
  9
$PLINEGEN
 70
     0
  9
$PSLTSCALE
 70
     1
  9
$TREEDEPTH
 70
  3020
  9
$CMLSTYLE
  2
Standard
  9
$CMLJUST
 70
     0
  9
$CMLSCALE
 40
1.0
  9
$PROXYGRAPHICS
 70
     1
  9
$MEASUREMENT
 70
     0
  9
$CELWEIGHT
370
    -1
  9
$ENDCAPS
280
     0
  9
$JOINSTYLE
280
     0
  9
$LWDISPLAY
290
     0
  9
$INSUNITS
 70
     1
  9
$HYPERLINKBASE
  1

  9
$STYLESHEET
  1

  9
$XEDIT
290
     1
  9
$CEPSNTYPE
380
     0
  9
$PSTYLEMODE
290
     0
  9
$FINGERPRINTGUID
  2
{FAEB1C30-E019-11D5-929B-00C0DF256EC4}
  9
$VERSIONGUID
  2
{FAEB1C32-E019-11D5-929B-00C0DF256EC4}
  9
$EXTNAMES
290
     1
  9
$PSVPSCALE
 40
0.0
  9
$OLESTARTUP
290
     0
  0
ENDSEC
  0
SECTION
  2
CLASSES
  0
CLASS
  1
ACDBDICTIONARYWDFLT
  2
AcDbDictionaryWithDefault
  3
ObjectDBX Classes
 90
        0
280
     0
281
     0
  0
CLASS
  1
ACDBPLACEHOLDER
  2
AcDbPlaceHolder
  3
ObjectDBX Classes
 90
        0
280
     0
281
     0
  0
CLASS
  1
LAYOUT
  2
AcDbLayout
  3
ObjectDBX Classes
 90
        0
280
     0
281
     0
  0
ENDSEC
  0
SECTION
  2
TABLES
  0
TABLE
  2
VPORT
  5
194
330
0
100
AcDbSymbolTable
 70
     2
  0
VPORT
  5
1B5
330
194
100
AcDbSymbolTableRecord
100
AcDbViewportTableRecord
  2
*Active
 70
     0
 10
0.0
 20
0.0
 11
1.0
 21
1.0
 12
496.6061645622316
 22
115.1106574537728
 13
0.0
 23
0.0
 14
10.0
 24
10.0
 15
10.0
 25
10.0
 16
0.0
 26
0.0
 36
1.0
 17
0.0
 27
0.0
 37
0.0
 40
796.6247695631323
 41
0.0222899882530526
 42
50.0
 43
0.0
 44
0.0
 50
0.0
 51
0.0000000000007958
 71
     0
 72
   100
 73
     1
 74
     3
 75
     0
 76
     0
 77
     0
 78
     0
281
     0
 65
     1
110
0.0
120
0.0
130
0.0
111
1.0
121
0.0
131
0.0
112
0.0
122
1.0
132
0.0
 79
     0
146
0.0
  0
ENDTAB
  0
TABLE
  2
LTYPE
  5
191
330
0
100
AcDbSymbolTable
 70
    25
  0
LTYPE
  5
1A0
330
191
100
AcDbSymbolTableRecord
100
AcDbLinetypeTableRecord
  2
ByBlock
 70
     0
  3

 72
    65
 73
     0
 40
0.0
  0
LTYPE
  5
1A1
330
191
100
AcDbSymbolTableRecord
100
AcDbLinetypeTableRecord
  2
ByLayer
 70
     0
  3

 72
    65
 73
     0
 40
0.0
  0
LTYPE
  5
1A2
330
191
100
AcDbSymbolTableRecord
100
AcDbLinetypeTableRecord
  2
Continuous
 70
     0
  3
Solid line
 72
    65
 73
     0
 40
0.0
  0
LTYPE
  5
1BD
330
191
100
AcDbSymbolTableRecord
100
AcDbLinetypeTableRecord
  2
CENTER
 70
     0
  3
Center ____ _ ____ _ ____ _ ____ _ ____ _ ____
 72
    65
 73
     4
 40
2.0
 49
1.25
 74
     0
 49
-0.25
 74
     0
 49
0.25
 74
     0
 49
-0.25
 74
     0
  0
LTYPE
  5
1BE
330
191
100
AcDbSymbolTableRecord
100
AcDbLinetypeTableRecord
  2
DASHDOT
 70
     0
  3
Dashdot __ . __ . __ . __ . __ . __ . __ . __
 72
    65
 73
     4
 40
1.0
 49
0.5
 74
     0
 49
-0.25
 74
     0
 49
0.0
 74
     0
 49
-0.25
 74
     0
  0
LTYPE
  5
1BF
330
191
100
AcDbSymbolTableRecord
100
AcDbLinetypeTableRecord
  2
DASHED
 70
     0
  3
Dashed __ __ __ __ __ __ __ __ __ __ __ __ __ _
 72
    65
 73
     2
 40
0.75
 49
0.5
 74
     0
 49
-0.25
 74
     0
  0
LTYPE
  5
1C0
330
191
100
AcDbSymbolTableRecord
100
AcDbLinetypeTableRecord
  2
HIDDEN
 70
     0
  3
Hidden __ __ __ __ __ __ __ __ __ __ __ __ __ __
 72
    65
 73
     2
 40
0.375
 49
0.25
 74
     0
 49
-0.125
 74
     0
  0
LTYPE
  5
1C1
330
191
100
AcDbSymbolTableRecord
100
AcDbLinetypeTableRecord
  2
HIDDEN2
 70
     0
  3
Hidden2 _ _ _ _ _ _ _ _ _ _ _ _ _ _ _ _ _ 
 72
    65
 73
     2
 40
0.1875
 49
0.125
 74
     0
 49
-0.0625
 74
     0
  0
LTYPE
  5
1C2
330
191
100
AcDbSymbolTableRecord
100
AcDbLinetypeTableRecord
  2
BORDER
 70
     0
  3
Border __ __ . __ __ . __ __ . __ __ . __ __ .
 72
    65
 73
     6
 40
1.75
 49
0.5
 74
     0
 49
-0.25
 74
     0
 49
0.5
 74
     0
 49
-0.25
 74
     0
 49
0.0
 74
     0
 49
-0.25
 74
     0
  0
LTYPE
  5
1C3
330
191
100
AcDbSymbolTableRecord
100
AcDbLinetypeTableRecord
  2
BORDER2
 70
     0
  3
Border2 __.__.__.__.__.__.__.__.__.__.__.
 72
    65
 73
     6
 40
0.875
 49
0.25
 74
     0
 49
-0.125
 74
     0
 49
0.25
 74
     0
 49
-0.125
 74
     0
 49
0.0
 74
     0
 49
-0.125
 74
     0
  0
LTYPE
  5
1C4
330
191
100
AcDbSymbolTableRecord
100
AcDbLinetypeTableRecord
  2
BORDERX2
 70
     0
  3
Borderx2  ____  ____  .  ____  ____  .  ___
 72
    65
 73
     6
 40
3.5
 49
1.0
 74
     0
 49
-0.5
 74
     0
 49
1.0
 74
     0
 49
-0.5
 74
     0
 49
0.0
 74
     0
 49
-0.5
 74
     0
  0
LTYPE
  5
1C5
330
191
100
AcDbSymbolTableRecord
100
AcDbLinetypeTableRecord
  2
CENTER2
 70
     0
  3
Center2  ___ _ ___ _ ___ _ ___ _ ___ _ ___
 72
    65
 73
     4
 40
1.125
 49
0.75
 74
     0
 49
-0.125
 74
     0
 49
0.125
 74
     0
 49
-0.125
 74
     0
  0
LTYPE
  5
1C6
330
191
100
AcDbSymbolTableRecord
100
AcDbLinetypeTableRecord
  2
CENTERX2
 70
     0
  3
Centerx2  ________  __  ________  __  _____
 72
    65
 73
     4
 40
4.0
 49
2.5
 74
     0
 49
-0.5
 74
     0
 49
0.5
 74
     0
 49
-0.5
 74
     0
  0
LTYPE
  5
1C7
330
191
100
AcDbSymbolTableRecord
100
AcDbLinetypeTableRecord
  2
DASHDOT2
 70
     0
  3
Dashdot2  _._._._._._._._._._._._._._._.
 72
    65
 73
     4
 40
0.5
 49
0.25
 74
     0
 49
-0.125
 74
     0
 49
0.0
 74
     0
 49
-0.125
 74
     0
  0
LTYPE
  5
1C8
330
191
100
AcDbSymbolTableRecord
100
AcDbLinetypeTableRecord
  2
DASHDOTX2
 70
     0
  3
Dashdotx2 ____  .  ____  .  ____  .  ___
 72
    65
 73
     4
 40
2.0
 49
1.0
 74
     0
 49
-0.5
 74
     0
 49
0.0
 74
     0
 49
-0.5
 74
     0
  0
LTYPE
  5
1C9
330
191
100
AcDbSymbolTableRecord
100
AcDbLinetypeTableRecord
  2
DASHED2
 70
     0
  3
Dashed2 _ _ _ _ _ _ _ _ _ _ _ _ _ _ _ _ _ 
 72
    65
 73
     2
 40
0.375
 49
0.25
 74
     0
 49
-0.125
 74
     0
  0
LTYPE
  5
1CA
330
191
100
AcDbSymbolTableRecord
100
AcDbLinetypeTableRecord
  2
DASHEDX2
 70
     0
  3
Dashedx2 ____  ____  ____  ____  ____  ___
 72
    65
 73
     2
 40
1.5
 49
1.0
 74
     0
 49
-0.5
 74
     0
  0
LTYPE
  5
1CB
330
191
100
AcDbSymbolTableRecord
100
AcDbLinetypeTableRecord
  2
DIVIDE
 70
     0
  3
Divide ____ . . ____ . . ____ . . ____ . . ____
 72
    65
 73
     6
 40
1.25
 49
0.5
 74
     0
 49
-0.25
 74
     0
 49
0.0
 74
     0
 49
-0.25
 74
     0
 49
0.0
 74
     0
 49
-0.25
 74
     0
  0
LTYPE
  5
1CC
330
191
100
AcDbSymbolTableRecord
100
AcDbLinetypeTableRecord
  2
DIVIDE2
 70
     0
  3
Divide2 __..__..__..__..__..__..__..__.._
 72
    65
 73
     6
 40
0.625
 49
0.25
 74
     0
 49
-0.125
 74
     0
 49
0.0
 74
     0
 49
-0.125
 74
     0
 49
0.0
 74
     0
 49
-0.125
 74
     0
  0
LTYPE
  5
1CD
330
191
100
AcDbSymbolTableRecord
100
AcDbLinetypeTableRecord
  2
DIVIDEX2
 70
     0
  3
Dividex2 ________  .  .  ________  .  .  _
 72
    65
 73
     6
 40
2.5
 49
1.0
 74
     0
 49
-0.5
 74
     0
 49
0.0
 74
     0
 49
-0.5
 74
     0
 49
0.0
 74
     0
 49
-0.5
 74
     0
  0
LTYPE
  5
1CE
330
191
100
AcDbSymbolTableRecord
100
AcDbLinetypeTableRecord
  2
DOT
 70
     0
  3
Dot . . . . . . . . . . . . . . . . . . . . . . . .
 72
    65
 73
     2
 40
0.25
 49
0.0
 74
     0
 49
-0.25
 74
     0
  0
LTYPE
  5
1CF
330
191
100
AcDbSymbolTableRecord
100
AcDbLinetypeTableRecord
  2
DOT2
 70
     0
  3
Dot2 ........................................
 72
    65
 73
     2
 40
0.125
 49
0.0
 74
     0
 49
-0.125
 74
     0
  0
LTYPE
  5
1D0
330
191
100
AcDbSymbolTableRecord
100
AcDbLinetypeTableRecord
  2
DOTX2
 70
     0
  3
Dotx2 .  .  .  .  .  .  .  .  .  .  .  .  .  .
 72
    65
 73
     2
 40
0.5
 49
0.0
 74
     0
 49
-0.5
 74
     0
  0
LTYPE
  5
1D1
330
191
100
AcDbSymbolTableRecord
100
AcDbLinetypeTableRecord
  2
HIDDENX2
 70
     0
  3
Hiddenx2 ____ ____ ____ ____ ____ ____ ____ 
 72
    65
 73
     2
 40
0.75
 49
0.5
 74
     0
 49
-0.25
 74
     0
  0
LTYPE
  5
1D2
330
191
100
AcDbSymbolTableRecord
100
AcDbLinetypeTableRecord
  2
PHANTOM
 70
     0
  3
Phantom ______  __  __  ______  __  __  ______ 
 72
    65
 73
     6
 40
2.5
 49
1.25
 74
     0
 49
-0.25
 74
     0
 49
0.25
 74
     0
 49
-0.25
 74
     0
 49
0.25
 74
     0
 49
-0.25
 74
     0
  0
LTYPE
  5
1D3
330
191
100
AcDbSymbolTableRecord
100
AcDbLinetypeTableRecord
  2
PHANTOM2
 70
     0
  3
Phantom2 ___ _ _ ___ _ _ ___ _ _ ___ _ _
 72
    65
 73
     6
 40
1.25
 49
0.625
 74
     0
 49
-0.125
 74
     0
 49
0.125
 74
     0
 49
-0.125
 74
     0
 49
0.125
 74
     0
 49
-0.125
 74
     0
  0
LTYPE
  5
1D4
330
191
100
AcDbSymbolTableRecord
100
AcDbLinetypeTableRecord
  2
PHANTOMX2
 70
     0
  3
Phantomx2 ____________    ____    ____   _
 72
    65
 73
     6
 40
5.0
 49
2.5
 74
     0
 49
-0.5
 74
     0
 49
0.5
 74
     0
 49
-0.5
 74
     0
 49
0.5
 74
     0
 49
-0.5
 74
     0
  0
ENDTAB
  0
TABLE
  2
LAYER
  5
18E
330
0
100
AcDbSymbolTable
 70
     4
  0
LAYER
  5
19C
330
18E
100
AcDbSymbolTableRecord
100
AcDbLayerTableRecord
  2
0
 70
     0
 62
    90
  6
Continuous
370
     0
390
19B
  0
LAYER
  5
2B
330
18E
100
AcDbSymbolTableRecord
100
AcDbLayerTableRecord
  2
koty
 70
     0
 62
    41
  6
Continuous
370
     0
390
19B
  0
LAYER
  5
2C
330
18E
100
AcDbSymbolTableRecord
100
AcDbLayerTableRecord
  2
popis
 70
     0
 62
   210
  6
Continuous
370
     0
390
19B
  0
LAYER
  5
9B
330
18E
100
AcDbSymbolTableRecord
100
AcDbLayerTableRecord
  2
Defpoints
 70
     0
 62
     7
  6
Continuous
290
     0
370
     0
390
19B
  0
ENDTAB
  0
TABLE
  2
STYLE
  5
18F
330
0
100
AcDbSymbolTable
 70
     2
  0
STYLE
  5
19D
330
18F
100
AcDbSymbolTableRecord
100
AcDbTextStyleTableRecord
  2
Standard
 70
     0
 40
0.0
 41
1.0
 50
0.0
 71
     0
 42
0.2
  3
txt.shx
  4

1001
ACAD
1000
txt.shx
1071
        0
  0
STYLE
  5
6A
330
18F
100
AcDbSymbolTableRecord
100
AcDbTextStyleTableRecord
  2
vd_recov_1_6A_
 70
     0
 40
0.0
 41
1.0
 50
0.0
 71
     0
 42
0.2
  3
ltypeshp.shx
  4

1001
ACAD
1000
ltypeshp.shx
1071
        0
  0
ENDTAB
  0
TABLE
  2
VIEW
  5
192
330
0
100
AcDbSymbolTable
 70
     0
  0
ENDTAB
  0
TABLE
  2
UCS
  5
193
330
0
100
AcDbSymbolTable
 70
     0
  0
ENDTAB
  0
TABLE
  2
APPID
  5
195
330
0
100
AcDbSymbolTable
 70
     6
  0
APPID
  5
19E
330
195
100
AcDbSymbolTableRecord
100
AcDbRegAppTableRecord
  2
ACAD
 70
     0
  0
APPID
  5
1B6
330
195
100
AcDbSymbolTableRecord
100
AcDbRegAppTableRecord
  2
VD_INVISIBLE_NOT_FOR_READ
 70
     0
  0
APPID
  5
1B7
330
195
100
AcDbSymbolTableRecord
100
AcDbRegAppTableRecord
  2
VD_TEMPHATCH
 70
     0
  0
APPID
  5
1B8
330
195
100
AcDbSymbolTableRecord
100
AcDbRegAppTableRecord
  2
VDEXTRAPARAM
 70
     0
  0
APPID
  5
1B9
330
195
100
AcDbSymbolTableRecord
100
AcDbRegAppTableRecord
  2
PE_URL
 70
     0
  0
APPID
  5
1BA
330
195
100
AcDbSymbolTableRecord
100
AcDbRegAppTableRecord
  2
VD_UNKNOWN
 70
     0
  0
ENDTAB
  0
TABLE
  2
DIMSTYLE
  5
196
330
0
100
AcDbSymbolTable
 70
     2
100
AcDbDimStyleTable
  0
DIMSTYLE
105
1B3
330
196
100
AcDbSymbolTableRecord
100
AcDbDimStyleTableRecord
  2
STANDARD
 70
     0
 41
0.2
 42
0.05
 44
0.2
 73
     0
 74
     0
140
0.2
172
     1
174
     1
177
   256
178
   256
288
     1
340
19D
342
189
  0
DIMSTYLE
105
27
102
{ACAD_REACTORS
330
9A
330
B3
330
CF
330
EB
330
103
330
11B
330
137
330
14D
330
165
102
}
330
196
100
AcDbSymbolTableRecord
100
AcDbDimStyleTableRecord
  2
ISO-25
 70
     0
 40
10.0
 41
2.0
 42
0.625
 44
1.25
 73
     0
 74
     0
 77
     1
140
2.0
147
0.625
172
     1
174
     1
178
   256
271
     0
288
     1
340
19D
342
189
  0
ENDTAB
  0
TABLE
  2
BLOCK_RECORD
  5
18D
330
0
100
AcDbSymbolTable
 70
    12
  0
BLOCK_RECORD
  5
1AB
330
18D
100
AcDbSymbolTableRecord
100
AcDbBlockTableRecord
  2
*Model_Space
340
1AE
  0
BLOCK_RECORD
  5
1A7
330
18D
100
AcDbSymbolTableRecord
100
AcDbBlockTableRecord
  2
*Paper_Space
340
1AA
  0
BLOCK_RECORD
  5
1AF
330
18D
100
AcDbSymbolTableRecord
100
AcDbBlockTableRecord
  2
*Paper_Space0
340
1B2
  0
BLOCK_RECORD
  5
189
330
18D
100
AcDbSymbolTableRecord
100
AcDbBlockTableRecord
  2
VDDIM_DEFAULT
340
0
102
{BLKREFS
331
1DF
331
1DE
331
1ED
331
1EC
331
1FB
331
1FA
331
207
331
206
331
213
331
212
331
221
331
220
331
22B
331
235
331
234
331
242
331
241
102
}
  0
BLOCK_RECORD
  5
18B
330
18D
100
AcDbSymbolTableRecord
100
AcDbBlockTableRecord
  2
VDDIM_NONE
340
0
  0
BLOCK_RECORD
  5
1DA
330
18D
100
AcDbSymbolTableRecord
100
AcDbBlockTableRecord
  2
*D3
340
0
  0
BLOCK_RECORD
  5
1E6
330
18D
100
AcDbSymbolTableRecord
100
AcDbBlockTableRecord
  2
*D4
340
0
  0
BLOCK_RECORD
  5
1F4
330
18D
100
AcDbSymbolTableRecord
100
AcDbBlockTableRecord
  2
*D5
340
0
  0
BLOCK_RECORD
  5
202
330
18D
100
AcDbSymbolTableRecord
100
AcDbBlockTableRecord
  2
*D6
340
0
  0
BLOCK_RECORD
  5
20E
330
18D
100
AcDbSymbolTableRecord
100
AcDbBlockTableRecord
  2
*D7
340
0
  0
BLOCK_RECORD
  5
21A
330
18D
100
AcDbSymbolTableRecord
100
AcDbBlockTableRecord
  2
*D8
340
0
  0
BLOCK_RECORD
  5
228
330
18D
100
AcDbSymbolTableRecord
100
AcDbBlockTableRecord
  2
*D9
340
0
  0
BLOCK_RECORD
  5
230
330
18D
100
AcDbSymbolTableRecord
100
AcDbBlockTableRecord
  2
*D10
340
0
  0
BLOCK_RECORD
  5
23C
330
18D
100
AcDbSymbolTableRecord
100
AcDbBlockTableRecord
  2
*D11
340
0
  0
ENDTAB
  0
ENDSEC
  0
SECTION
  2
BLOCKS
  0
BLOCK
  5
1AC
330
1AB
100
AcDbEntity
  8
0
100
AcDbBlockBegin
  2
*Model_Space
 70
     0
 71
     0
 10
0.0
 20
0.0
 30
0.0
  3
*Model_Space
  1

  0
ENDBLK
  5
1AD
330
1AB
100
AcDbEntity
  8
0
100
AcDbBlockEnd
  0
BLOCK
  5
1A8
330
1A7
100
AcDbEntity
 67
     1
  8
0
100
AcDbBlockBegin
  2
*Paper_Space
 70
     0
 71
     0
 10
0.0
 20
0.0
 30
0.0
  3
*Paper_Space
  1

  0
ENDBLK
  5
1A9
330
1A7
100
AcDbEntity
 67
     1
  8
0
100
AcDbBlockEnd
  0
BLOCK
  5
1B0
330
1AF
100
AcDbEntity
  8
0
100
AcDbBlockBegin
  2
*Paper_Space0
 70
     0
 71
     0
 10
0.0
 20
0.0
 30
0.0
  3
*Paper_Space0
  1

  0
VIEWPORT
  5
24B
330
1AF
100
AcDbEntity
  8
0
 60
     1
100
AcDbViewport
 10
0.0
 20
0.0
 30
0.0
 40
10.0
 41
10.0
 69
     1
 12
0.0
 22
0.0
 13
0.0
 23
0.0
 14
1.0
 24
1.0
 15
0.0
 25
0.0
 16
0.0
 26
0.0
 36
1.0
 17
0.0
 27
0.0
 37
0.0
 42
0.0
 43
0.0
 44
0.0
 45
10.0
 50
0.0
 51
0.0000000000007958
 72
   100
 90
   163872
  1

281
     0
 71
     0
 74
     0
110
0.0
120
0.0
130
0.0
111
1.0
121
0.0
131
0.0
112
0.0
122
1.0
132
0.0
 79
     0
146
0.0
1001
VD_INVISIBLE_NOT_FOR_READ
1000
VD_INVISIBLE_NOT_FOR_READ
  0
VIEWPORT
  5
24C
330
1AF
100
AcDbEntity
  8
0
 60
     1
100
AcDbViewport
 10
0.0
 20
0.0
 30
0.0
 40
10.0
 41
10.0
 69
     2
 12
0.0
 22
0.0
 13
0.0
 23
0.0
 14
1.0
 24
1.0
 15
0.0
 25
0.0
 16
0.0
 26
0.0
 36
1.0
 17
0.0
 27
0.0
 37
0.0
 42
0.0
 43
0.0
 44
0.0
 45
10.0
 50
0.0
 51
0.0000000000007958
 72
   100
 90
   163872
  1

281
     0
 71
     0
 74
     0
110
0.0
120
0.0
130
0.0
111
1.0
121
0.0
131
0.0
112
0.0
122
1.0
132
0.0
 79
     0
146
0.0
1001
VD_INVISIBLE_NOT_FOR_READ
1000
VD_INVISIBLE_NOT_FOR_READ
  0
ENDBLK
  5
1B1
330
1AF
100
AcDbEntity
  8
0
100
AcDbBlockEnd
  0
BLOCK
  5
1D5
330
189
100
AcDbEntity
  8
0
100
AcDbBlockBegin
  2
VDDIM_DEFAULT
 70
     0
 71
     0
 10
0.0
 20
0.0
 30
0.0
  3
VDDIM_DEFAULT
  1

  0
LWPOLYLINE
  5
18A
330
189
100
AcDbEntity
  8
0
  6
Continuous
 62
     0
100
AcDbPolyline
 90
        4
 70
     0
 43
0.0
 10
0.0
 20
0.0
 10
-1.0
 20
-0.1665
 10
-1.0
 20
0.1665
 10
0.0
 20
0.0
1001
VDEXTRAPARAM
1071
        1
1071
        0
1071
        0
1040
1.0
1000

1000

1040
0.0
1040
0.0
  0
HATCH
  5
1D9
330
189
100
AcDbEntity
  8
0
  6
Continuous
 62
     0
100
AcDbHatch
 10
0.0
 20
0.0
 30
0.0
210
0.0
220
0.0
230
1.0
  2
SOLID
 70
     1
 71
     0
 91
        1
 92
        2
 72
     0
 73
     1
 93
        3
 10
0.0
 20
0.0
 10
-1.0
 20
-0.1665
 10
-1.0
 20
0.1665
 97
        0
 75
     0
 76
     1
 98
        1
 10
0.0
 20
0.0
1001
VDEXTRAPARAM
1071
        1
1071
        0
1071
        0
1040
1.0
1000

1000

1040
0.0
1040
0.0
1001
VD_TEMPHATCH
1000
VD_TEMPHATCH
  0
ENDBLK
  5
1D6
330
189
100
AcDbEntity
  8
0
100
AcDbBlockEnd
  0
BLOCK
  5
1D7
330
18B
100
AcDbEntity
  8
0
100
AcDbBlockBegin
  2
VDDIM_NONE
 70
     0
 71
     0
 10
0.0
 20
0.0
 30
0.0
  3
VDDIM_NONE
  1

  0
ENDBLK
  5
1D8
330
18B
100
AcDbEntity
  8
0
100
AcDbBlockEnd
  0
BLOCK
  5
1E4
330
1DA
100
AcDbEntity
  8
0
100
AcDbBlockBegin
  2
*D3
 70
     1
 71
     0
 10
0.0
 20
0.0
 30
0.0
  3
*D3
  1

  0
LINE
  5
1DB
330
1DA
100
AcDbEntity
  8
koty
 62
     0
370
    -2
100
AcDbLine
 10
286.9291388230596
 20
298.1897576215373
 30
0.0
 11
286.9291388230596
 21
404.2175010172941
 31
0.0
  0
LINE
  5
1DC
330
1DA
100
AcDbEntity
  8
koty
 62
     0
370
    -2
100
AcDbLine
 10
218.9291388230596
 20
298.1897576215373
 30
0.0
 11
218.9291388230596
 21
404.2175010172941
 31
0.0
  0
LINE
  5
1DD
330
1DA
100
AcDbEntity
  8
koty
 62
     0
370
    -2
100
AcDbLine
 10
266.9291388230596
 20
391.7175010172941
 30
0.0
 11
238.9291388230596
 21
391.7175010172941
 31
0.0
  0
INSERT
  5
1DE
330
1DA
100
AcDbEntity
  8
koty
 62
     0
370
    -2
100
AcDbBlockReference
  2
VDDIM_DEFAULT
 10
286.9291388230596
 20
391.7175010172941
 30
0.0
 41
20.0
 42
20.0
 43
20.0
  0
INSERT
  5
1DF
330
1DA
100
AcDbEntity
  8
koty
 62
     0
370
    -2
100
AcDbBlockReference
  2
VDDIM_DEFAULT
 10
218.9291388230596
 20
391.7175010172941
 30
0.0
 41
20.0
 42
20.0
 43
20.0
 50
180.0
  0
MTEXT
  5
1E0
330
1DA
100
AcDbEntity
  8
koty
100
AcDbMText
 10
252.9291388230596
 20
407.9675010172941
 30
0.0
 40
20.0
 41
0.0
 71
     5
 72
     1
  1
\A1;68
 73
     1
 44
1.0
  0
POINT
  5
1E1
330
1DA
100
AcDbEntity
  8
Defpoints
 62
     0
100
AcDbPoint
 10
286.9291388230596
 20
291.9397576215373
 30
0.0
  0
POINT
  5
1E2
330
1DA
100
AcDbEntity
  8
Defpoints
 62
     0
100
AcDbPoint
 10
218.9291388230596
 20
291.9397576215373
 30
0.0
  0
POINT
  5
1E3
330
1DA
100
AcDbEntity
  8
Defpoints
 62
     0
100
AcDbPoint
 10
218.9291388230596
 20
391.7175010172941
 30
0.0
  0
ENDBLK
  5
1E5
330
1DA
100
AcDbEntity
  8
0
100
AcDbBlockEnd
  0
BLOCK
  5
1F2
330
1E6
100
AcDbEntity
  8
0
100
AcDbBlockBegin
  2
*D4
 70
     1
 71
     0
 10
0.0
 20
0.0
 30
0.0
  3
*D4
  1

  0
LINE
  5
1E7
330
1E6
100
AcDbEntity
  8
koty
 62
     0
370
    -2
100
AcDbLine
 10
148.1791388230597
 20
134.4397576215373
 30
0.0
 11
70.49528368807478
 21
134.4397576215373
 31
0.0
  0
LINE
  5
1E8
330
1E6
100
AcDbEntity
  8
koty
 62
     0
370
    -2
100
AcDbLine
 10
148.1791388230597
 20
159.4397576215373
 30
0.0
 11
70.49528368807478
 21
159.4397576215373
 31
0.0
  0
LINE
  5
1E9
330
1E6
100
AcDbEntity
  8
koty
 62
     0
370
    -2
100
AcDbLine
 10
82.99528368807478
 20
114.4397576215373
 30
0.0
 11
82.99528368807478
 21
94.4397576215373
 31
0.0
  0
LINE
  5
1EA
330
1E6
100
AcDbEntity
  8
koty
 62
     0
370
    -2
100
AcDbLine
 10
82.99528368807478
 20
179.4397576215373
 30
0.0
 11
82.99528368807478
 21
244.3207100024897
 31
0.0
  0
LINE
  5
1EB
330
1E6
100
AcDbEntity
  8
koty
 62
     0
370
    -2
100
AcDbLine
 10
82.99528368807478
 20
134.4397576215373
 30
0.0
 11
82.99528368807478
 21
159.4397576215373
 31
0.0
  0
INSERT
  5
1EC
330
1E6
100
AcDbEntity
  8
koty
 62
     0
370
    -2
100
AcDbBlockReference
  2
VDDIM_DEFAULT
 10
82.99528368807478
 20
134.4397576215373
 30
0.0
 41
20.0
 42
20.0
 43
20.0
 50
90.0
  0
INSERT
  5
1ED
330
1E6
100
AcDbEntity
  8
koty
 62
     0
370
    -2
100
AcDbBlockReference
  2
VDDIM_DEFAULT
 10
82.99528368807478
 20
159.4397576215373
 30
0.0
 41
20.0
 42
20.0
 43
20.0
 50
270.0
  0
MTEXT
  5
1EE
330
1E6
100
AcDbEntity
  8
koty
100
AcDbMText
 10
66.74528368807478
 20
221.8802338120135
 30
0.0
 40
20.0
 41
0.0
 71
     5
 72
     1
  1
\A1;25
 11
0.0
 21
-1.0
 31
0.0
 73
     1
 44
1.0
  0
POINT
  5
1EF
330
1E6
100
AcDbEntity
  8
Defpoints
 62
     0
100
AcDbPoint
 10
154.4291388230597
 20
134.4397576215373
 30
0.0
  0
POINT
  5
1F0
330
1E6
100
AcDbEntity
  8
Defpoints
 62
     0
100
AcDbPoint
 10
154.4291388230597
 20
159.4397576215373
 30
0.0
  0
POINT
  5
1F1
330
1E6
100
AcDbEntity
  8
Defpoints
 62
     0
100
AcDbPoint
 10
82.99528368807478
 20
159.4397576215373
 30
0.0
  0
ENDBLK
  5
1F3
330
1E6
100
AcDbEntity
  8
0
100
AcDbBlockEnd
  0
BLOCK
  5
200
330
1F4
100
AcDbEntity
  8
0
100
AcDbBlockBegin
  2
*D5
 70
     1
 71
     0
 10
0.0
 20
0.0
 30
0.0
  3
*D5
  1

  0
LINE
  5
1F5
330
1F4
100
AcDbEntity
  8
koty
 62
     0
370
    -2
100
AcDbLine
 10
331.9291388230597
 20
20.68975762153741
 30
0.0
 11
331.9291388230597
 21
-61.70028897990414
 31
0.0
  0
LINE
  5
1F6
330
1F4
100
AcDbEntity
  8
koty
 62
     0
370
    -2
100
AcDbLine
 10
286.9291388230596
 20
20.68975762153741
 30
0.0
 11
286.9291388230596
 21
-61.70028897990414
 31
0.0
  0
LINE
  5
1F7
330
1F4
100
AcDbEntity
  8
koty
 62
     0
370
    -2
100
AcDbLine
 10
351.9291388230597
 20
-49.20028897990414
 30
0.0
 11
371.9291388230597
 21
-49.20028897990414
 31
0.0
  0
LINE
  5
1F8
330
1F4
100
AcDbEntity
  8
koty
 62
     0
370
    -2
100
AcDbLine
 10
266.9291388230596
 20
-49.20028897990414
 30
0.0
 11
202.0481864421072
 21
-49.20028897990414
 31
0.0
  0
LINE
  5
1F9
330
1F4
100
AcDbEntity
  8
koty
 62
     0
370
    -2
100
AcDbLine
 10
331.9291388230597
 20
-49.20028897990414
 30
0.0
 11
286.9291388230596
 21
-49.20028897990414
 31
0.0
  0
INSERT
  5
1FA
330
1F4
100
AcDbEntity
  8
koty
 62
     0
370
    -2
100
AcDbBlockReference
  2
VDDIM_DEFAULT
 10
331.9291388230597
 20
-49.20028897990414
 30
0.0
 41
20.0
 42
20.0
 43
20.0
 50
180.0
  0
INSERT
  5
1FB
330
1F4
100
AcDbEntity
  8
koty
 62
     0
370
    -2
100
AcDbBlockReference
  2
VDDIM_DEFAULT
 10
286.9291388230596
 20
-49.20028897990414
 30
0.0
 41
20.0
 42
20.0
 43
20.0
  0
MTEXT
  5
1FC
330
1F4
100
AcDbEntity
  8
koty
100
AcDbMText
 10
224.4886626325834
 20
-32.95028897990414
 30
0.0
 40
20.0
 41
0.0
 71
     5
 72
     1
  1
\A1;45
 73
     1
 44
1.0
  0
POINT
  5
1FD
330
1F4
100
AcDbEntity
  8
Defpoints
 62
     0
100
AcDbPoint
 10
331.9291388230597
 20
26.93975762153741
 30
0.0
  0
POINT
  5
1FE
330
1F4
100
AcDbEntity
  8
Defpoints
 62
     0
100
AcDbPoint
 10
286.9291388230596
 20
26.93975762153741
 30
0.0
  0
POINT
  5
1FF
330
1F4
100
AcDbEntity
  8
Defpoints
 62
     0
100
AcDbPoint
 10
286.9291388230596
 20
-49.20028897990414
 30
0.0
  0
ENDBLK
  5
201
330
1F4
100
AcDbEntity
  8
0
100
AcDbBlockEnd
  0
BLOCK
  5
20C
330
202
100
AcDbEntity
  8
0
100
AcDbBlockBegin
  2
*D6
 70
     1
 71
     0
 10
0.0
 20
0.0
 30
0.0
  3
*D6
  1

  0
LINE
  5
203
330
202
100
AcDbEntity
  8
koty
 62
     0
370
    -2
100
AcDbLine
 10
644.2908860640689
 20
271.9397576215374
 30
0.0
 11
586.2549360810226
 21
271.9397576215374
 31
0.0
  0
LINE
  5
204
330
202
100
AcDbEntity
  8
koty
 62
     0
370
    -2
100
AcDbLine
 10
644.2908860640689
 20
46.93975762153741
 30
0.0
 11
586.2549360810226
 21
46.93975762153741
 31
0.0
  0
LINE
  5
205
330
202
100
AcDbEntity
  8
koty
 62
     0
370
    -2
100
AcDbLine
 10
598.7549360810226
 20
251.9397576215374
 30
0.0
 11
598.7549360810226
 21
66.93975762153741
 31
0.0
  0
INSERT
  5
206
330
202
100
AcDbEntity
  8
koty
 62
     0
370
    -2
100
AcDbBlockReference
  2
VDDIM_DEFAULT
 10
598.7549360810226
 20
271.9397576215374
 30
0.0
 41
20.0
 42
20.0
 43
20.0
 50
90.0
  0
INSERT
  5
207
330
202
100
AcDbEntity
  8
koty
 62
     0
370
    -2
100
AcDbBlockReference
  2
VDDIM_DEFAULT
 10
598.7549360810226
 20
46.93975762153741
 30
0.0
 41
20.0
 42
20.0
 43
20.0
 50
270.0
  0
MTEXT
  5
208
330
202
100
AcDbEntity
  8
koty
100
AcDbMText
 10
582.5049360810226
 20
159.4397576215374
 30
0.0
 40
20.0
 41
0.0
 71
     5
 72
     1
  1
\A1;225
 11
0.0
 21
1.0
 31
0.0
 73
     1
 44
1.0
  0
POINT
  5
209
330
202
100
AcDbEntity
  8
Defpoints
 62
     0
100
AcDbPoint
 10
650.5408860640689
 20
271.9397576215374
 30
0.0
  0
POINT
  5
20A
330
202
100
AcDbEntity
  8
Defpoints
 62
     0
100
AcDbPoint
 10
650.5408860640689
 20
46.93975762153741
 30
0.0
  0
POINT
  5
20B
330
202
100
AcDbEntity
  8
Defpoints
 62
     0
100
AcDbPoint
 10
598.7549360810226
 20
46.93975762153741
 30
0.0
  0
ENDBLK
  5
20D
330
202
100
AcDbEntity
  8
0
100
AcDbBlockEnd
  0
BLOCK
  5
218
330
20E
100
AcDbEntity
  8
0
100
AcDbBlockBegin
  2
*D7
 70
     1
 71
     0
 10
0.0
 20
0.0
 30
0.0
  3
*D7
  1

  0
LINE
  5
20F
330
20E
100
AcDbEntity
  8
koty
 62
     0
370
    -2
100
AcDbLine
 10
650.540886064069
 20
40.68975762153741
 30
0.0
 11
650.540886064069
 21
-40.40163657058656
 31
0.0
  0
LINE
  5
210
330
20E
100
AcDbEntity
  8
koty
 62
     0
370
    -2
100
AcDbLine
 10
748.5408860640688
 20
40.6897576215374
 30
0.0
 11
748.5408860640688
 21
-40.40163657058657
 31
0.0
  0
LINE
  5
211
330
20E
100
AcDbEntity
  8
koty
 62
     0
370
    -2
100
AcDbLine
 10
670.540886064069
 20
-27.90163657058656
 30
0.0
 11
728.5408860640688
 21
-27.90163657058657
 31
0.0
  0
INSERT
  5
212
330
20E
100
AcDbEntity
  8
koty
 62
     0
370
    -2
100
AcDbBlockReference
  2
VDDIM_DEFAULT
 10
650.540886064069
 20
-27.90163657058656
 30
0.0
 41
20.0
 42
20.0
 43
20.0
 50
180.0
  0
INSERT
  5
213
330
20E
100
AcDbEntity
  8
koty
 62
     0
370
    -2
100
AcDbBlockReference
  2
VDDIM_DEFAULT
 10
748.5408860640688
 20
-27.90163657058657
 30
0.0
 41
20.0
 42
20.0
 43
20.0
 50
360.0
  0
MTEXT
  5
214
330
20E
100
AcDbEntity
  8
koty
100
AcDbMText
 10
699.5408860640689
 20
-11.65163657058657
 30
0.0
 40
20.0
 41
0.0
 71
     5
 72
     1
  1
\A1;98
 73
     1
 44
1.0
  0
POINT
  5
215
330
20E
100
AcDbEntity
  8
Defpoints
 62
     0
100
AcDbPoint
 10
650.540886064069
 20
46.93975762153741
 30
0.0
  0
POINT
  5
216
330
20E
100
AcDbEntity
  8
Defpoints
 62
     0
100
AcDbPoint
 10
748.5408860640688
 20
46.9397576215374
 30
0.0
  0
POINT
  5
217
330
20E
100
AcDbEntity
  8
Defpoints
 62
     0
100
AcDbPoint
 10
748.5408860640688
 20
-27.90163657058657
 30
0.0
  0
ENDBLK
  5
219
330
20E
100
AcDbEntity
  8
0
100
AcDbBlockEnd
  0
BLOCK
  5
226
330
21A
100
AcDbEntity
  8
0
100
AcDbBlockBegin
  2
*D8
 70
     1
 71
     0
 10
0.0
 20
0.0
 30
0.0
  3
*D8
  1

  0
LINE
  5
21B
330
21A
100
AcDbEntity
  8
koty
 62
     0
370
    -2
100
AcDbLine
 10
748.5408860640688
 20
20.68975762153741
 30
0.0
 11
748.5408860640688
 21
-40.7207079172602
 31
0.0
  0
LINE
  5
21C
330
21A
100
AcDbEntity
  8
koty
 62
     0
370
    -2
100
AcDbLine
 10
773.5408860640688
 20
153.1897576215374
 30
0.0
 11
773.5408860640688
 21
-40.7207079172602
 31
0.0
  0
LINE
  5
21D
330
21A
100
AcDbEntity
  8
koty
 62
     0
370
    -2
100
AcDbLine
 10
728.5408860640688
 20
-28.2207079172602
 30
0.0
 11
708.5408860640688
 21
-28.2207079172602
 31
0.0
  0
LINE
  5
21E
330
21A
100
AcDbEntity
  8
koty
 62
     0
370
    -2
100
AcDbLine
 10
793.5408860640688
 20
-28.2207079172602
 30
0.0
 11
858.4218384450211
 21
-28.2207079172602
 31
0.0
  0
LINE
  5
21F
330
21A
100
AcDbEntity
  8
koty
 62
     0
370
    -2
100
AcDbLine
 10
748.5408860640688
 20
-28.2207079172602
 30
0.0
 11
773.5408860640688
 21
-28.2207079172602
 31
0.0
  0
INSERT
  5
220
330
21A
100
AcDbEntity
  8
koty
 62
     0
370
    -2
100
AcDbBlockReference
  2
VDDIM_DEFAULT
 10
748.5408860640688
 20
-28.2207079172602
 30
0.0
 41
20.0
 42
20.0
 43
20.0
  0
INSERT
  5
221
330
21A
100
AcDbEntity
  8
koty
 62
     0
370
    -2
100
AcDbBlockReference
  2
VDDIM_DEFAULT
 10
773.5408860640688
 20
-28.2207079172602
 30
0.0
 41
20.0
 42
20.0
 43
20.0
 50
180.0
  0
MTEXT
  5
222
330
21A
100
AcDbEntity
  8
koty
100
AcDbMText
 10
835.9813622545449
 20
-11.9707079172602
 30
0.0
 40
20.0
 41
0.0
 71
     5
 72
     1
  1
\A1;25
 73
     1
 44
1.0
  0
POINT
  5
223
330
21A
100
AcDbEntity
  8
Defpoints
 62
     0
100
AcDbPoint
 10
748.5408860640688
 20
26.93975762153741
 30
0.0
  0
POINT
  5
224
330
21A
100
AcDbEntity
  8
Defpoints
 62
     0
100
AcDbPoint
 10
773.5408860640688
 20
159.4397576215374
 30
0.0
  0
POINT
  5
225
330
21A
100
AcDbEntity
  8
Defpoints
 62
     0
100
AcDbPoint
 10
773.5408860640688
 20
-28.2207079172602
 30
0.0
  0
ENDBLK
  5
227
330
21A
100
AcDbEntity
  8
0
100
AcDbBlockEnd
  0
BLOCK
  5
22E
330
228
100
AcDbEntity
  8
0
100
AcDbBlockBegin
  2
*D9
 70
     1
 71
     0
 10
0.0
 20
0.0
 30
0.0
  3
*D9
  1

  0
LINE
  5
229
330
228
100
AcDbEntity
  8
koty
 62
     0
370
    -2
100
AcDbLine
 10
709.8596986535943
 20
164.1890811174696
 30
0.0
 11
706.094990090686
 21
153.3353581784998
 31
0.0
  0
MTEXT
  5
22A
330
228
100
AcDbEntity
  8
koty
100
AcDbMText
 10
699.5408860640688
 20
134.4397576215373
 30
0.0
 40
20.0
 41
0.0
 71
     5
 72
     1
  1
\A1;\U+220580
 11
0.3277052013308631
 21
0.9447800278481222
 31
0.0
 73
     1
 44
1.0
  0
INSERT
  5
22B
330
228
100
AcDbEntity
  8
koty
 62
     0
370
    -2
100
AcDbBlockReference
  2
VDDIM_DEFAULT
 10
712.6490941173033
 20
172.2309587354622
 30
0.0
 41
20.0
 42
20.0
 43
20.0
 50
250.8704503996391
  0
POINT
  5
22C
330
228
100
AcDbEntity
  8
Defpoints
 62
     0
100
AcDbPoint
 10
712.6490941173033
 20
172.2309587354622
 30
0.0
  0
POINT
  5
22D
330
228
100
AcDbEntity
  8
Defpoints
 62
     0
100
AcDbPoint
 10
686.4326780108343
 20
96.64855650761237
 30
0.0
  0
ENDBLK
  5
22F
330
228
100
AcDbEntity
  8
0
100
AcDbBlockEnd
  0
BLOCK
  5
23A
330
230
100
AcDbEntity
  8
0
100
AcDbBlockBegin
  2
*D10
 70
     1
 71
     0
 10
0.0
 20
0.0
 30
0.0
  3
*D10
  1

  0
LINE
  5
231
330
230
100
AcDbEntity
  8
koty
 62
     0
370
    -2
100
AcDbLine
 10
653.2908860640688
 20
271.9397576215373
 30
0.0
 11
585.9166439338296
 21
271.9397576215373
 31
0.0
  0
LINE
  5
232
330
230
100
AcDbEntity
  8
koty
 62
     0
370
    -2
100
AcDbLine
 10
653.2908860640688
 20
337.9397576215373
 30
0.0
 11
585.9166439338296
 21
337.9397576215373
 31
0.0
  0
LINE
  5
233
330
230
100
AcDbEntity
  8
koty
 62
     0
370
    -2
100
AcDbLine
 10
598.4166439338296
 20
291.9397576215373
 30
0.0
 11
598.4166439338296
 21
317.9397576215373
 31
0.0
  0
INSERT
  5
234
330
230
100
AcDbEntity
  8
koty
 62
     0
370
    -2
100
AcDbBlockReference
  2
VDDIM_DEFAULT
 10
598.4166439338296
 20
271.9397576215373
 30
0.0
 41
20.0
 42
20.0
 43
20.0
 50
270.0
  0
INSERT
  5
235
330
230
100
AcDbEntity
  8
koty
 62
     0
370
    -2
100
AcDbBlockReference
  2
VDDIM_DEFAULT
 10
598.4166439338296
 20
337.9397576215373
 30
0.0
 41
20.0
 42
20.0
 43
20.0
 50
90.0
  0
MTEXT
  5
236
330
230
100
AcDbEntity
  8
koty
100
AcDbMText
 10
582.1666439338296
 20
304.9397576215373
 30
0.0
 40
20.0
 41
0.0
 71
     5
 72
     1
  1
\A1;66
 11
0.0
 21
-1.0
 31
0.0
 73
     1
 44
1.0
  0
POINT
  5
237
330
230
100
AcDbEntity
  8
Defpoints
 62
     0
100
AcDbPoint
 10
659.5408860640688
 20
271.9397576215373
 30
0.0
  0
POINT
  5
238
330
230
100
AcDbEntity
  8
Defpoints
 62
     0
100
AcDbPoint
 10
659.5408860640688
 20
337.9397576215373
 30
0.0
  0
POINT
  5
239
330
230
100
AcDbEntity
  8
Defpoints
 62
     0
100
AcDbPoint
 10
598.4166439338296
 20
337.9397576215373
 30
0.0
  0
ENDBLK
  5
23B
330
230
100
AcDbEntity
  8
0
100
AcDbBlockEnd
  0
BLOCK
  5
247
330
23C
100
AcDbEntity
  8
0
100
AcDbBlockBegin
  2
*D11
 70
     1
 71
     0
 10
0.0
 20
0.0
 30
0.0
  3
*D11
  1

  0
LINE
  5
23D
330
23C
100
AcDbEntity
  8
koty
 62
     0
370
    -2
100
AcDbLine
 10
659.5408860640689
 20
344.1897576215373
 30
0.0
 11
659.5408860640689
 21
404.217501017265
 31
0.0
  0
LINE
  5
23E
330
23C
100
AcDbEntity
  8
koty
 62
     0
370
    -2
100
AcDbLine
 10
739.5408860640688
 20
344.1897576215373
 30
0.0
 11
739.5408860640688
 21
404.217501017265
 31
0.0
  0
LINE
  5
23F
330
23C
100
AcDbEntity
  8
koty
 62
     0
370
    -2
100
AcDbLine
 10
679.5408860640689
 20
391.717501017265
 30
0.0
 11
719.5408860640688
 21
391.717501017265
 31
0.0
  0
LINE
  5
240
330
23C
100
AcDbEntity
  8
koty
 62
     0
370
    -2
100
AcDbLine
 10
739.5408860640688
 20
391.717501017265
 30
0.0
 11
867.278981302164
 21
391.717501017265
 31
0.0
  0
INSERT
  5
241
330
23C
100
AcDbEntity
  8
koty
 62
     0
370
    -2
100
AcDbBlockReference
  2
VDDIM_DEFAULT
 10
659.5408860640689
 20
391.717501017265
 30
0.0
 41
20.0
 42
20.0
 43
20.0
 50
180.0
  0
INSERT
  5
242
330
23C
100
AcDbEntity
  8
koty
 62
     0
370
    -2
100
AcDbBlockReference
  2
VDDIM_DEFAULT
 10
739.5408860640688
 20
391.717501017265
 30
0.0
 41
20.0
 42
20.0
 43
20.0
  0
MTEXT
  5
243
330
23C
100
AcDbEntity
  8
koty
100
AcDbMText
 10
813.4099336831164
 20
407.967501017265
 30
0.0
 40
20.0
 41
0.0
 71
     5
 72
     1
  1
75-80
 73
     1
 44
1.0
  0
POINT
  5
244
330
23C
100
AcDbEntity
  8
Defpoints
 62
     0
100
AcDbPoint
 10
659.5408860640689
 20
337.9397576215373
 30
0.0
  0
POINT
  5
245
330
23C
100
AcDbEntity
  8
Defpoints
 62
     0
100
AcDbPoint
 10
739.5408860640688
 20
337.9397576215373
 30
0.0
  0
POINT
  5
246
330
23C
100
AcDbEntity
  8
Defpoints
 62
     0
100
AcDbPoint
 10
739.5408860640688
 20
391.717501017265
 30
0.0
  0
ENDBLK
  5
248
330
23C
100
AcDbEntity
  8
0
100
AcDbBlockEnd
  0
ENDSEC
  0
SECTION
  2
ENTITIES
  0
LWPOLYLINE
  5
34
330
1AB
100
AcDbEntity
  8
0
100
AcDbPolyline
 90
        8
 70
     1
 43
0.0
 10
164.4291388230596
 20
26.93975762153741
 10
409.4291388230597
 20
26.93975762153741
 42
0.4142135623730951
 10
419.4291388230596
 20
36.93975762153741
 10
419.4291388230596
 20
281.9397576215373
 42
0.4142135623730951
 10
409.4291388230597
 20
291.9397576215373
 10
164.4291388230596
 20
291.9397576215373
 42
0.4142135623730951
 10
154.4291388230597
 20
281.9397576215373
 10
154.4291388230597
 20
36.93975762153741
 42
0.4142135623730951
  0
LINE
  5
37
330
1AB
100
AcDbEntity
  8
0
100
AcDbLine
 10
286.9291388230596
 20
291.9397576215373
 30
0.0
 11
218.9291388230596
 21
291.9397576215373
 31
0.0
  0
LINE
  5
39
330
1AB
100
AcDbEntity
  8
0
100
AcDbLine
 10
154.4291388230597
 20
159.4397576215373
 30
0.0
 11
154.4291388230597
 21
134.4397576215373
 31
0.0
  0
LINE
  5
3A
330
1AB
100
AcDbEntity
  8
0
100
AcDbLine
 10
154.4291388230597
 20
159.4397576215373
 30
0.0
 11
154.4291388230597
 21
134.4397576215373
 31
0.0
  0
LINE
  5
3C
330
1AB
100
AcDbEntity
  8
0
100
AcDbLine
 10
286.9291388230596
 20
26.93975762153741
 30
0.0
 11
331.9291388230597
 21
26.93975762153741
 31
0.0
  0
LINE
  5
3F
330
1AB
100
AcDbEntity
  8
0
  6
Continuous
100
AcDbLine
 10
108.4291388230597
 20
174.4397576215373
 30
0.0
 11
154.4291388230597
 21
174.4397576215373
 31
0.0
  0
LINE
  5
44
330
1AB
100
AcDbEntity
  8
0
  6
Continuous
100
AcDbLine
 10
108.4291388230597
 20
94.43975762153747
 30
0.0
 11
154.4291388230596
 21
94.43975762153741
 31
0.0
  0
LINE
  5
46
330
1AB
100
AcDbEntity
  8
0
  6
Continuous
100
AcDbLine
 10
465.4291388230596
 20
94.43975762153747
 30
0.0
 11
419.4291388230596
 21
94.43975762153741
 31
0.0
  0
LINE
  5
49
330
1AB
100
AcDbEntity
  8
0
  6
Continuous
100
AcDbLine
 10
465.4291388230596
 20
174.4397576215373
 30
0.0
 11
419.4291388230596
 21
174.4397576215373
 31
0.0
  0
LINE
  5
53
330
1AB
100
AcDbEntity
  8
0
100
AcDbLine
 10
258.9291388230597
 20
337.9397576215373
 30
0.0
 11
258.9291388230597
 21
291.9397576215373
 31
0.0
  0
LINE
  5
56
330
1AB
100
AcDbEntity
  8
0
100
AcDbLine
 10
178.9291388230597
 20
337.9397576215373
 30
0.0
 11
178.9291388230596
 21
291.9397576215373
 31
0.0
  0
LINE
  5
57
330
1AB
100
AcDbEntity
  8
0
100
AcDbLine
 10
178.9291388230596
 20
291.9397576215373
 30
0.0
 11
258.9291388230597
 21
291.9397576215373
 31
0.0
  0
LINE
  5
61
330
1AB
100
AcDbEntity
  8
0
  6
Continuous
100
AcDbLine
 10
371.9291388230597
 20
-19.06024237846258
 30
0.0
 11
371.9291388230597
 21
26.93975762153741
 31
0.0
  0
LINE
  5
63
330
1AB
100
AcDbEntity
  8
0
  6
Continuous
100
AcDbLine
 10
291.9291388230596
 20
-19.06024237846258
 30
0.0
 11
291.9291388230596
 21
26.93975762153741
 31
0.0
  0
LINE
  5
65
330
1AB
100
AcDbEntity
  8
0
100
AcDbLine
 10
291.9291388230596
 20
26.93975762153741
 30
0.0
 11
371.9291388230597
 21
26.93975762153741
 31
0.0
  0
LINE
  5
6E
330
1AB
100
AcDbEntity
  8
0
100
AcDbLine
 10
650.5408860640689
 20
271.9397576215374
 30
0.0
 11
650.540886064069
 21
46.93975762153741
 31
0.0
  0
LINE
  5
7A
330
1AB
100
AcDbEntity
  8
0
  6
Continuous
100
AcDbLine
 10
108.4291388230597
 20
174.4397576215373
 30
0.0
 11
108.4291388230597
 21
94.43975762153747
 31
0.0
  0
LINE
  5
7B
330
1AB
100
AcDbEntity
  8
0
  6
Continuous
100
AcDbLine
 10
291.9291388230596
 20
-19.06024237846258
 30
0.0
 11
371.9291388230597
 21
-19.06024237846258
 31
0.0
  0
LINE
  5
7C
330
1AB
100
AcDbEntity
  8
0
  6
Continuous
100
AcDbLine
 10
465.4291388230596
 20
94.43975762153747
 30
0.0
 11
465.4291388230596
 21
174.4397576215373
 31
0.0
  0
LINE
  5
7D
330
1AB
100
AcDbEntity
  8
0
100
AcDbLine
 10
178.9291388230597
 20
337.9397576215373
 30
0.0
 11
258.9291388230597
 21
337.9397576215373
 31
0.0
  0
LINE
  5
7E
330
1AB
100
AcDbEntity
  8
0
100
AcDbLine
 10
659.5408860640689
 20
337.9397576215373
 30
0.0
 11
739.5408860640689
 21
337.9397576215373
 31
0.0
  0
LINE
  5
83
330
1AB
100
AcDbEntity
  8
0
100
AcDbLine
 10
650.5408860640689
 20
159.4397576215374
 30
0.0
 11
650.5408860640689
 21
271.9397576215374
 31
0.0
  0
LINE
  5
84
330
1AB
100
AcDbEntity
  8
0
100
AcDbLine
 10
650.5408860640689
 20
271.9397576215374
 30
0.0
 11
748.5408860640688
 21
271.9397576215373
 31
0.0
  0
LINE
  5
85
330
1AB
100
AcDbEntity
  8
0
100
AcDbLine
 10
650.5408860640689
 20
46.93975762153741
 30
0.0
 11
748.5408860640688
 21
46.9397576215374
 31
0.0
  0
LINE
  5
87
330
1AB
100
AcDbEntity
  8
0
100
AcDbLine
 10
748.5408860640688
 20
26.93975762153741
 30
0.0
 11
748.5408860640688
 21
291.9397576215373
 31
0.0
  0
LINE
  5
8A
330
1AB
100
AcDbEntity
  8
0
100
AcDbLine
 10
748.5408860640688
 20
26.93975762153741
 30
0.0
 11
759.040886064069
 21
26.93975762153741
 31
0.0
  0
LINE
  5
8B
330
1AB
100
AcDbEntity
  8
0
100
AcDbLine
 10
761.0408860640689
 20
28.93975762153741
 30
0.0
 11
761.0408860640688
 21
289.9397576215373
 31
0.0
  0
LINE
  5
90
330
1AB
100
AcDbEntity
  8
0
100
AcDbLine
 10
659.5408860640688
 20
271.9397576215373
 30
0.0
 11
659.5408860640688
 21
337.9397576215373
 31
0.0
  0
LINE
  5
91
330
1AB
100
AcDbEntity
  8
0
100
AcDbLine
 10
739.5408860640688
 20
271.9397576215373
 30
0.0
 11
739.5408860640688
 21
337.9397576215373
 31
0.0
  0
LINE
  5
92
330
1AB
100
AcDbEntity
  8
0
100
AcDbLine
 10
748.5408860640688
 20
291.9397576215373
 30
0.0
 11
759.0408860640689
 21
291.9397576215373
 31
0.0
  0
CIRCLE
  5
96
330
1AB
100
AcDbEntity
  8
0
100
AcDbCircle
 10
699.5408860640688
 20
134.4397576215373
 30
0.0
 40
40.0
  0
ARC
  5
98
330
1AB
100
AcDbEntity
  8
0
100
AcDbCircle
 10
524.8766275150005
 20
159.2435842280707
 30
0.0
 40
248.6643359305033
100
AcDbArc
 50
0.0452011287515375
 51
18.11464889491064
  0
ARC
  5
99
330
1AB
100
AcDbEntity
  8
0
100
AcDbCircle
 10
524.8766275150005
 20
159.6359310150041
 30
0.0
 40
248.6643359305033
100
AcDbArc
 50
341.8853511050893
 51
359.9547988712484
  0
DIMENSION
  5
9A
330
1AB
100
AcDbEntity
  8
koty
100
AcDbDimension
  2
*D3
 10
218.9291388230596
 20
391.7175010172941
 30
0.0
 11
252.9291388230596
 21
407.9675010172941
 31
0.0
 70
    32
 71
     0
 42
68.0
  3
ISO-25
100
AcDbAlignedDimension
 13
286.9291388230596
 23
291.9397576215373
 33
0.0
 14
218.9291388230596
 24
291.9397576215373
 34
0.0
100
AcDbRotatedDimension
  0
DIMENSION
  5
B3
330
1AB
100
AcDbEntity
  8
koty
100
AcDbDimension
  2
*D4
 10
82.99528368807478
 20
159.4397576215373
 30
0.0
 11
66.74528368807478
 21
221.8802338120135
 31
0.0
 70
    32
 71
     0
 42
25.0
  3
ISO-25
100
AcDbAlignedDimension
 13
154.4291388230597
 23
134.4397576215373
 33
0.0
 14
154.4291388230597
 24
159.4397576215373
 34
0.0
 50
90.0
100
AcDbRotatedDimension
  0
DIMENSION
  5
CF
330
1AB
100
AcDbEntity
  8
koty
100
AcDbDimension
  2
*D5
 10
286.9291388230596
 20
-49.20028897990414
 30
0.0
 11
224.4886626325834
 21
-32.95028897990414
 31
0.0
 70
    32
 71
     0
 42
45.00000000000011
  3
ISO-25
100
AcDbAlignedDimension
 13
331.9291388230597
 23
26.93975762153741
 33
0.0
 14
286.9291388230596
 24
26.93975762153741
 34
0.0
100
AcDbRotatedDimension
  0
DIMENSION
  5
EB
330
1AB
100
AcDbEntity
  8
koty
100
AcDbDimension
  2
*D6
 10
598.7549360810226
 20
46.93975762153741
 30
0.0
 11
582.5049360810226
 21
159.4397576215374
 31
0.0
 70
    32
 71
     0
 42
225.0
  3
ISO-25
100
AcDbAlignedDimension
 13
650.5408860640689
 23
271.9397576215374
 33
0.0
 14
650.5408860640689
 24
46.93975762153741
 34
0.0
 50
90.0
100
AcDbRotatedDimension
  0
DIMENSION
  5
103
330
1AB
100
AcDbEntity
  8
koty
100
AcDbDimension
  2
*D7
 10
748.5408860640688
 20
-27.90163657058657
 30
0.0
 11
699.5408860640689
 21
-11.65163657058657
 31
0.0
 70
    32
 71
     0
 42
97.99999999999977
  3
ISO-25
100
AcDbAlignedDimension
 13
650.540886064069
 23
46.93975762153741
 33
0.0
 14
748.5408860640688
 24
46.9397576215374
 34
0.0
100
AcDbRotatedDimension
  0
DIMENSION
  5
11B
330
1AB
100
AcDbEntity
  8
koty
100
AcDbDimension
  2
*D8
 10
773.5408860640688
 20
-28.2207079172602
 30
0.0
 11
835.9813622545449
 21
-11.9707079172602
 31
0.0
 70
    32
 71
     0
 42
25.0
  3
ISO-25
100
AcDbAlignedDimension
 13
748.5408860640688
 23
26.93975762153741
 33
0.0
 14
773.5408860640688
 24
159.4397576215374
 34
0.0
100
AcDbRotatedDimension
  0
DIMENSION
  5
137
330
1AB
100
AcDbEntity
  8
koty
100
AcDbDimension
  2
*D9
 10
686.4326780108343
 20
96.64855650761237
 30
0.0
 11
699.5408860640688
 21
134.4397576215373
 31
0.0
 70
   163
 71
     0
 42
80.00000000000006
  3
ISO-25
100
AcDbDiametricDimension
 15
712.6490941173033
 25
172.2309587354622
 35
0.0
 40
0.0
  0
DIMENSION
  5
14D
330
1AB
100
AcDbEntity
  8
koty
100
AcDbDimension
  2
*D10
 10
598.4166439338296
 20
337.9397576215373
 30
0.0
 11
582.1666439338296
 21
304.9397576215373
 31
0.0
 70
    32
 71
     0
 42
66.0
  3
ISO-25
100
AcDbAlignedDimension
 13
659.5408860640688
 23
271.9397576215373
 33
0.0
 14
659.5408860640688
 24
337.9397576215373
 34
0.0
 50
90.0
100
AcDbRotatedDimension
  0
DIMENSION
  5
165
330
1AB
100
AcDbEntity
  8
koty
100
AcDbDimension
  2
*D11
 10
739.5408860640688
 20
391.717501017265
 30
0.0
 11
813.4099336831164
 21
407.967501017265
 31
0.0
 70
    32
  1
75-80
 71
     0
 42
79.99999999999989
  3
ISO-25
100
AcDbAlignedDimension
 13
659.5408860640689
 23
337.9397576215373
 33
0.0
 14
739.5408860640688
 24
337.9397576215373
 34
0.0
100
AcDbRotatedDimension
  0
ARC
  5
180
330
1AB
100
AcDbEntity
  8
0
100
AcDbCircle
 10
759.0408860640689
 20
289.9397576215373
 30
0.0
 40
2.0
100
AcDbArc
 50
0.0
 51
90.00000000000026
  0
ARC
  5
181
330
1AB
100
AcDbEntity
  8
0
100
AcDbCircle
 10
759.040886064069
 20
28.93975762153741
 30
0.0
 40
2.0
100
AcDbArc
 50
270.0
 51
0.0
  0
TEXT
  5
182
330
1AB
100
AcDbEntity
  8
popis
100
AcDbText
 10
138.4035419567042
 20
470.1768720592474
 30
0.0
 40
15.0
  1
SILENT ECO U - malý radiální ventilátor
100
AcDbText
  0
VIEWPORT
  5
249
330
1A7
100
AcDbEntity
 67
     1
  8
0
 60
     1
100
AcDbViewport
 10
0.0
 20
0.0
 30
0.0
 40
10.0
 41
10.0
 69
     1
 12
0.0
 22
0.0
 13
0.0
 23
0.0
 14
1.0
 24
1.0
 15
0.0
 25
0.0
 16
0.0
 26
0.0
 36
1.0
 17
0.0
 27
0.0
 37
0.0
 42
0.0
 43
0.0
 44
0.0
 45
10.0
 50
0.0
 51
0.0000000000007958
 72
   100
 90
   163872
  1

281
     0
 71
     0
 74
     0
110
0.0
120
0.0
130
0.0
111
1.0
121
0.0
131
0.0
112
0.0
122
1.0
132
0.0
 79
     0
146
0.0
1001
VD_INVISIBLE_NOT_FOR_READ
1000
VD_INVISIBLE_NOT_FOR_READ
  0
VIEWPORT
  5
24A
330
1A7
100
AcDbEntity
 67
     1
  8
0
 60
     1
100
AcDbViewport
 10
0.0
 20
0.0
 30
0.0
 40
10.0
 41
10.0
 69
     2
 12
0.0
 22
0.0
 13
0.0
 23
0.0
 14
1.0
 24
1.0
 15
0.0
 25
0.0
 16
0.0
 26
0.0
 36
1.0
 17
0.0
 27
0.0
 37
0.0
 42
0.0
 43
0.0
 44
0.0
 45
10.0
 50
0.0
 51
0.0000000000007958
 72
   100
 90
   163872
  1

281
     0
 71
     0
 74
     0
110
0.0
120
0.0
130
0.0
111
1.0
121
0.0
131
0.0
112
0.0
122
1.0
132
0.0
 79
     0
146
0.0
1001
VD_INVISIBLE_NOT_FOR_READ
1000
VD_INVISIBLE_NOT_FOR_READ
  0
ENDSEC
  0
SECTION
  2
OBJECTS
  0
DICTIONARY
  5
198
330
0
100
AcDbDictionary
281
     1
  3
ACAD_GROUP
350
199
  3
ACAD_LAYOUT
350
1A6
  3
ACAD_MLINESTYLE
350
1A3
  3
ACAD_PLOTSETTINGS
350
1A5
  3
ACAD_PLOTSTYLENAME
350
19A
  3
VECTORDRAW_OBJECTS
350
1BB
  0
DICTIONARY
  5
199
102
{ACAD_REACTORS
330
198
102
}
330
198
100
AcDbDictionary
281
     1
  0
DICTIONARY
  5
1A6
102
{ACAD_REACTORS
330
198
102
}
330
198
100
AcDbDictionary
281
     1
  3
Model
350
1AE
  3
Rozvržení1
350
1AA
  3
Rozvržení2
350
1B2
  0
DICTIONARY
  5
1A3
102
{ACAD_REACTORS
330
198
102
}
330
198
100
AcDbDictionary
281
     1
  3
Standard
350
1A4
  0
DICTIONARY
  5
1A5
102
{ACAD_REACTORS
330
198
102
}
330
198
100
AcDbDictionary
281
     1
  0
ACDBDICTIONARYWDFLT
  5
19A
102
{ACAD_REACTORS
330
198
102
}
330
198
100
AcDbDictionary
281
     1
  3
Normal
350
19B
100
AcDbDictionaryWithDefault
340
19B
  0
DICTIONARY
  5
1BB
102
{ACAD_REACTORS
330
198
102
}
330
198
100
AcDbDictionary
281
     1
  3
SERIALNO
350
1BC
  0
LAYOUT
  5
1AE
102
{ACAD_REACTORS
330
1A6
102
}
330
1A6
100
AcDbPlotSettings
  1
VectorDraw Printer Drawing
  2

  4

  6

 40
0.0
 41
0.0
 42
0.0
 43
0.0
 44
0.0
 45
0.0
 46
0.0
 47
0.0
 48
0.0
 49
0.0
140
0.0
141
0.0
142
1.0
143
1.0
 70
  1712
 72
     0
 73
     0
 74
     0
  7

 75
     0
147
1.0
148
0.0
149
0.0
100
AcDbLayout
  1
Model
 70
     1
 71
     0
 10
0.0
 20
0.0
 11
12.0
 21
9.0
 12
0.0
 22
0.0
 32
0.0
 14
50.56066830345934
 24
-61.70028897990414
 34
0.0
 15
813.5408860640746
 25
485.1768720592474
 35
0.0
146
0.0
 13
0.0
 23
0.0
 33
0.0
 16
1.0
 26
0.0
 36
0.0
 17
0.0
 27
1.0
 37
0.0
 76
     0
330
1AB
  0
LAYOUT
  5
1AA
102
{ACAD_REACTORS
330
1A6
102
}
330
1A6
100
AcDbPlotSettings
  1
VectorDraw Printer Drawing
  2

  4

  6

 40
0.0
 41
0.0
 42
0.0
 43
0.0
 44
0.0
 45
0.0
 46
0.0
 47
0.0
 48
0.0
 49
0.0
140
0.0
141
0.0
142
1.0
143
1.0
 70
   688
 72
     0
 73
     0
 74
     5
  7

 75
    16
147
1.0
148
0.0
149
0.0
100
AcDbLayout
  1
Rozvržení1
 70
     1
 71
     1
 10
0.0
 20
0.0
 11
12.0
 21
9.0
 12
0.0
 22
0.0
 32
0.0
 14
1.000000000000000E+20
 24
1.000000000000000E+20
 34
1.000000000000000E+20
 15
-1.000000000000000E+20
 25
-1.000000000000000E+20
 35
-1.000000000000000E+20
146
0.0
 13
0.0
 23
0.0
 33
0.0
 16
1.0
 26
0.0
 36
0.0
 17
0.0
 27
1.0
 37
0.0
 76
     0
330
1A7
331
249
  0
LAYOUT
  5
1B2
102
{ACAD_REACTORS
330
1A6
102
}
330
1A6
100
AcDbPlotSettings
  1
VectorDraw Printer Drawing
  2

  4

  6

 40
0.0
 41
0.0
 42
0.0
 43
0.0
 44
0.0
 45
0.0
 46
0.0
 47
0.0
 48
0.0
 49
0.0
140
0.0
141
0.0
142
1.0
143
1.0
 70
   688
 72
     0
 73
     0
 74
     5
  7

 75
    16
147
1.0
148
0.0
149
0.0
100
AcDbLayout
  1
Rozvržení2
 70
     1
 71
     2
 10
0.0
 20
0.0
 11
12.0
 21
9.0
 12
0.0
 22
0.0
 32
0.0
 14
0.0
 24
0.0
 34
0.0
 15
0.0
 25
0.0
 35
0.0
146
0.0
 13
0.0
 23
0.0
 33
0.0
 16
1.0
 26
0.0
 36
0.0
 17
0.0
 27
1.0
 37
0.0
 76
     0
330
1AF
331
24B
  0
MLINESTYLE
  5
1A4
102
{ACAD_REACTORS
330
1A3
102
}
330
1A3
100
AcDbMlineStyle
  2
Standard
 70
     0
  3

 62
   256
 51
90.0
 52
90.0
 71
     2
 49
0.5
 62
   256
  6
BYLAYER
 49
-0.5
 62
   256
  6
BYLAYER
  0
ACDBPLACEHOLDER
  5
19B
102
{ACAD_REACTORS
330
19A
102
}
330
19A
  0
XRECORD
  5
1BC
102
{ACAD_REACTORS
330
1BB
102
}
330
1BB
100
AcDbXrecord
280
     1
1000
rInJVR9YY4Q8hfPWdUq5j5319
1070
     4
1070
     6
  0
ENDSEC
  0
EOF
