  0
SECTION
  2
HEADER
  9
$ACADVER
  1
AC1014
  9
$ACADMAINTVER
 70
     0
  9
$DWGCODEPAGE
  3
ANSI_1250
  9
$INSBASE
 10
0.0
 20
0.0
 30
0.0
  9
$EXTMIN
 10
-657.890429
 20
-1579.652463
 30
0.0
  9
$EXTMAX
 10
2002.433384
 20
1354.609772
 30
0.0
  9
$LIMMIN
 10
-1040.805314
 20
-347.068924
  9
$LIMMAX
 10
643.686187
 20
495.293187
  9
$ORTHOMODE
 70
     1
  9
$REGENMODE
 70
     1
  9
$FILLMODE
 70
     1
  9
$QTEXTMODE
 70
     0
  9
$MIRRTEXT
 70
     1
  9
$DRAGMODE
 70
     2
  9
$LTSCALE
 40
15.0
  9
$OSMODE
 70
  1023
  9
$ATTMODE
 70
     1
  9
$TEXTSIZE
 40
15.0
  9
$TRACEWID
 40
1.0
  9
$TEXTSTYLE
  7
ED40
  9
$CLAYER
  8
V0-KOTY
  9
$CELTYPE
  6
BYLAYER
  9
$CECOLOR
 62
   256
  9
$CELTSCALE
 40
1.0
  9
$DELOBJ
 70
     1
  9
$DISPSILH
 70
     0
  9
$DIMSCALE
 40
0.0
  9
$DIMASZ
 40
35.0
  9
$DIMEXO
 40
1.0
  9
$DIMDLI
 40
3.75
  9
$DIMRND
 40
0.0
  9
$DIMDLE
 40
0.0
  9
$DIMEXE
 40
1.25
  9
$DIMTP
 40
0.0
  9
$DIMTM
 40
0.0
  9
$DIMTXT
 40
40.0
  9
$DIMCEN
 40
3.0
  9
$DIMTSZ
 40
0.0
  9
$DIMTOL
 70
     0
  9
$DIMLIM
 70
     0
  9
$DIMTIH
 70
     0
  9
$DIMTOH
 70
     0
  9
$DIMSE1
 70
     0
  9
$DIMSE2
 70
     0
  9
$DIMTAD
 70
     1
  9
$DIMZIN
 70
     8
  9
$DIMBLK
  1

  9
$DIMASO
 70
     1
  9
$DIMSHO
 70
     1
  9
$DIMPOST
  1

  9
$DIMAPOST
  1

  9
$DIMALT
 70
     0
  9
$DIMALTD
 70
     4
  9
$DIMALTF
 40
0.0394
  9
$DIMLFAC
 40
1.0
  9
$DIMTOFL
 70
     1
  9
$DIMTVP
 40
0.0
  9
$DIMTIX
 70
     0
  9
$DIMSOXD
 70
     0
  9
$DIMSAH
 70
     1
  9
$DIMBLK1
  1
_OPEN
  9
$DIMBLK2
  1
_OPEN
  9
$DIMSTYLE
  2
ED40
  9
$DIMCLRD
 70
   256
  9
$DIMCLRE
 70
   256
  9
$DIMCLRT
 70
   256
  9
$DIMTFAC
 40
1.0
  9
$DIMGAP
 40
3.0
  9
$DIMJUST
 70
     0
  9
$DIMSD1
 70
     0
  9
$DIMSD2
 70
     0
  9
$DIMTOLJ
 70
     1
  9
$DIMTZIN
 70
     8
  9
$DIMALTZ
 70
     0
  9
$DIMALTTZ
 70
     0
  9
$DIMFIT
 70
     3
  9
$DIMUPT
 70
     0
  9
$DIMUNIT
 70
     2
  9
$DIMDEC
 70
     0
  9
$DIMTDEC
 70
     1
  9
$DIMALTU
 70
     8
  9
$DIMALTTD
 70
     4
  9
$DIMTXSTY
  7
ED40
  9
$DIMAUNIT
 70
     0
  9
$LUNITS
 70
     2
  9
$LUPREC
 70
     4
  9
$SKETCHINC
 40
1.0
  9
$FILLETRAD
 40
30.0
  9
$AUNITS
 70
     0
  9
$AUPREC
 70
     0
  9
$MENU
  1
.
  9
$ELEVATION
 40
0.0
  9
$PELEVATION
 40
0.0
  9
$THICKNESS
 40
0.0
  9
$LIMCHECK
 70
     0
  9
$BLIPMODE
 70
     1
  9
$CHAMFERA
 40
10.0
  9
$CHAMFERB
 40
10.0
  9
$CHAMFERC
 40
20.0
  9
$CHAMFERD
 40
0.0
  9
$SKPOLY
 70
     0
  9
$TDCREATE
 40
2450763.421427893
  9
$TDUPDATE
 40
2452962.455664120
  9
$TDINDWG
 40
1.4375929398
  9
$TDUSRTIMER
 40
1.4375929398
  9
$USRTIMER
 70
     1
  9
$ANGBASE
 50
0.0
  9
$ANGDIR
 70
     0
  9
$PDMODE
 70
     3
  9
$PDSIZE
 40
15.0
  9
$PLINEWID
 40
0.0
  9
$COORDS
 70
     1
  9
$SPLFRAME
 70
     0
  9
$SPLINETYPE
 70
     6
  9
$SPLINESEGS
 70
     8
  9
$ATTDIA
 70
     0
  9
$ATTREQ
 70
     1
  9
$HANDLING
 70
     1
  9
$HANDSEED
  5
11C7
  9
$SURFTAB1
 70
     6
  9
$SURFTAB2
 70
     6
  9
$SURFTYPE
 70
     6
  9
$SURFU
 70
     6
  9
$SURFV
 70
     6
  9
$UCSNAME
  2

  9
$UCSORG
 10
0.0
 20
0.0
 30
0.0
  9
$UCSXDIR
 10
1.0
 20
0.0
 30
0.0
  9
$UCSYDIR
 10
0.0
 20
1.0
 30
0.0
  9
$PUCSNAME
  2

  9
$PUCSORG
 10
0.0
 20
0.0
 30
0.0
  9
$PUCSXDIR
 10
1.0
 20
0.0
 30
0.0
  9
$PUCSYDIR
 10
0.0
 20
1.0
 30
0.0
  9
$USERI1
 70
     0
  9
$USERI2
 70
     0
  9
$USERI3
 70
     2
  9
$USERI4
 70
     2
  9
$USERI5
 70
     6
  9
$USERR1
 40
281.0
  9
$USERR2
 40
321.0
  9
$USERR3
 40
0.0
  9
$USERR4
 40
0.0
  9
$USERR5
 40
0.0
  9
$WORLDVIEW
 70
     1
  9
$SHADEDGE
 70
     3
  9
$SHADEDIF
 70
    70
  9
$TILEMODE
 70
     1
  9
$MAXACTVP
 70
    16
  9
$PINSBASE
 10
0.0
 20
0.0
 30
0.0
  9
$PLIMCHECK
 70
     0
  9
$PEXTMIN
 10
1.000000E+20
 20
1.000000E+20
 30
1.000000E+20
  9
$PEXTMAX
 10
-1.000000E+20
 20
-1.000000E+20
 30
-1.000000E+20
  9
$PLIMMIN
 10
0.0
 20
0.0
  9
$PLIMMAX
 10
420.0
 20
297.0
  9
$UNITMODE
 70
     0
  9
$VISRETAIN
 70
     0
  9
$PLINEGEN
 70
     0
  9
$PSLTSCALE
 70
     0
  9
$TREEDEPTH
 70
  3020
  9
$PICKSTYLE
 70
     1
  9
$CMLSTYLE
  2
STANDARD
  9
$CMLJUST
 70
     0
  9
$CMLSCALE
 40
10.0
  9
$PROXYGRAPHICS
 70
     1
  9
$MEASUREMENT
 70
     0
  0
ENDSEC
  0
SECTION
  2
CLASSES
  0
CLASS
  1
LWPOLYLINE
  2
AcDbPolyline
  3
"AutoCAD"
 90
        0
280
     0
281
     1
  0
CLASS
  1
DICTIONARYVAR
  2
AcDbDictionaryVar
  3
"AutoCAD"
 90
        0
280
     0
281
     0
  0
CLASS
  1
HATCH
  2
AcDbHatch
  3
"ACAD_SEDONA"
 90
        0
280
     0
281
     1
  0
ENDSEC
  0
SECTION
  2
TABLES
  0
TABLE
  2
VPORT
  5
12
100
AcDbSymbolTable
 70
     3
  0
VPORT
  5
11C6
100
AcDbSymbolTableRecord
100
AcDbViewportTableRecord
  2
*ACTIVE
 70
     0
 10
0.0
 20
0.0
 11
1.0
 21
1.0
 12
795.582222
 22
-292.512706
 13
0.0
 23
0.0
 14
1.0
 24
1.0
 15
5.0
 25
5.0
 16
0.0
 26
0.0
 36
1.0
 17
0.0
 27
0.0
 37
0.0
 40
3377.536751
 41
1.685225
 42
50.0
 43
0.0
 44
0.0
 50
0.0
 51
0.0
 71
     0
 72
   100
 73
     1
 74
     0
 75
     0
 76
     1
 77
     0
 78
     0
  0
ENDTAB
  0
TABLE
  2
LTYPE
  5
D
100
AcDbSymbolTable
 70
    46
  0
LTYPE
  5
E
100
AcDbSymbolTableRecord
100
AcDbLinetypeTableRecord
  2
BYBLOCK
 70
     0
  3

 72
    65
 73
     0
 40
0.0
  0
LTYPE
  5
F
100
AcDbSymbolTableRecord
100
AcDbLinetypeTableRecord
  2
BYLAYER
 70
     0
  3

 72
    65
 73
     0
 40
0.0
  0
LTYPE
  5
5
100
AcDbSymbolTableRecord
100
AcDbLinetypeTableRecord
  2
CONTINUOUS
 70
     0
  3
Solid line
 72
    65
 73
     0
 40
0.0
  0
LTYPE
  5
50
100
AcDbSymbolTableRecord
100
AcDbLinetypeTableRecord
  2
DASHDOT
 70
     0
  3
__ . __ . __ . __ . __ . __ . __ . __ . __ . __
 72
    65
 73
     4
 40
1.0
 49
0.5
 74
     0
 49
-0.25
 74
     0
 49
0.0
 74
     0
 49
-0.25
 74
     0
  0
LTYPE
  5
2C7
100
AcDbSymbolTableRecord
100
AcDbLinetypeTableRecord
  2
DASHED
 70
     0
  3
Dashed __ __ __ __ __ __ __ __ __ __ __ __ __ _
 72
    65
 73
     2
 40
19.05
 49
12.7
 74
     0
 49
-6.35
 74
     0
  0
LTYPE
  5
2C8
100
AcDbSymbolTableRecord
100
AcDbLinetypeTableRecord
  2
DOT2
 70
     0
  3
...............................................
 72
    65
 73
     2
 40
0.125
 49
0.0
 74
     0
 49
-0.125
 74
     0
  0
LTYPE
  5
2C9
100
AcDbSymbolTableRecord
100
AcDbLinetypeTableRecord
  2
ACAD_ISO02W100
 70
     0
  3
ISO dash __ __ __ __ __ __ __ __ __ __ __ __ __
 72
    65
 73
     2
 40
15.0
 49
12.0
 74
     0
 49
-3.0
 74
     0
  0
LTYPE
  5
2CA
100
AcDbSymbolTableRecord
100
AcDbLinetypeTableRecord
  2
ACAD_ISO03W100
 70
     0
  3
ISO dash space __    __    __    __    __    __
 72
    65
 73
     2
 40
30.0
 49
12.0
 74
     0
 49
-18.0
 74
     0
  0
LTYPE
  5
2CB
100
AcDbSymbolTableRecord
100
AcDbLinetypeTableRecord
  2
ACAD_ISO04W100
 70
     0
  3
ISO long-dash dot ____ . ____ . ____ . ____ . _
 72
    65
 73
     4
 40
30.5
 49
24.0
 74
     0
 49
-3.0
 74
     0
 49
0.5
 74
     0
 49
-3.0
 74
     0
  0
LTYPE
  5
2CC
100
AcDbSymbolTableRecord
100
AcDbLinetypeTableRecord
  2
ACAD_ISO05W100
 70
     0
  3
ISO long-dash double-dot ____ .. ____ .. ____ .
 72
    65
 73
     6
 40
34.0
 49
24.0
 74
     0
 49
-3.0
 74
     0
 49
0.5
 74
     0
 49
-3.0
 74
     0
 49
0.5
 74
     0
 49
-3.0
 74
     0
  0
LTYPE
  5
2CD
100
AcDbSymbolTableRecord
100
AcDbLinetypeTableRecord
  2
ACAD_ISO06W100
 70
     0
  3
ISO long-dash triple-dot ____ ... ____ ... ____
 72
    65
 73
     8
 40
37.5
 49
24.0
 74
     0
 49
-3.0
 74
     0
 49
0.5
 74
     0
 49
-3.0
 74
     0
 49
0.5
 74
     0
 49
-3.0
 74
     0
 49
0.5
 74
     0
 49
-3.0
 74
     0
  0
LTYPE
  5
2CE
100
AcDbSymbolTableRecord
100
AcDbLinetypeTableRecord
  2
ACAD_ISO07W100
 70
     0
  3
ISO dot . . . . . . . . . . . . . . . . . . . .
 72
    65
 73
     2
 40
3.5
 49
0.5
 74
     0
 49
-3.0
 74
     0
  0
LTYPE
  5
2CF
100
AcDbSymbolTableRecord
100
AcDbLinetypeTableRecord
  2
ACAD_ISO08W100
 70
     0
  3
ISO long-dash short-dash ____ __ ____ __ ____ _
 72
    65
 73
     4
 40
36.0
 49
24.0
 74
     0
 49
-3.0
 74
     0
 49
6.0
 74
     0
 49
-3.0
 74
     0
  0
LTYPE
  5
2D0
100
AcDbSymbolTableRecord
100
AcDbLinetypeTableRecord
  2
ACAD_ISO09W100
 70
     0
  3
ISO long-dash double-short-dash ____ __ __ ____
 72
    65
 73
     6
 40
45.0
 49
24.0
 74
     0
 49
-3.0
 74
     0
 49
6.0
 74
     0
 49
-3.0
 74
     0
 49
6.0
 74
     0
 49
-3.0
 74
     0
  0
LTYPE
  5
2D1
100
AcDbSymbolTableRecord
100
AcDbLinetypeTableRecord
  2
ACAD_ISO10W100
 70
     0
  3
ISO dash dot __ . __ . __ . __ . __ . __ . __ .
 72
    65
 73
     4
 40
18.5
 49
12.0
 74
     0
 49
-3.0
 74
     0
 49
0.5
 74
     0
 49
-3.0
 74
     0
  0
LTYPE
  5
2D2
100
AcDbSymbolTableRecord
100
AcDbLinetypeTableRecord
  2
ACAD_ISO11W100
 70
     0
  3
ISO double-dash dot __ __ . __ __ . __ __ . __ 
 72
    65
 73
     6
 40
33.5
 49
12.0
 74
     0
 49
-3.0
 74
     0
 49
12.0
 74
     0
 49
-3.0
 74
     0
 49
0.5
 74
     0
 49
-3.0
 74
     0
  0
LTYPE
  5
2D3
100
AcDbSymbolTableRecord
100
AcDbLinetypeTableRecord
  2
ACAD_ISO12W100
 70
     0
  3
ISO dash double-dot __ . . __ . . __ . . __ . .
 72
    65
 73
     6
 40
22.0
 49
12.0
 74
     0
 49
-3.0
 74
     0
 49
0.5
 74
     0
 49
-3.0
 74
     0
 49
0.5
 74
     0
 49
-3.0
 74
     0
  0
LTYPE
  5
2D4
100
AcDbSymbolTableRecord
100
AcDbLinetypeTableRecord
  2
ACAD_ISO13W100
 70
     0
  3
ISO double-dash double-dot __ __ . . __ __ . . 
 72
    65
 73
     8
 40
37.0
 49
12.0
 74
     0
 49
-3.0
 74
     0
 49
12.0
 74
     0
 49
-3.0
 74
     0
 49
0.5
 74
     0
 49
-3.0
 74
     0
 49
0.5
 74
     0
 49
-3.0
 74
     0
  0
LTYPE
  5
2D5
100
AcDbSymbolTableRecord
100
AcDbLinetypeTableRecord
  2
ACAD_ISO14W100
 70
     0
  3
ISO dash triple-dot __ . . . __ . . . __ . . . 
 72
    65
 73
     8
 40
25.5
 49
12.0
 74
     0
 49
-3.0
 74
     0
 49
0.5
 74
     0
 49
-3.0
 74
     0
 49
0.5
 74
     0
 49
-3.0
 74
     0
 49
0.5
 74
     0
 49
-3.0
 74
     0
  0
LTYPE
  5
2D6
100
AcDbSymbolTableRecord
100
AcDbLinetypeTableRecord
  2
ACAD_ISO15W100
 70
     0
  3
ISO double-dash triple-dot __ __ . . . __ __ . 
 72
    65
 73
    10
 40
40.5
 49
12.0
 74
     0
 49
-3.0
 74
     0
 49
12.0
 74
     0
 49
-3.0
 74
     0
 49
0.5
 74
     0
 49
-3.0
 74
     0
 49
0.5
 74
     0
 49
-3.0
 74
     0
 49
0.5
 74
     0
 49
-3.0
 74
     0
  0
LTYPE
  5
2D7
100
AcDbSymbolTableRecord
100
AcDbLinetypeTableRecord
  2
BATTING
 70
     0
  3
Batting SSSSSSSSSSSSSSSSSSSSSSSSSSSSSSSSSSSSSSS
 72
    65
 73
     4
 40
0.4001
 49
0.0001
 74
     0
 49
-0.1
 74
     4
 75
   134
340
2F7
 46
0.1
 50
0.0
 44
-0.1
 45
0.0
 49
-0.2
 74
     4
 75
   134
340
2F7
 46
0.1
 50
180.0
 44
0.1
 45
0.0
 49
-0.1
 74
     0
  0
LTYPE
  5
2D8
100
AcDbSymbolTableRecord
100
AcDbLinetypeTableRecord
  2
BORDER
 70
     0
  3
Border __ __ . __ __ . __ __ . __ __ . __ __ .
 72
    65
 73
     6
 40
1.75
 49
0.5
 74
     0
 49
-0.25
 74
     0
 49
0.5
 74
     0
 49
-0.25
 74
     0
 49
0.0
 74
     0
 49
-0.25
 74
     0
  0
LTYPE
  5
2D9
100
AcDbSymbolTableRecord
100
AcDbLinetypeTableRecord
  2
BORDER2
 70
     0
  3
Border (.5x) __.__.__.__.__.__.__.__.__.__.__.
 72
    65
 73
     6
 40
0.875
 49
0.25
 74
     0
 49
-0.125
 74
     0
 49
0.25
 74
     0
 49
-0.125
 74
     0
 49
0.0
 74
     0
 49
-0.125
 74
     0
  0
LTYPE
  5
2DA
100
AcDbSymbolTableRecord
100
AcDbLinetypeTableRecord
  2
BORDERX2
 70
     0
  3
Border (2x) ____  ____  .  ____  ____  .  ___
 72
    65
 73
     6
 40
3.5
 49
1.0
 74
     0
 49
-0.5
 74
     0
 49
1.0
 74
     0
 49
-0.5
 74
     0
 49
0.0
 74
     0
 49
-0.5
 74
     0
  0
LTYPE
  5
2DB
100
AcDbSymbolTableRecord
100
AcDbLinetypeTableRecord
  2
CENTER
 70
     0
  3
Center ____ _ ____ _ ____ _ ____ _ ____ _ ____
 72
    65
 73
     4
 40
2.0
 49
1.25
 74
     0
 49
-0.25
 74
     0
 49
0.25
 74
     0
 49
-0.25
 74
     0
  0
LTYPE
  5
2DC
100
AcDbSymbolTableRecord
100
AcDbLinetypeTableRecord
  2
CENTER2
 70
     0
  3
Center (.5x) ___ _ ___ _ ___ _ ___ _ ___ _ ___
 72
    65
 73
     4
 40
1.125
 49
0.75
 74
     0
 49
-0.125
 74
     0
 49
0.125
 74
     0
 49
-0.125
 74
     0
  0
LTYPE
  5
2DD
100
AcDbSymbolTableRecord
100
AcDbLinetypeTableRecord
  2
CENTERX2
 70
     0
  3
Center (2x) ________  __  ________  __  _____
 72
    65
 73
     4
 40
4.0
 49
2.5
 74
     0
 49
-0.5
 74
     0
 49
0.5
 74
     0
 49
-0.5
 74
     0
  0
LTYPE
  5
2DE
100
AcDbSymbolTableRecord
100
AcDbLinetypeTableRecord
  2
DASHDOT2
 70
     0
  3
Dash dot (.5x) _._._._._._._._._._._._._._._.
 72
    65
 73
     4
 40
0.5
 49
0.25
 74
     0
 49
-0.125
 74
     0
 49
0.0
 74
     0
 49
-0.125
 74
     0
  0
LTYPE
  5
2DF
100
AcDbSymbolTableRecord
100
AcDbLinetypeTableRecord
  2
DASHDOTX2
 70
     0
  3
Dash dot (2x) ____  .  ____  .  ____  .  ___
 72
    65
 73
     4
 40
2.0
 49
1.0
 74
     0
 49
-0.5
 74
     0
 49
0.0
 74
     0
 49
-0.5
 74
     0
  0
LTYPE
  5
2E0
100
AcDbSymbolTableRecord
100
AcDbLinetypeTableRecord
  2
DASHED2
 70
     0
  3
Dashed (.5x) _ _ _ _ _ _ _ _ _ _ _ _ _ _ _ _ _
 72
    65
 73
     2
 40
0.375
 49
0.25
 74
     0
 49
-0.125
 74
     0
  0
LTYPE
  5
2E1
100
AcDbSymbolTableRecord
100
AcDbLinetypeTableRecord
  2
DASHEDX2
 70
     0
  3
Dashed (2x) ____  ____  ____  ____  ____  ___
 72
    65
 73
     2
 40
1.5
 49
1.0
 74
     0
 49
-0.5
 74
     0
  0
LTYPE
  5
2E2
100
AcDbSymbolTableRecord
100
AcDbLinetypeTableRecord
  2
DIVIDE
 70
     0
  3
Divide ____ . . ____ . . ____ . . ____ . . ____
 72
    65
 73
     6
 40
1.25
 49
0.5
 74
     0
 49
-0.25
 74
     0
 49
0.0
 74
     0
 49
-0.25
 74
     0
 49
0.0
 74
     0
 49
-0.25
 74
     0
  0
LTYPE
  5
2E3
100
AcDbSymbolTableRecord
100
AcDbLinetypeTableRecord
  2
DIVIDE2
 70
     0
  3
Divide (.5x) __..__..__..__..__..__..__..__.._
 72
    65
 73
     6
 40
0.625
 49
0.25
 74
     0
 49
-0.125
 74
     0
 49
0.0
 74
     0
 49
-0.125
 74
     0
 49
0.0
 74
     0
 49
-0.125
 74
     0
  0
LTYPE
  5
2E4
100
AcDbSymbolTableRecord
100
AcDbLinetypeTableRecord
  2
DIVIDEX2
 70
     0
  3
Divide (2x) ________  .  .  ________  .  .  _
 72
    65
 73
     6
 40
2.5
 49
1.0
 74
     0
 49
-0.5
 74
     0
 49
0.0
 74
     0
 49
-0.5
 74
     0
 49
0.0
 74
     0
 49
-0.5
 74
     0
  0
LTYPE
  5
2E5
100
AcDbSymbolTableRecord
100
AcDbLinetypeTableRecord
  2
DOT
 70
     0
  3
Dot . . . . . . . . . . . . . . . . . . . . . .
 72
    65
 73
     2
 40
0.25
 49
0.0
 74
     0
 49
-0.25
 74
     0
  0
LTYPE
  5
2E6
100
AcDbSymbolTableRecord
100
AcDbLinetypeTableRecord
  2
DOTX2
 70
     0
  3
Dot (2x) .  .  .  .  .  .  .  .  .  .  .  .  . 
 72
    65
 73
     2
 40
0.5
 49
0.0
 74
     0
 49
-0.5
 74
     0
  0
LTYPE
  5
2E7
100
AcDbSymbolTableRecord
100
AcDbLinetypeTableRecord
  2
FENCELINE1
 70
     0
  3
Fenceline circle ----0-----0----0-----0----0---
 72
    65
 73
     4
 40
1.45
 49
0.25
 74
     0
 49
-0.1
 74
     4
 75
   133
340
2F7
 46
0.1
 50
0.0
 44
-0.1
 45
0.0
 49
-0.1
 74
     0
 49
1.0
 74
     0
  0
LTYPE
  5
2E8
100
AcDbSymbolTableRecord
100
AcDbLinetypeTableRecord
  2
FENCELINE2
 70
     0
  3
Fenceline square ----[]-----[]----[]-----[]----
 72
    65
 73
     4
 40
1.45
 49
0.25
 74
     0
 49
-0.1
 74
     4
 75
   132
340
2F7
 46
0.1
 50
0.0
 44
-0.1
 45
0.0
 49
-0.1
 74
     0
 49
1.0
 74
     0
  0
LTYPE
  5
2E9
100
AcDbSymbolTableRecord
100
AcDbLinetypeTableRecord
  2
GAS_LINE
 70
     0
  3
Gas line ----GAS----GAS----GAS----GAS----GAS---
 72
    65
 73
     3
 40
0.95
 49
0.5
 74
     0
 49
-0.2
 74
     2
 75
     0
340
C
 46
0.1
 50
0.0
 44
-0.1
 45
-0.05
  9
GAS
 49
-0.25
 74
     0
  0
LTYPE
  5
2EA
100
AcDbSymbolTableRecord
100
AcDbLinetypeTableRecord
  2
HIDDEN
 70
     0
  3
Hidden __ __ __ __ __ __ __ __ __ __ __ __ __ _
 72
    65
 73
     2
 40
0.375
 49
0.25
 74
     0
 49
-0.125
 74
     0
  0
LTYPE
  5
2EB
100
AcDbSymbolTableRecord
100
AcDbLinetypeTableRecord
  2
HIDDEN2
 70
     0
  3
Hidden (.5x) _ _ _ _ _ _ _ _ _ _ _ _ _ _ _ _ _
 72
    65
 73
     2
 40
0.1875
 49
0.125
 74
     0
 49
-0.0625
 74
     0
  0
LTYPE
  5
2EC
100
AcDbSymbolTableRecord
100
AcDbLinetypeTableRecord
  2
HIDDENX2
 70
     0
  3
Hidden (2x) ____ ____ ____ ____ ____ ____ ____
 72
    65
 73
     2
 40
0.75
 49
0.5
 74
     0
 49
-0.25
 74
     0
  0
LTYPE
  5
2ED
100
AcDbSymbolTableRecord
100
AcDbLinetypeTableRecord
  2
HOT_WATER_SUPPLY
 70
     0
  3
Hot water supply ---- HW ---- HW ---- HW ----
 72
    65
 73
     3
 40
0.9
 49
0.5
 74
     0
 49
-0.2
 74
     2
 75
     0
340
C
 46
0.1
 50
0.0
 44
-0.1
 45
-0.05
  9
HW
 49
-0.2
 74
     0
  0
LTYPE
  5
2EE
100
AcDbSymbolTableRecord
100
AcDbLinetypeTableRecord
  2
PHANTOM
 70
     0
  3
Phantom ______  __  __  ______  __  __  ______
 72
    65
 73
     6
 40
2.5
 49
1.25
 74
     0
 49
-0.25
 74
     0
 49
0.25
 74
     0
 49
-0.25
 74
     0
 49
0.25
 74
     0
 49
-0.25
 74
     0
  0
LTYPE
  5
2EF
100
AcDbSymbolTableRecord
100
AcDbLinetypeTableRecord
  2
PHANTOM2
 70
     0
  3
Phantom (.5x) ___ _ _ ___ _ _ ___ _ _ ___ _ _
 72
    65
 73
     6
 40
1.25
 49
0.625
 74
     0
 49
-0.125
 74
     0
 49
0.125
 74
     0
 49
-0.125
 74
     0
 49
0.125
 74
     0
 49
-0.125
 74
     0
  0
LTYPE
  5
2F0
100
AcDbSymbolTableRecord
100
AcDbLinetypeTableRecord
  2
PHANTOMX2
 70
     0
  3
Phantom (2x) ____________    ____    ____   _
 72
    65
 73
     6
 40
5.0
 49
2.5
 74
     0
 49
-0.5
 74
     0
 49
0.5
 74
     0
 49
-0.5
 74
     0
 49
0.5
 74
     0
 49
-0.5
 74
     0
  0
LTYPE
  5
2F1
100
AcDbSymbolTableRecord
100
AcDbLinetypeTableRecord
  2
TRACKS
 70
     0
  3
Tracks -|-|-|-|-|-|-|-|-|-|-|-|-|-|-|-|-|-|-|-|
 72
    65
 73
     2
 40
0.3
 49
0.15
 74
     4
 75
   130
340
2F7
 46
0.25
 50
0.0
 44
0.0
 45
0.0
 49
0.15
 74
     0
  0
LTYPE
  5
2F2
100
AcDbSymbolTableRecord
100
AcDbLinetypeTableRecord
  2
ZIGZAG
 70
     0
  3
Zig zag /\/\/\/\/\/\/\/\/\/\/\/\/\/\/\/\/\/\/\/
 72
    65
 73
     4
 40
0.8001
 49
0.0001
 74
     0
 49
-0.2
 74
     4
 75
   131
340
2F7
 46
0.2
 50
0.0
 44
-0.2
 45
0.0
 49
-0.4
 74
     4
 75
   131
340
2F7
 46
0.2
 50
180.0
 44
0.2
 45
0.0
 49
-0.2
 74
     0
  0
ENDTAB
  0
TABLE
  2
LAYER
  5
A
100
AcDbSymbolTable
 70
     8
  0
LAYER
  5
4
100
AcDbSymbolTableRecord
100
AcDbLayerTableRecord
  2
0
 70
     0
 62
     7
  6
CONTINUOUS
  0
LAYER
  5
2E
100
AcDbSymbolTableRecord
100
AcDbLayerTableRecord
  2
DEFPOINTS
 70
     0
 62
     7
  6
CONTINUOUS
  0
LAYER
  5
4E
100
AcDbSymbolTableRecord
100
AcDbLayerTableRecord
  2
V0-OBRYS
 70
     0
 62
    90
  6
CONTINUOUS
  0
LAYER
  5
24
100
AcDbSymbolTableRecord
100
AcDbLayerTableRecord
  2
V0-VYPLNE
 70
     0
 62
    52
  6
DASHDOT
  0
LAYER
  5
91
100
AcDbSymbolTableRecord
100
AcDbLayerTableRecord
  2
V0-NAZVY
 70
     0
 62
   210
  6
CONTINUOUS
  0
LAYER
  5
FE
100
AcDbSymbolTableRecord
100
AcDbLayerTableRecord
  2
V0-ZBYTEK
 70
     0
 62
    51
  6
CONTINUOUS
  0
LAYER
  5
7DB
100
AcDbSymbolTableRecord
100
AcDbLayerTableRecord
  2
V0-KOTY
 70
     0
 62
    41
  6
CONTINUOUS
  0
LAYER
  5
C9E
100
AcDbSymbolTableRecord
100
AcDbLayerTableRecord
  2
VZ1
 70
     0
 62
     7
  6
CONTINUOUS
  0
ENDTAB
  0
TABLE
  2
STYLE
  5
B
100
AcDbSymbolTable
 70
     8
  0
STYLE
  5
C
100
AcDbSymbolTableRecord
100
AcDbTextStyleTableRecord
  2
STANDARD
 70
     0
 40
0.0
 41
1.0
 50
0.0
 71
     0
 42
15.0
  3
ISOCP
  4

  0
STYLE
  5
2F3
100
AcDbSymbolTableRecord
100
AcDbTextStyleTableRecord
  2
ED30
 70
     0
 40
30.0
 41
1.0
 50
0.0
 71
     0
 42
30.0
  3
ISOCP.shx
  4

  0
STYLE
  5
2F4
100
AcDbSymbolTableRecord
100
AcDbTextStyleTableRecord
  2
ED20
 70
     0
 40
20.0
 41
1.0
 50
0.0
 71
     0
 42
20.0
  3
isocp.shx
  4

  0
STYLE
  5
2F5
100
AcDbSymbolTableRecord
100
AcDbTextStyleTableRecord
  2
ED40
 70
     0
 40
60.0
 41
1.0
 50
0.0
 71
     0
 42
20.0
  3
romans.shx
  4

  0
STYLE
  5
2F6
100
AcDbSymbolTableRecord
100
AcDbTextStyleTableRecord
  2
ED10
 70
     0
 40
10.0
 41
1.0
 50
0.0
 71
     0
 42
20.0
  3
romans.shx
  4

  0
STYLE
  5
2F7
100
AcDbSymbolTableRecord
100
AcDbTextStyleTableRecord
  2

 70
     1
 40
0.0
 41
1.0
 50
0.0
 71
     0
 42
0.2
  3
ltypeshp.shx
  4

  0
STYLE
  5
415
100
AcDbSymbolTableRecord
100
AcDbTextStyleTableRecord
  2
ED5
 70
     0
 40
10.0
 41
1.0
 50
0.0
 71
     0
 42
15.0
  3
ISOCP.shx
  4

  0
STYLE
  5
C9F
100
AcDbSymbolTableRecord
100
AcDbTextStyleTableRecord
  2
ROMANS
 70
     0
 40
50.0
 41
0.8
 50
0.0
 71
     0
 42
1.0
  3
romans.shx
  4

  0
ENDTAB
  0
TABLE
  2
VIEW
  5
10
100
AcDbSymbolTable
 70
     0
  0
ENDTAB
  0
TABLE
  2
UCS
  5
11
100
AcDbSymbolTable
 70
     0
  0
ENDTAB
  0
TABLE
  2
APPID
  5
14
100
AcDbSymbolTable
 70
     5
  0
APPID
  5
15
100
AcDbSymbolTableRecord
100
AcDbRegAppTableRecord
  2
ACAD
 70
     0
  0
APPID
  5
2FC
100
AcDbSymbolTableRecord
100
AcDbRegAppTableRecord
  2
CONTENTTABDATA
 70
     0
  0
APPID
  5
2FD
100
AcDbSymbolTableRecord
100
AcDbRegAppTableRecord
  2
CONTENTCURRENTTAB
 70
     0
  0
APPID
  5
2FE
100
AcDbSymbolTableRecord
100
AcDbRegAppTableRecord
  2
CONTENTBLOCKDESCRIPTION
 70
     0
  0
APPID
  5
2FF
100
AcDbSymbolTableRecord
100
AcDbRegAppTableRecord
  2
CONTENTBLOCKICON
 70
     0
  0
ENDTAB
  0
TABLE
  2
DIMSTYLE
  5
16
100
AcDbSymbolTable
 70
     7
  0
DIMSTYLE
105
1C
100
AcDbSymbolTableRecord
100
AcDbDimStyleTableRecord
  2
STANDARD
 70
     0
  3

  4

  5

  6
_OPEN
  7
_OPEN
 40
5.0
 41
3.5
 42
0.0625
 43
0.38
 44
0.18
 45
0.0
 46
0.0
 47
0.0
 48
0.0
140
3.5
141
0.0
142
0.0
143
25.4
144
1.0
145
0.0
146
1.0
147
0.625
 71
     0
 72
     0
 73
     0
 74
     0
 75
     0
 76
     0
 77
     1
 78
     0
170
     0
171
     2
172
     0
173
     1
174
     0
175
     0
176
     0
177
     0
178
     0
270
     2
271
     0
272
     4
273
     2
274
     2
340
C
275
     0
280
     0
281
     0
282
     0
283
     1
284
     0
285
     0
286
     0
287
     0
288
     0
  0
DIMSTYLE
105
2F8
100
AcDbSymbolTableRecord
100
AcDbDimStyleTableRecord
  2
ED30
 70
     0
  3

  4

  5

  6
_OPEN
  7
_OPEN
 40
0.0
 41
25.0
 42
1.0
 43
3.75
 44
1.25
 45
0.0
 46
0.0
 47
0.0
 48
0.0
140
30.0
141
3.0
142
0.0
143
0.0394
144
1.0
145
0.0
146
1.0
147
2.0
 71
     0
 72
     0
 73
     0
 74
     0
 75
     0
 76
     0
 77
     1
 78
     8
170
     0
171
     4
172
     1
173
     1
174
     0
175
     0
176
     0
177
     0
178
     0
270
     2
271
     0
272
     1
273
     8
274
     4
340
2F3
275
     0
280
     0
281
     0
282
     0
283
     1
284
     8
285
     0
286
     0
287
     3
288
     0
  0
DIMSTYLE
105
2F9
102
{ACAD_REACTORS
330
10F2
330
10FF
330
110C
330
1119
330
119B
330
11B3
102
}
100
AcDbSymbolTableRecord
100
AcDbDimStyleTableRecord
  2
ED40
 70
     0
  3

  4

  5

  6
_OPEN
  7
_OPEN
 40
0.0
 41
35.0
 42
1.0
 43
3.75
 44
1.25
 45
0.0
 46
0.0
 47
0.0
 48
0.0
140
40.0
141
3.0
142
0.0
143
0.0394
144
1.0
145
0.0
146
1.0
147
3.0
 71
     0
 72
     0
 73
     0
 74
     0
 75
     0
 76
     0
 77
     1
 78
     8
170
     0
171
     4
172
     1
173
     1
174
     0
175
     0
176
   256
177
   256
178
   256
270
     2
271
     0
272
     1
273
     8
274
     4
340
2F5
275
     0
280
     0
281
     0
282
     0
283
     1
284
     8
285
     0
286
     0
287
     3
288
     0
  0
DIMSTYLE
105
2FA
100
AcDbSymbolTableRecord
100
AcDbDimStyleTableRecord
  2
ED20
 70
     0
  3

  4

  5

  6
_OPEN
  7
_OPEN
 40
0.0
 41
20.0
 42
1.0
 43
3.75
 44
1.25
 45
0.0
 46
0.0
 47
0.0
 48
0.0
140
20.0
141
3.0
142
0.0
143
0.0394
144
1.0
145
0.0
146
1.0
147
1.5
 71
     0
 72
     0
 73
     0
 74
     0
 75
     0
 76
     0
 77
     1
 78
     8
170
     0
171
     4
172
     1
173
     1
174
     0
175
     0
176
   256
177
   256
178
   256
270
     2
271
     0
272
     1
273
     8
274
     4
340
2F4
275
     0
280
     0
281
     0
282
     0
283
     1
284
     8
285
     0
286
     0
287
     3
288
     0
  0
DIMSTYLE
105
2FB
100
AcDbSymbolTableRecord
100
AcDbDimStyleTableRecord
  2
ED10
 70
     0
  3

  4

  5

  6
_OPEN
  7
_OPEN
 40
0.0
 41
15.0
 42
1.0
 43
3.75
 44
1.25
 45
0.0
 46
0.0
 47
0.0
 48
0.0
140
10.0
141
3.0
142
0.0
143
0.0394
144
1.0
145
0.0
146
1.0
147
1.5
 71
     0
 72
     0
 73
     0
 74
     0
 75
     0
 76
     0
 77
     1
 78
     8
170
     0
171
     4
172
     1
173
     1
174
     0
175
     0
176
     0
177
     0
178
     0
270
     2
271
     0
272
     1
273
     8
274
     4
340
2F4
275
     0
280
     0
281
     0
282
     0
283
     1
284
     8
285
     0
286
     0
287
     3
288
     0
  0
DIMSTYLE
105
417
100
AcDbSymbolTableRecord
100
AcDbDimStyleTableRecord
  2
ED5
 70
     0
  3

  4

  5

  6
_OPEN
  7
_OPEN
 40
0.0
 41
12.0
 42
1.0
 43
3.75
 44
1.25
 45
0.0
 46
0.0
 47
0.0
 48
0.0
140
10.0
141
3.0
142
0.0
143
0.0394
144
1.0
145
0.0
146
1.0
147
1.5
 71
     0
 72
     0
 73
     0
 74
     0
 75
     0
 76
     0
 77
     1
 78
     8
170
     0
171
     4
172
     1
173
     1
174
     0
175
     0
176
   256
177
   256
178
   256
270
     2
271
     0
272
     1
273
     8
274
     4
340
415
275
     0
280
     0
281
     0
282
     0
283
     1
284
     8
285
     0
286
     0
287
     3
288
     0
  0
DIMSTYLE
105
CA0
100
AcDbSymbolTableRecord
100
AcDbDimStyleTableRecord
  2
STANEK
 70
     0
  3

  4

  5

  6
_OBLIQUE
  7
_OBLIQUE
 40
0.0
 41
2.0
 42
0.625
 43
3.75
 44
1.0
 45
1.0
 46
0.0
 47
0.0
 48
0.0
140
2.2
141
-100.0
142
0.0
143
0.0394
144
2.2
145
2.0
146
2.2
147
0.625
 71
     0
 72
     0
 73
     0
 74
     0
 75
     0
 76
     0
 77
     1
 78
     8
170
     0
171
     4
172
     1
173
     1
174
     0
175
     0
176
     1
177
     1
178
     1
270
     2
271
     4
272
     4
273
     2
274
     4
340
C9F
275
     0
280
     0
281
     0
282
     0
283
     1
284
     8
285
     8
286
     8
287
     5
288
     0
  0
ENDTAB
  0
TABLE
  2
BLOCK_RECORD
  5
1
100
AcDbSymbolTable
 70
    48
  0
BLOCK_RECORD
  5
2
100
AcDbSymbolTableRecord
100
AcDbBlockTableRecord
  2
*MODEL_SPACE
  0
BLOCK_RECORD
  5
7
100
AcDbSymbolTableRecord
100
AcDbBlockTableRecord
  2
*PAPER_SPACE
  0
BLOCK_RECORD
  5
1D
100
AcDbSymbolTableRecord
100
AcDbBlockTableRecord
  2
_OPEN
  0
BLOCK_RECORD
  5
213
100
AcDbSymbolTableRecord
100
AcDbBlockTableRecord
  2
A20_350
  0
BLOCK_RECORD
  5
878
100
AcDbSymbolTableRecord
100
AcDbBlockTableRecord
  2
MRIZ-KRUH2
  0
BLOCK_RECORD
  5
9E3
100
AcDbSymbolTableRecord
100
AcDbBlockTableRecord
  2
284
  0
BLOCK_RECORD
  5
9FB
100
AcDbSymbolTableRecord
100
AcDbBlockTableRecord
  2
334
  0
BLOCK_RECORD
  5
A10
100
AcDbSymbolTableRecord
100
AcDbBlockTableRecord
  2
374
  0
BLOCK_RECORD
  5
A24
100
AcDbSymbolTableRecord
100
AcDbBlockTableRecord
  2
424
  0
BLOCK_RECORD
  5
A37
100
AcDbSymbolTableRecord
100
AcDbBlockTableRecord
  2
D100
  0
BLOCK_RECORD
  5
A42
100
AcDbSymbolTableRecord
100
AcDbBlockTableRecord
  2
D125
  0
BLOCK_RECORD
  5
A4E
100
AcDbSymbolTableRecord
100
AcDbBlockTableRecord
  2
D160
  0
BLOCK_RECORD
  5
A5A
100
AcDbSymbolTableRecord
100
AcDbBlockTableRecord
  2
D200
  0
BLOCK_RECORD
  5
A65
100
AcDbSymbolTableRecord
100
AcDbBlockTableRecord
  2
D250
  0
BLOCK_RECORD
  5
A70
100
AcDbSymbolTableRecord
100
AcDbBlockTableRecord
  2
D315
  0
BLOCK_RECORD
  5
A7F
100
AcDbSymbolTableRecord
100
AcDbBlockTableRecord
  2
DD199
  0
BLOCK_RECORD
  5
A8F
100
AcDbSymbolTableRecord
100
AcDbBlockTableRecord
  2
DD242
  0
BLOCK_RECORD
  5
A9F
100
AcDbSymbolTableRecord
100
AcDbBlockTableRecord
  2
DD282
  0
BLOCK_RECORD
  5
AB1
100
AcDbSymbolTableRecord
100
AcDbBlockTableRecord
  2
DD332
  0
BLOCK_RECORD
  5
C9A
100
AcDbSymbolTableRecord
100
AcDbBlockTableRecord
  2
_OBLIQUE
  0
BLOCK_RECORD
  5
CA1
100
AcDbSymbolTableRecord
100
AcDbBlockTableRecord
  2
VOVRTULE
  0
BLOCK_RECORD
  5
CB8
100
AcDbSymbolTableRecord
100
AcDbBlockTableRecord
  2
VOMRIZKRUH
  0
BLOCK_RECORD
  5
10E6
100
AcDbSymbolTableRecord
100
AcDbBlockTableRecord
  2
*D41
  0
BLOCK_RECORD
  5
10F3
100
AcDbSymbolTableRecord
100
AcDbBlockTableRecord
  2
*D42
  0
BLOCK_RECORD
  5
1100
100
AcDbSymbolTableRecord
100
AcDbBlockTableRecord
  2
*D43
  0
BLOCK_RECORD
  5
110D
100
AcDbSymbolTableRecord
100
AcDbBlockTableRecord
  2
*D44
  0
BLOCK_RECORD
  5
118F
100
AcDbSymbolTableRecord
100
AcDbBlockTableRecord
  2
*D46
  0
BLOCK_RECORD
  5
11A7
100
AcDbSymbolTableRecord
100
AcDbBlockTableRecord
  2
*D47
  0
ENDTAB
  0
ENDSEC
  0
SECTION
  2
BLOCKS
  0
BLOCK
  5
3
100
AcDbEntity
  8
0
100
AcDbBlockBegin
  2
*MODEL_SPACE
 70
     0
 10
0.0
 20
0.0
 30
0.0
  3
*MODEL_SPACE
  1

  0
ENDBLK
  5
6
100
AcDbEntity
  8
0
100
AcDbBlockEnd
  0
BLOCK
  5
8
100
AcDbEntity
 67
     1
  8
0
100
AcDbBlockBegin
  2
*PAPER_SPACE
 70
     0
 10
0.0
 20
0.0
 30
0.0
  3
*PAPER_SPACE
  1

  0
ENDBLK
  5
9
100
AcDbEntity
 67
     1
  8
0
100
AcDbBlockEnd
  0
BLOCK
  5
21
100
AcDbEntity
  8
0
100
AcDbBlockBegin
  2
_OPEN
 70
     0
 10
0.0
 20
0.0
 30
0.0
  3
_OPEN
  1

  0
LINE
  5
1E
100
AcDbEntity
  8
0
  6
BYBLOCK
 62
     0
100
AcDbLine
 10
-1.0
 20
0.166667
 30
0.0
 11
0.0
 21
0.0
 31
0.0
  0
LINE
  5
1F
100
AcDbEntity
  8
0
  6
BYBLOCK
 62
     0
100
AcDbLine
 10
0.0
 20
0.0
 30
0.0
 11
-1.0
 21
-0.166667
 31
0.0
  0
LINE
  5
20
100
AcDbEntity
  8
0
  6
BYBLOCK
 62
     0
100
AcDbLine
 10
0.0
 20
0.0
 30
0.0
 11
-1.0
 21
0.0
 31
0.0
  0
ENDBLK
  5
22
100
AcDbEntity
  8
0
100
AcDbBlockEnd
  0
BLOCK
  5
214
100
AcDbEntity
  8
0
 62
    41
100
AcDbBlockBegin
  2
A20_350
 70
     0
 10
0.0
 20
0.0
 30
0.0
  3
A20_350
  1

  0
ENDBLK
  5
215
100
AcDbEntity
  8
0
 62
    41
100
AcDbBlockEnd
  0
BLOCK
  5
879
100
AcDbEntity
  8
0
100
AcDbBlockBegin
  2
MRIZ-KRUH2
 70
     0
 10
0.0
 20
0.0
 30
0.0
  3
MRIZ-KRUH2
  1

  0
LWPOLYLINE
  5
87A
100
AcDbEntity
  8
V0-KOTY
  6
CONTINUOUS
 62
    90
100
AcDbPolyline
 90
        4
 70
     0
 43
0.0
 39
10.0
 10
1.350687
 20
-29.878129
 10
1.350687
 20
-57.5
 10
-1.350687
 20
-57.5
 10
-1.350687
 20
-29.878129
  0
LWPOLYLINE
  5
87B
100
AcDbEntity
  8
V0-KOTY
  6
CONTINUOUS
 62
    90
100
AcDbPolyline
 90
        4
 70
     1
 43
0.0
 39
10.0
 10
57.5
 20
1.350687
 10
57.5
 20
-1.350687
 10
29.878129
 20
-1.350687
 10
29.878129
 20
1.350687
  0
LWPOLYLINE
  5
87C
100
AcDbEntity
  8
V0-KOTY
  6
CONTINUOUS
 62
    90
100
AcDbPolyline
 90
        4
 70
     1
 43
0.0
 39
10.0
 10
-57.5
 20
-1.350687
 10
-57.5
 20
1.350687
 10
-29.878129
 20
1.350687
 10
-29.878129
 20
-1.350687
  0
LWPOLYLINE
  5
87D
100
AcDbEntity
  8
V0-KOTY
  6
CONTINUOUS
 62
    90
100
AcDbPolyline
 90
        4
 70
     1
 43
0.0
 39
10.0
 10
-1.350687
 20
57.5
 10
1.350687
 20
57.5
 10
1.350687
 20
29.878129
 10
-1.350687
 20
29.878129
  0
ARC
  5
87E
100
AcDbEntity
  8
V0-OBRYS
  6
CONTINUOUS
 62
    90
100
AcDbCircle
 10
0.0
 20
0.0
 30
0.0
 40
47.5
100
AcDbArc
 50
181.629455
 51
268.370545
  0
ARC
  5
87F
100
AcDbEntity
  8
V0-OBRYS
  6
CONTINUOUS
 62
    90
100
AcDbCircle
 10
0.0
 20
0.0
 30
0.0
 40
57.5
100
AcDbArc
 50
1.346014
 51
0.0
  0
ARC
  5
880
100
AcDbEntity
  8
V0-OBRYS
  6
CONTINUOUS
 62
    90
100
AcDbCircle
 10
0.0
 20
0.0
 30
0.0
 40
47.5
100
AcDbArc
 50
271.629455
 51
358.370545
  0
ARC
  5
881
100
AcDbEntity
  8
V0-OBRYS
  6
CONTINUOUS
 62
    90
100
AcDbCircle
 10
0.0
 20
0.0
 30
0.0
 40
45.0
100
AcDbArc
 50
181.720007
 51
268.279993
  0
ARC
  5
882
100
AcDbEntity
  8
V0-OBRYS
  6
CONTINUOUS
 62
    90
100
AcDbCircle
 10
0.0
 20
0.0
 30
0.0
 40
45.0
100
AcDbArc
 50
91.720007
 51
178.279993
  0
ARC
  5
883
100
AcDbEntity
  8
V0-OBRYS
  6
CONTINUOUS
 62
    90
100
AcDbCircle
 10
0.0
 20
0.0
 30
0.0
 40
47.5
100
AcDbArc
 50
91.629455
 51
178.370545
  0
ARC
  5
884
100
AcDbEntity
  8
V0-OBRYS
  6
CONTINUOUS
 62
    90
100
AcDbCircle
 10
0.0
 20
0.0
 30
0.0
 40
30.0
100
AcDbArc
 50
2.580495
 51
177.419505
  0
ARC
  5
885
100
AcDbEntity
  8
V0-OBRYS
  6
CONTINUOUS
 62
    90
100
AcDbCircle
 10
0.0
 20
0.0
 30
0.0
 40
32.5
100
AcDbArc
 50
92.381876
 51
177.618124
  0
ARC
  5
886
100
AcDbEntity
  8
V0-OBRYS
  6
CONTINUOUS
 62
    90
100
AcDbCircle
 10
0.0
 20
0.0
 30
0.0
 40
32.5
100
AcDbArc
 50
2.381876
 51
87.618124
  0
ARC
  5
887
100
AcDbEntity
  8
V0-OBRYS
  6
CONTINUOUS
 62
    90
100
AcDbCircle
 10
0.0
 20
0.0
 30
0.0
 40
45.0
100
AcDbArc
 50
1.720007
 51
88.279993
  0
ARC
  5
888
100
AcDbEntity
  8
V0-OBRYS
  6
CONTINUOUS
 62
    90
100
AcDbCircle
 10
0.0
 20
0.0
 30
0.0
 40
47.5
100
AcDbArc
 50
1.629455
 51
88.370545
  0
ARC
  5
889
100
AcDbEntity
  8
V0-OBRYS
  6
CONTINUOUS
 62
    90
100
AcDbCircle
 10
0.0
 20
0.0
 30
0.0
 40
32.5
100
AcDbArc
 50
272.381876
 51
357.618124
  0
ARC
  5
88A
100
AcDbEntity
  8
V0-OBRYS
  6
CONTINUOUS
 62
    90
100
AcDbCircle
 10
0.0
 20
0.0
 30
0.0
 40
30.0
100
AcDbArc
 50
182.580495
 51
357.419505
  0
ARC
  5
88B
100
AcDbEntity
  8
V0-OBRYS
  6
CONTINUOUS
 62
    90
100
AcDbCircle
 10
0.0
 20
0.0
 30
0.0
 40
45.0
100
AcDbArc
 50
271.720007
 51
358.279993
  0
ARC
  5
88C
100
AcDbEntity
  8
V0-OBRYS
  6
CONTINUOUS
 62
    90
100
AcDbCircle
 10
0.0
 20
0.0
 30
0.0
 40
32.5
100
AcDbArc
 50
182.381876
 51
267.618124
  0
POINT
  5
88D
100
AcDbEntity
  8
V0-KOTY
  6
CONTINUOUS
100
AcDbPoint
 10
0.0
 20
0.0
 30
0.0
  0
ENDBLK
  5
88E
100
AcDbEntity
  8
0
100
AcDbBlockEnd
  0
BLOCK
  5
9E4
100
AcDbEntity
  8
0
100
AcDbBlockBegin
  2
284
 70
     0
 10
0.0
 20
0.0
 30
0.0
  3
284
  1

  0
LINE
  5
9E5
100
AcDbEntity
  8
V0-OBRYS
100
AcDbLine
 10
0.0
 20
284.0
 30
0.0
 11
0.0
 21
0.0
 31
0.0
  0
LINE
  5
9E6
100
AcDbEntity
  8
V0-OBRYS
100
AcDbLine
 10
284.0
 20
0.0
 30
0.0
 11
284.0
 21
284.0
 31
0.0
  0
LINE
  5
9E7
100
AcDbEntity
  8
V0-OBRYS
100
AcDbLine
 10
-35.0
 20
284.0
 30
0.0
 11
-35.0
 21
0.0
 31
0.0
  0
LINE
  5
9E8
100
AcDbEntity
  8
V0-OBRYS
100
AcDbLine
 10
-30.0
 20
0.0
 30
0.0
 11
-30.0
 21
284.0
 31
0.0
  0
LINE
  5
9E9
100
AcDbEntity
  8
V0-OBRYS
100
AcDbLine
 10
0.0
 20
0.0
 30
0.0
 11
284.0
 21
0.0
 31
0.0
  0
LINE
  5
9EA
100
AcDbEntity
  8
V0-OBRYS
100
AcDbLine
 10
-35.0
 20
0.0
 30
0.0
 11
-30.0
 21
0.0
 31
0.0
  0
LINE
  5
9EB
100
AcDbEntity
  8
V0-OBRYS
100
AcDbLine
 10
284.0
 20
284.0
 30
0.0
 11
0.0
 21
284.0
 31
0.0
  0
LINE
  5
9EC
100
AcDbEntity
  8
V0-OBRYS
100
AcDbLine
 10
-30.0
 20
284.0
 30
0.0
 11
-35.0
 21
284.0
 31
0.0
  0
ENDBLK
  5
9ED
100
AcDbEntity
  8
0
100
AcDbBlockEnd
  0
BLOCK
  5
9FC
100
AcDbEntity
  8
0
100
AcDbBlockBegin
  2
334
 70
     0
 10
0.0
 20
0.0
 30
0.0
  3
334
  1

  0
LINE
  5
9FD
100
AcDbEntity
  8
V0-OBRYS
100
AcDbLine
 10
-73.143241
 20
334.0
 30
0.0
 11
-73.143241
 21
0.0
 31
0.0
  0
LINE
  5
9FE
100
AcDbEntity
  8
V0-OBRYS
100
AcDbLine
 10
-68.143241
 20
0.0
 30
0.0
 11
-68.143241
 21
334.0
 31
0.0
  0
LINE
  5
9FF
100
AcDbEntity
  8
V0-OBRYS
100
AcDbLine
 10
-73.143241
 20
0.0
 30
0.0
 11
-68.143241
 21
0.0
 31
0.0
  0
LINE
  5
A00
100
AcDbEntity
  8
V0-OBRYS
100
AcDbLine
 10
-60.081948
 20
87.429285
 30
0.0
 11
-65.081948
 21
87.429285
 31
0.0
  0
LINE
  5
A01
100
AcDbEntity
  8
V0-OBRYS
100
AcDbLine
 10
-68.143241
 20
334.0
 30
0.0
 11
-73.143241
 21
334.0
 31
0.0
  0
LINE
  5
A02
100
AcDbEntity
  8
V0-OBRYS
100
AcDbLine
 10
0.0
 20
334.0
 30
0.0
 11
0.0
 21
0.0
 31
0.0
  0
LINE
  5
A03
100
AcDbEntity
  8
V0-OBRYS
100
AcDbLine
 10
334.0
 20
0.0
 30
0.0
 11
334.0
 21
334.0
 31
0.0
  0
LINE
  5
A04
100
AcDbEntity
  8
V0-OBRYS
100
AcDbLine
 10
0.0
 20
0.0
 30
0.0
 11
334.0
 21
0.0
 31
0.0
  0
LINE
  5
A05
100
AcDbEntity
  8
V0-OBRYS
100
AcDbLine
 10
334.0
 20
334.0
 30
0.0
 11
0.0
 21
334.0
 31
0.0
  0
ENDBLK
  5
A06
100
AcDbEntity
  8
0
100
AcDbBlockEnd
  0
BLOCK
  5
A11
100
AcDbEntity
  8
0
100
AcDbBlockBegin
  2
374
 70
     0
 10
0.0
 20
0.0
 30
0.0
  3
374
  1

  0
LINE
  5
A12
100
AcDbEntity
  8
V0-OBRYS
100
AcDbLine
 10
-66.612595
 20
374.0
 30
0.0
 11
-66.612595
 21
0.0
 31
0.0
  0
LINE
  5
A13
100
AcDbEntity
  8
V0-OBRYS
100
AcDbLine
 10
-61.612595
 20
0.0
 30
0.0
 11
-61.612595
 21
374.0
 31
0.0
  0
LINE
  5
A14
100
AcDbEntity
  8
V0-OBRYS
100
AcDbLine
 10
-66.612595
 20
0.0
 30
0.0
 11
-61.612595
 21
0.0
 31
0.0
  0
LINE
  5
A15
100
AcDbEntity
  8
V0-OBRYS
100
AcDbLine
 10
-61.612595
 20
374.0
 30
0.0
 11
-66.612595
 21
374.0
 31
0.0
  0
LINE
  5
A16
100
AcDbEntity
  8
V0-OBRYS
100
AcDbLine
 10
0.0
 20
374.0
 30
0.0
 11
0.0
 21
0.0
 31
0.0
  0
LINE
  5
A17
100
AcDbEntity
  8
V0-OBRYS
100
AcDbLine
 10
374.0
 20
0.0
 30
0.0
 11
374.0
 21
374.0
 31
0.0
  0
LINE
  5
A18
100
AcDbEntity
  8
V0-OBRYS
100
AcDbLine
 10
0.0
 20
0.0
 30
0.0
 11
374.0
 21
0.0
 31
0.0
  0
LINE
  5
A19
100
AcDbEntity
  8
V0-OBRYS
100
AcDbLine
 10
374.0
 20
374.0
 30
0.0
 11
0.0
 21
374.0
 31
0.0
  0
ENDBLK
  5
A1A
100
AcDbEntity
  8
0
100
AcDbBlockEnd
  0
BLOCK
  5
A25
100
AcDbEntity
  8
0
100
AcDbBlockBegin
  2
424
 70
     0
 10
0.0
 20
0.0
 30
0.0
  3
424
  1

  0
LINE
  5
A26
100
AcDbEntity
  8
V0-OBRYS
100
AcDbLine
 10
-66.612597
 20
424.0
 30
0.0
 11
-66.612597
 21
0.0
 31
0.0
  0
LINE
  5
A27
100
AcDbEntity
  8
V0-OBRYS
100
AcDbLine
 10
-61.612597
 20
0.0
 30
0.0
 11
-61.612597
 21
424.0
 31
0.0
  0
LINE
  5
A28
100
AcDbEntity
  8
V0-OBRYS
100
AcDbLine
 10
-66.612597
 20
0.0
 30
0.0
 11
-61.612597
 21
0.0
 31
0.0
  0
LINE
  5
A29
100
AcDbEntity
  8
V0-OBRYS
100
AcDbLine
 10
-61.612597
 20
424.0
 30
0.0
 11
-66.612597
 21
424.0
 31
0.0
  0
LINE
  5
A2A
100
AcDbEntity
  8
V0-OBRYS
100
AcDbLine
 10
0.0
 20
424.0
 30
0.0
 11
0.0
 21
0.0
 31
0.0
  0
LINE
  5
A2B
100
AcDbEntity
  8
V0-OBRYS
100
AcDbLine
 10
424.0
 20
0.0
 30
0.0
 11
424.0
 21
424.0
 31
0.0
  0
LINE
  5
A2C
100
AcDbEntity
  8
V0-OBRYS
100
AcDbLine
 10
0.0
 20
0.0
 30
0.0
 11
424.0
 21
0.0
 31
0.0
  0
LINE
  5
A2D
100
AcDbEntity
  8
V0-OBRYS
100
AcDbLine
 10
424.0
 20
424.0
 30
0.0
 11
0.0
 21
424.0
 31
0.0
  0
ENDBLK
  5
A2E
100
AcDbEntity
  8
0
100
AcDbBlockEnd
  0
BLOCK
  5
A38
100
AcDbEntity
  8
0
100
AcDbBlockBegin
  2
D100
 70
     0
 10
0.0
 20
0.0
 30
0.0
  3
D100
  1

  0
LINE
  5
A39
100
AcDbEntity
  8
V0-OBRYS
100
AcDbLine
 10
0.0
 20
50.0
 30
0.0
 11
0.0
 21
-50.0
 31
0.0
  0
LINE
  5
A3A
100
AcDbEntity
  8
V0-OBRYS
100
AcDbLine
 10
20.0
 20
-50.0
 30
0.0
 11
20.0
 21
50.0
 31
0.0
  0
LINE
  5
A3B
100
AcDbEntity
  8
V0-OBRYS
100
AcDbLine
 10
0.0
 20
-50.0
 30
0.0
 11
20.0
 21
-50.0
 31
0.0
  0
LINE
  5
A3C
100
AcDbEntity
  8
V0-OBRYS
100
AcDbLine
 10
20.0
 20
50.0
 30
0.0
 11
0.0
 21
50.0
 31
0.0
  0
ENDBLK
  5
A3D
100
AcDbEntity
  8
0
100
AcDbBlockEnd
  0
BLOCK
  5
A43
100
AcDbEntity
  8
0
100
AcDbBlockBegin
  2
D125
 70
     0
 10
0.0
 20
0.0
 30
0.0
  3
D125
  1

  0
LINE
  5
A44
100
AcDbEntity
  8
V0-OBRYS
100
AcDbLine
 10
-3.510327
 20
-3.775247
 30
0.0
 11
-3.510327
 21
-3.775247
 31
100.0
210
0.0
220
-1.0
230
-0.0000000000000002
  0
LINE
  5
A45
100
AcDbEntity
  8
V0-OBRYS
100
AcDbLine
 10
0.0
 20
62.5
 30
0.0
 11
0.0
 21
-62.5
 31
0.0
  0
LINE
  5
A46
100
AcDbEntity
  8
V0-OBRYS
100
AcDbLine
 10
30.0
 20
-62.5
 30
0.0
 11
30.0
 21
62.5
 31
0.0
  0
LINE
  5
A47
100
AcDbEntity
  8
V0-OBRYS
100
AcDbLine
 10
0.0
 20
-62.5
 30
0.0
 11
30.0
 21
-62.5
 31
0.0
  0
LINE
  5
A48
100
AcDbEntity
  8
V0-OBRYS
100
AcDbLine
 10
30.0
 20
62.5
 30
0.0
 11
0.0
 21
62.5
 31
0.0
  0
ENDBLK
  5
A49
100
AcDbEntity
  8
0
100
AcDbBlockEnd
  0
BLOCK
  5
A4F
100
AcDbEntity
  8
0
100
AcDbBlockBegin
  2
D160
 70
     0
 10
0.0
 20
0.0
 30
0.0
  3
D160
  1

  0
LINE
  5
A50
100
AcDbEntity
  8
V0-OBRYS
100
AcDbLine
 10
0.0
 20
160.0
 30
0.0
 11
0.0
 21
0.0
 31
0.0
  0
LINE
  5
A51
100
AcDbEntity
  8
V0-OBRYS
100
AcDbLine
 10
30.0
 20
0.0
 30
0.0
 11
30.0
 21
160.0
 31
0.0
  0
LINE
  5
A52
100
AcDbEntity
  8
V0-OBRYS
100
AcDbLine
 10
0.0
 20
0.0
 30
0.0
 11
30.0
 21
0.0
 31
0.0
  0
LINE
  5
A53
100
AcDbEntity
  8
V0-OBRYS
100
AcDbLine
 10
30.0
 20
160.0
 30
0.0
 11
0.0
 21
160.0
 31
0.0
  0
ENDBLK
  5
A54
100
AcDbEntity
  8
0
100
AcDbBlockEnd
  0
BLOCK
  5
A5B
100
AcDbEntity
  8
0
100
AcDbBlockBegin
  2
D200
 70
     0
 10
0.0
 20
0.0
 30
0.0
  3
D200
  1

  0
LINE
  5
A5C
100
AcDbEntity
  8
V0-OBRYS
100
AcDbLine
 10
0.0
 20
200.0
 30
0.0
 11
0.0
 21
0.0
 31
0.0
  0
LINE
  5
A5D
100
AcDbEntity
  8
V0-OBRYS
100
AcDbLine
 10
30.0
 20
0.0
 30
0.0
 11
30.0
 21
200.0
 31
0.0
  0
LINE
  5
A5E
100
AcDbEntity
  8
V0-OBRYS
100
AcDbLine
 10
0.0
 20
0.0
 30
0.0
 11
30.0
 21
0.0
 31
0.0
  0
LINE
  5
A5F
100
AcDbEntity
  8
V0-OBRYS
100
AcDbLine
 10
30.0
 20
200.0
 30
0.0
 11
0.0
 21
200.0
 31
0.0
  0
ENDBLK
  5
A60
100
AcDbEntity
  8
0
100
AcDbBlockEnd
  0
BLOCK
  5
A66
100
AcDbEntity
  8
0
100
AcDbBlockBegin
  2
D250
 70
     0
 10
0.0
 20
0.0
 30
0.0
  3
D250
  1

  0
LINE
  5
A67
100
AcDbEntity
  8
V0-OBRYS
100
AcDbLine
 10
30.0
 20
125.0
 30
0.0
 11
0.0
 21
125.0
 31
0.0
  0
LINE
  5
A68
100
AcDbEntity
  8
V0-OBRYS
100
AcDbLine
 10
0.0
 20
-125.0
 30
0.0
 11
30.0
 21
-125.0
 31
0.0
  0
LINE
  5
A69
100
AcDbEntity
  8
V0-OBRYS
100
AcDbLine
 10
0.0
 20
125.0
 30
0.0
 11
0.0
 21
-125.0
 31
0.0
  0
LINE
  5
A6A
100
AcDbEntity
  8
V0-OBRYS
100
AcDbLine
 10
30.0
 20
-125.0
 30
0.0
 11
30.0
 21
125.0
 31
0.0
  0
ENDBLK
  5
A6B
100
AcDbEntity
  8
0
100
AcDbBlockEnd
  0
BLOCK
  5
A71
100
AcDbEntity
  8
0
100
AcDbBlockBegin
  2
D315
 70
     0
 10
0.0
 20
0.0
 30
0.0
  3
D315
  1

  0
LINE
  5
A72
100
AcDbEntity
  8
V0-OBRYS
100
AcDbLine
 10
0.0
 20
157.5
 30
0.0
 11
0.0
 21
-157.5
 31
0.0
  0
LINE
  5
A73
100
AcDbEntity
  8
V0-OBRYS
100
AcDbLine
 10
30.0
 20
-157.5
 30
0.0
 11
30.0
 21
157.5
 31
0.0
  0
LINE
  5
A74
100
AcDbEntity
  8
V0-OBRYS
100
AcDbLine
 10
0.0
 20
-157.5
 30
0.0
 11
30.0
 21
-157.5
 31
0.0
  0
LINE
  5
A75
100
AcDbEntity
  8
V0-OBRYS
100
AcDbLine
 10
30.0
 20
157.5
 30
0.0
 11
0.0
 21
157.5
 31
0.0
  0
ENDBLK
  5
A76
100
AcDbEntity
  8
0
100
AcDbBlockEnd
  0
BLOCK
  5
A80
100
AcDbEntity
  8
0
100
AcDbBlockBegin
  2
DD199
 70
     0
 10
0.0
 20
0.0
 30
0.0
  3
DD199
  1

  0
LINE
  5
A81
100
AcDbEntity
  8
V0-OBRYS
100
AcDbLine
 10
-120.0
 20
99.5
 30
0.0
 11
-120.0
 21
-99.5
 31
0.0
  0
LINE
  5
A82
100
AcDbEntity
  8
V0-OBRYS
100
AcDbLine
 10
0.0
 20
-99.5
 30
0.0
 11
0.0
 21
99.5
 31
0.0
  0
LINE
  5
A83
100
AcDbEntity
  8
V0-OBRYS
100
AcDbLine
 10
-120.0
 20
-99.5
 30
0.0
 11
0.0
 21
-99.5
 31
0.0
  0
LINE
  5
A84
100
AcDbEntity
  8
V0-VYPLNE
100
AcDbLine
 10
-143.674226
 20
0.0
 30
0.0
 11
111.020992
 21
0.0
 31
0.0
  0
LINE
  5
A85
100
AcDbEntity
  8
V0-OBRYS
100
AcDbLine
 10
0.0
 20
99.5
 30
0.0
 11
-120.0
 21
99.5
 31
0.0
  0
POINT
  5
A86
100
AcDbEntity
  8
V0-VYPLNE
100
AcDbPoint
 10
0.0
 20
0.0
 30
0.0
  0
ENDBLK
  5
A87
100
AcDbEntity
  8
0
100
AcDbBlockEnd
  0
BLOCK
  5
A90
100
AcDbEntity
  8
0
100
AcDbBlockBegin
  2
DD242
 70
     0
 10
0.0
 20
0.0
 30
0.0
  3
DD242
  1

  0
LINE
  5
A91
100
AcDbEntity
  8
V0-OBRYS
100
AcDbLine
 10
-125.0
 20
121.0
 30
0.0
 11
-125.0
 21
-121.0
 31
0.0
  0
LINE
  5
A92
100
AcDbEntity
  8
V0-OBRYS
100
AcDbLine
 10
0.0
 20
-121.0
 30
0.0
 11
0.0
 21
121.0
 31
0.0
  0
LINE
  5
A93
100
AcDbEntity
  8
V0-OBRYS
100
AcDbLine
 10
-125.0
 20
-121.0
 30
0.0
 11
0.0
 21
-121.0
 31
0.0
  0
LINE
  5
A94
100
AcDbEntity
  8
V0-VYPLNE
100
AcDbLine
 10
-143.674226
 20
0.0
 30
0.0
 11
111.020992
 21
0.0
 31
0.0
  0
POINT
  5
A95
100
AcDbEntity
  8
V0-VYPLNE
100
AcDbPoint
 10
0.0
 20
0.0
 30
0.0
  0
LINE
  5
A96
100
AcDbEntity
  8
V0-OBRYS
100
AcDbLine
 10
0.0
 20
121.0
 30
0.0
 11
-125.0
 21
121.0
 31
0.0
  0
ENDBLK
  5
A97
100
AcDbEntity
  8
0
100
AcDbBlockEnd
  0
BLOCK
  5
AA0
100
AcDbEntity
  8
0
100
AcDbBlockBegin
  2
DD282
 70
     0
 10
0.0
 20
0.0
 30
0.0
  3
DD282
  1

  0
LINE
  5
AA1
100
AcDbEntity
  8
V0-OBRYS
100
AcDbLine
 10
-105.0
 20
141.0
 30
0.0
 11
-105.0
 21
-141.0
 31
0.0
  0
LINE
  5
AA2
100
AcDbEntity
  8
V0-OBRYS
100
AcDbLine
 10
0.0
 20
-141.0
 30
0.0
 11
0.0
 21
141.0
 31
0.0
  0
LINE
  5
AA3
100
AcDbEntity
  8
V0-OBRYS
100
AcDbLine
 10
-105.0
 20
-141.0
 30
0.0
 11
0.0
 21
-141.0
 31
0.0
  0
LINE
  5
AA4
100
AcDbEntity
  8
V0-VYPLNE
100
AcDbLine
 10
-143.674226
 20
0.0
 30
0.0
 11
111.020992
 21
0.0
 31
0.0
  0
POINT
  5
AA5
100
AcDbEntity
  8
V0-VYPLNE
100
AcDbPoint
 10
0.0
 20
0.0
 30
0.0
  0
LINE
  5
AA6
100
AcDbEntity
  8
V0-OBRYS
100
AcDbLine
 10
0.0
 20
141.0
 30
0.0
 11
-105.0
 21
141.0
 31
0.0
  0
ENDBLK
  5
AA7
100
AcDbEntity
  8
0
100
AcDbBlockEnd
  0
BLOCK
  5
AB2
100
AcDbEntity
  8
0
100
AcDbBlockBegin
  2
DD332
 70
     0
 10
0.0
 20
0.0
 30
0.0
  3
DD332
  1

  0
LINE
  5
AB3
100
AcDbEntity
  8
V0-OBRYS
100
AcDbLine
 10
-120.0
 20
166.0
 30
0.0
 11
-120.0
 21
-166.0
 31
0.0
  0
LINE
  5
AB4
100
AcDbEntity
  8
V0-OBRYS
100
AcDbLine
 10
0.0
 20
-166.0
 30
0.0
 11
0.0
 21
166.0
 31
0.0
  0
LINE
  5
AB5
100
AcDbEntity
  8
V0-OBRYS
100
AcDbLine
 10
-120.0
 20
-166.0
 30
0.0
 11
0.0
 21
-166.0
 31
0.0
  0
LINE
  5
AB6
100
AcDbEntity
  8
V0-VYPLNE
100
AcDbLine
 10
-143.674226
 20
0.0
 30
0.0
 11
111.020992
 21
0.0
 31
0.0
  0
POINT
  5
AB7
100
AcDbEntity
  8
V0-VYPLNE
100
AcDbPoint
 10
0.0
 20
0.0
 30
0.0
  0
LINE
  5
AB8
100
AcDbEntity
  8
V0-OBRYS
100
AcDbLine
 10
-120.0
 20
166.0
 30
0.0
 11
0.0
 21
166.0
 31
0.0
  0
ENDBLK
  5
AB9
100
AcDbEntity
  8
0
100
AcDbBlockEnd
  0
BLOCK
  5
C9C
100
AcDbEntity
  8
0
100
AcDbBlockBegin
  2
_OBLIQUE
 70
     0
 10
0.0
 20
0.0
 30
0.0
  3
_OBLIQUE
  1

  0
LINE
  5
C9B
100
AcDbEntity
  8
0
  6
BYBLOCK
 62
     0
100
AcDbLine
 10
-0.5
 20
-0.5
 30
0.0
 11
0.5
 21
0.5
 31
0.0
  0
ENDBLK
  5
C9D
100
AcDbEntity
  8
0
100
AcDbBlockEnd
  0
BLOCK
  5
CB4
100
AcDbEntity
  8
0
100
AcDbBlockBegin
  2
VOVRTULE
 70
     0
 10
0.0
 20
0.0
 30
0.0
  3
VOVRTULE
  1

  0
LINE
  5
CA2
100
AcDbEntity
  8
VZ1
  6
CONTINUOUS
100
AcDbLine
 10
0.0
 20
28.822222
 30
1.802979
 11
0.0
 21
94.218377
 31
5.893847
210
1.0
220
-0.0000000000000002
230
0.0000000000000001
  0
LINE
  5
CA3
100
AcDbEntity
  8
VZ1
  6
CONTINUOUS
100
AcDbLine
 10
0.0
 20
25.714583
 30
-13.142733
 11
0.0
 21
84.059664
 31
-42.962925
210
1.0
220
-0.0000000000000002
230
0.0000000000000001
  0
LINE
  5
CA4
100
AcDbEntity
  8
VZ1
  6
CONTINUOUS
100
AcDbLine
 10
0.0
 20
20.445725
 30
20.394694
 11
0.0
 21
66.836035
 31
66.669217
210
1.0
220
-0.0000000000000002
230
0.0000000000000001
  0
ARC
  5
CA5
100
AcDbEntity
  8
VZ1
  6
CONTINUOUS
100
AcDbCircle
 10
0.0
 20
0.0
 30
0.0
 40
94.402542
210
1.0
220
0.0
230
-0.0000000000000002
100
AcDbArc
 50
44.928408
 51
75.579483
  0
CIRCLE
  5
CA6
100
AcDbEntity
  8
VZ1
  6
CONTINUOUS
100
AcDbCircle
 10
0.0
 20
0.0
 30
0.0
 40
22.66879
210
1.0
220
0.0
230
-0.0000000000000002
  0
CIRCLE
  5
CA7
100
AcDbEntity
  8
VZ1
  6
CONTINUOUS
100
AcDbCircle
 10
0.0
 20
0.0
 30
0.0
 40
28.87856
210
1.0
220
0.0
230
-0.0000000000000002
  0
POINT
  5
CA8
100
AcDbEntity
  8
VZ1
  6
CONTINUOUS
100
AcDbPoint
 10
0.0
 20
0.0
 30
0.0
210
1.0
220
-0.0000000000000002
230
0.0000000000000001
 50
0.0
  0
LINE
  5
CA9
100
AcDbEntity
  8
VZ1
  6
CONTINUOUS
100
AcDbLine
 10
0.0
 20
-28.52864
 30
-4.481958
 11
0.0
 21
-93.25867
 31
-14.651294
210
1.0
220
-0.0000000000000002
230
0.0000000000000001
  0
ARC
  5
CAA
100
AcDbEntity
  8
VZ1
  6
CONTINUOUS
100
AcDbCircle
 10
0.0
 20
0.0
 30
0.0
 40
94.402542
210
1.0
220
0.0
230
-0.0000000000000002
100
AcDbArc
 50
188.928408
 51
219.579483
  0
LINE
  5
CAB
100
AcDbEntity
  8
VZ1
  6
CONTINUOUS
100
AcDbLine
 10
0.0
 20
10.621291
 30
-26.854411
 11
0.0
 21
34.720461
 31
-87.785703
210
1.0
220
-0.0000000000000002
230
0.0000000000000001
  0
LINE
  5
CAC
100
AcDbEntity
  8
VZ1
  6
CONTINUOUS
100
AcDbLine
 10
0.0
 20
-4.553239
 30
-28.51735
 11
0.0
 21
-14.884305
 31
-93.221765
210
1.0
220
-0.0000000000000002
230
0.0000000000000001
  0
ARC
  5
CAD
100
AcDbEntity
  8
VZ1
  6
CONTINUOUS
100
AcDbCircle
 10
0.0
 20
0.0
 30
0.0
 40
94.402542
210
1.0
220
0.0
230
-0.0000000000000002
100
AcDbArc
 50
260.928408
 51
291.579483
  0
LINE
  5
CAE
100
AcDbEntity
  8
VZ1
  6
CONTINUOUS
100
AcDbLine
 10
0.0
 20
-22.257903
 30
-18.399918
 11
0.0
 21
-72.759952
 31
-60.148395
210
1.0
220
-0.0000000000000002
230
0.0000000000000001
  0
LINE
  5
CAF
100
AcDbEntity
  8
VZ1
  6
CONTINUOUS
100
AcDbLine
 10
0.0
 20
-24.377432
 30
15.482637
 11
0.0
 21
-79.688584
 31
50.61195
210
1.0
220
-0.0000000000000002
230
0.0000000000000001
  0
ARC
  5
CB0
100
AcDbEntity
  8
VZ1
  6
CONTINUOUS
100
AcDbCircle
 10
0.0
 20
0.0
 30
0.0
 40
94.402542
210
1.0
220
0.0
230
-0.0000000000000002
100
AcDbArc
 50
116.928408
 51
147.579483
  0
LINE
  5
CB1
100
AcDbEntity
  8
VZ1
  6
CONTINUOUS
100
AcDbLine
 10
0.0
 20
-13.07843
 30
25.747347
 11
0.0
 21
-42.752723
 31
84.166767
210
1.0
220
-0.0000000000000002
230
0.0000000000000001
  0
LINE
  5
CB2
100
AcDbEntity
  8
VZ1
  6
CONTINUOUS
100
AcDbLine
 10
0.0
 20
7.191822
 30
27.968713
 11
0.0
 21
23.509698
 31
91.4283
210
1.0
220
-0.0000000000000002
230
0.0000000000000001
  0
ARC
  5
CB3
100
AcDbEntity
  8
VZ1
  6
CONTINUOUS
100
AcDbCircle
 10
0.0
 20
0.0
 30
0.0
 40
94.402542
210
1.0
220
0.0
230
-0.0000000000000002
100
AcDbArc
 50
332.928408
 51
3.579483
  0
ENDBLK
  5
CB5
100
AcDbEntity
  8
0
100
AcDbBlockEnd
  0
BLOCK
  5
CC6
100
AcDbEntity
  8
0
100
AcDbBlockBegin
  2
VOMRIZKRUH
 70
     0
 10
0.0
 20
0.0
 30
0.0
  3
VOMRIZKRUH
  1

  0
CIRCLE
  5
CB9
100
AcDbEntity
  8
0
  6
CONTINUOUS
 62
     7
100
AcDbCircle
 10
0.0
 20
0.0
 30
0.0
 40
0.345918
  0
LINE
  5
CBA
100
AcDbEntity
  8
0
  6
CONTINUOUS
 62
     7
100
AcDbLine
 10
0.0
 20
0.0
 30
0.0
 11
0.336897
 21
0.336897
 31
0.0
  0
LINE
  5
CBB
100
AcDbEntity
  8
0
  6
CONTINUOUS
 62
     7
100
AcDbLine
 10
0.0
 20
0.0
 30
0.0
 11
0.476444
 21
0.0
 31
0.0
  0
LINE
  5
CBC
100
AcDbEntity
  8
0
  6
CONTINUOUS
 62
     7
100
AcDbLine
 10
0.0
 20
0.0
 30
0.0
 11
0.336897
 21
-0.336897
 31
0.0
  0
CIRCLE
  5
CBD
100
AcDbEntity
  8
0
  6
CONTINUOUS
 62
     7
100
AcDbCircle
 10
0.0
 20
0.0
 30
0.0
 40
0.480791
  0
CIRCLE
  5
CBE
100
AcDbEntity
  8
0
  6
CONTINUOUS
 62
     7
100
AcDbCircle
 10
0.0
 20
0.0
 30
0.0
 40
0.5
  0
CIRCLE
  5
CBF
100
AcDbEntity
  8
0
  6
CONTINUOUS
 62
     7
100
AcDbCircle
 10
0.0
 20
0.0
 30
0.0
 40
0.197887
  0
CIRCLE
  5
CC0
100
AcDbEntity
  8
0
  6
CONTINUOUS
 62
     7
100
AcDbCircle
 10
0.0
 20
0.0
 30
0.0
 40
0.059725
  0
LINE
  5
CC1
100
AcDbEntity
  8
0
  6
CONTINUOUS
 62
     7
100
AcDbLine
 10
0.0
 20
0.0
 30
0.0
 11
0.0
 21
-0.476444
 31
0.0
  0
LINE
  5
CC2
100
AcDbEntity
  8
0
  6
CONTINUOUS
 62
     7
100
AcDbLine
 10
0.0
 20
0.0
 30
0.0
 11
-0.336897
 21
-0.336897
 31
0.0
  0
LINE
  5
CC3
100
AcDbEntity
  8
0
  6
CONTINUOUS
 62
     7
100
AcDbLine
 10
0.0
 20
0.0
 30
0.0
 11
-0.476444
 21
0.0
 31
0.0
  0
LINE
  5
CC4
100
AcDbEntity
  8
0
  6
CONTINUOUS
 62
     7
100
AcDbLine
 10
0.0
 20
0.0
 30
0.0
 11
-0.336897
 21
0.336897
 31
0.0
  0
LINE
  5
CC5
100
AcDbEntity
  8
0
  6
CONTINUOUS
 62
     7
100
AcDbLine
 10
0.0
 20
0.0
 30
0.0
 11
0.0
 21
0.476444
 31
0.0
  0
ENDBLK
  5
CC7
100
AcDbEntity
  8
0
100
AcDbBlockEnd
  0
BLOCK
  5
1125
100
AcDbEntity
  8
0
100
AcDbBlockBegin
  2
*D41
 70
     1
 10
0.0
 20
0.0
 30
0.0
  3
*D41
  1

  0
LINE
  5
1126
100
AcDbEntity
  8
0
  6
BYBLOCK
100
AcDbLine
 10
-408.722804
 20
-133.520331
 30
0.0
 11
-408.722804
 21
-290.154223
 31
0.0
  0
LINE
  5
1127
100
AcDbEntity
  8
0
  6
BYBLOCK
100
AcDbLine
 10
518.227409
 20
-134.642301
 30
0.0
 11
518.227409
 21
-290.154223
 31
0.0
  0
LINE
  5
1128
100
AcDbEntity
  8
0
  6
BYBLOCK
100
AcDbLine
 10
-373.722804
 20
-288.904223
 30
0.0
 11
483.227409
 21
-288.904223
 31
0.0
  0
INSERT
  5
1129
100
AcDbEntity
  8
0
  6
BYBLOCK
100
AcDbBlockReference
  2
_OPEN
 10
-408.722804
 20
-288.904223
 30
0.0
 41
35.0
 42
35.0
 43
35.0
 50
180.0
  0
INSERT
  5
112A
100
AcDbEntity
  8
0
  6
BYBLOCK
100
AcDbBlockReference
  2
_OPEN
 10
518.227409
 20
-288.904223
 30
0.0
 41
35.0
 42
35.0
 43
35.0
  0
MTEXT
  5
112B
100
AcDbEntity
  8
0
  6
BYBLOCK
100
AcDbMText
 10
54.752303
 20
-255.904223
 30
0.0
 40
60.0
 41
0.0
 71
     5
 72
     1
  1
\A1;840
  7
ED40
  0
POINT
  5
112C
100
AcDbEntity
  8
DEFPOINTS
  6
BYBLOCK
 62
     0
100
AcDbPoint
 10
-408.722804
 20
-132.520331
 30
0.0
  0
POINT
  5
112D
100
AcDbEntity
  8
DEFPOINTS
  6
BYBLOCK
 62
     0
100
AcDbPoint
 10
518.227409
 20
-133.642301
 30
0.0
  0
POINT
  5
112E
100
AcDbEntity
  8
DEFPOINTS
  6
BYBLOCK
 62
     0
100
AcDbPoint
 10
518.227409
 20
-288.904223
 30
0.0
  0
ENDBLK
  5
112F
100
AcDbEntity
  8
0
100
AcDbBlockEnd
  0
BLOCK
  5
115F
100
AcDbEntity
  8
0
100
AcDbBlockBegin
  2
*D42
 70
     1
 10
0.0
 20
0.0
 30
0.0
  3
*D42
  1

  0
LINE
  5
1160
100
AcDbEntity
  8
0
  6
BYBLOCK
100
AcDbLine
 10
-219.025039
 20
751.412365
 30
0.0
 11
-596.140429
 21
751.412365
 31
0.0
  0
LINE
  5
1161
100
AcDbEntity
  8
0
  6
BYBLOCK
100
AcDbLine
 10
-414.909989
 20
1.601041
 30
0.0
 11
-596.140429
 21
1.601041
 31
0.0
  0
LINE
  5
1162
100
AcDbEntity
  8
0
  6
BYBLOCK
100
AcDbLine
 10
-594.890429
 20
716.412365
 30
0.0
 11
-594.890429
 21
36.601041
 31
0.0
  0
INSERT
  5
1163
100
AcDbEntity
  8
0
  6
BYBLOCK
100
AcDbBlockReference
  2
_OPEN
 10
-594.890429
 20
751.412365
 30
0.0
 41
35.0
 42
35.0
 43
35.0
 50
90.0
  0
INSERT
  5
1164
100
AcDbEntity
  8
0
  6
BYBLOCK
100
AcDbBlockReference
  2
_OPEN
 10
-594.890429
 20
1.601041
 30
0.0
 41
35.0
 42
35.0
 43
35.0
 50
270.0
  0
MTEXT
  5
1165
100
AcDbEntity
  8
0
  6
BYBLOCK
100
AcDbMText
 10
-627.890429
 20
376.506703
 30
0.0
 40
60.0
 41
0.0
 71
     5
 72
     1
  1
\A1;750
  7
ED40
 11
0.0
 21
1.0
 31
0.0
  0
POINT
  5
1166
100
AcDbEntity
  8
DEFPOINTS
  6
BYBLOCK
 62
     0
100
AcDbPoint
 10
-218.025039
 20
751.412365
 30
0.0
  0
POINT
  5
1167
100
AcDbEntity
  8
DEFPOINTS
  6
BYBLOCK
 62
     0
100
AcDbPoint
 10
-413.909989
 20
1.601041
 30
0.0
  0
POINT
  5
1168
100
AcDbEntity
  8
DEFPOINTS
  6
BYBLOCK
 62
     0
100
AcDbPoint
 10
-594.890429
 20
1.601041
 30
0.0
  0
ENDBLK
  5
1169
100
AcDbEntity
  8
0
100
AcDbBlockEnd
  0
BLOCK
  5
116A
100
AcDbEntity
  8
0
100
AcDbBlockBegin
  2
*D43
 70
     1
 10
0.0
 20
0.0
 30
0.0
  3
*D43
  1

  0
LINE
  5
116B
100
AcDbEntity
  8
0
  6
BYBLOCK
100
AcDbLine
 10
209.88771
 20
1137.078516
 30
0.0
 11
706.541792
 21
1137.078516
 31
0.0
  0
LINE
  5
116C
100
AcDbEntity
  8
0
  6
BYBLOCK
100
AcDbLine
 10
519.227409
 20
-11.642301
 30
0.0
 11
706.541792
 21
-11.642301
 31
0.0
  0
LINE
  5
116D
100
AcDbEntity
  8
0
  6
BYBLOCK
100
AcDbLine
 10
705.291792
 20
1102.078516
 30
0.0
 11
705.291792
 21
23.357699
 31
0.0
  0
INSERT
  5
116E
100
AcDbEntity
  8
0
  6
BYBLOCK
100
AcDbBlockReference
  2
_OPEN
 10
705.291792
 20
1137.078516
 30
0.0
 41
35.0
 42
35.0
 43
35.0
 50
90.0
  0
INSERT
  5
116F
100
AcDbEntity
  8
0
  6
BYBLOCK
100
AcDbBlockReference
  2
_OPEN
 10
705.291792
 20
-11.642301
 30
0.0
 41
35.0
 42
35.0
 43
35.0
 50
270.0
  0
MTEXT
  5
1170
100
AcDbEntity
  8
0
  6
BYBLOCK
100
AcDbMText
 10
672.291792
 20
562.718107
 30
0.0
 40
60.0
 41
0.0
 71
     5
 72
     1
  1
\A1;1149
  7
ED40
 11
0.0
 21
1.0
 31
0.0
  0
POINT
  5
1171
100
AcDbEntity
  8
DEFPOINTS
  6
BYBLOCK
 62
     0
100
AcDbPoint
 10
208.88771
 20
1137.078516
 30
0.0
  0
POINT
  5
1172
100
AcDbEntity
  8
DEFPOINTS
  6
BYBLOCK
 62
     0
100
AcDbPoint
 10
518.227409
 20
-11.642301
 30
0.0
  0
POINT
  5
1173
100
AcDbEntity
  8
DEFPOINTS
  6
BYBLOCK
 62
     0
100
AcDbPoint
 10
705.291792
 20
-11.642301
 30
0.0
  0
ENDBLK
  5
1174
100
AcDbEntity
  8
0
100
AcDbBlockEnd
  0
BLOCK
  5
111A
100
AcDbEntity
  8
0
100
AcDbBlockBegin
  2
*D44
 70
     1
 10
0.0
 20
0.0
 30
0.0
  3
*D44
  1

  0
LINE
  5
111B
100
AcDbEntity
  8
0
  6
BYBLOCK
100
AcDbLine
 10
1079.650031
 20
-59.997549
 30
0.0
 11
1079.650031
 21
-304.588147
 31
0.0
  0
LINE
  5
111C
100
AcDbEntity
  8
0
  6
BYBLOCK
100
AcDbLine
 10
1959.760031
 20
-59.997549
 30
0.0
 11
1959.760031
 21
-304.588147
 31
0.0
  0
LINE
  5
111D
100
AcDbEntity
  8
0
  6
BYBLOCK
100
AcDbLine
 10
1114.650031
 20
-303.338147
 30
0.0
 11
1924.760031
 21
-303.338147
 31
0.0
  0
INSERT
  5
111E
100
AcDbEntity
  8
0
  6
BYBLOCK
100
AcDbBlockReference
  2
_OPEN
 10
1079.650031
 20
-303.338147
 30
0.0
 41
35.0
 42
35.0
 43
35.0
 50
180.0
  0
INSERT
  5
111F
100
AcDbEntity
  8
0
  6
BYBLOCK
100
AcDbBlockReference
  2
_OPEN
 10
1959.760031
 20
-303.338147
 30
0.0
 41
35.0
 42
35.0
 43
35.0
  0
MTEXT
  5
1120
100
AcDbEntity
  8
0
  6
BYBLOCK
100
AcDbMText
 10
1519.705031
 20
-270.338147
 30
0.0
 40
60.0
 41
0.0
 71
     5
 72
     1
  1
\A1;890
  7
ED40
  0
POINT
  5
1121
100
AcDbEntity
  8
DEFPOINTS
  6
BYBLOCK
 62
     0
100
AcDbPoint
 10
1079.650031
 20
-58.997549
 30
0.0
  0
POINT
  5
1122
100
AcDbEntity
  8
DEFPOINTS
  6
BYBLOCK
 62
     0
100
AcDbPoint
 10
1959.760031
 20
-58.997549
 30
0.0
  0
POINT
  5
1123
100
AcDbEntity
  8
DEFPOINTS
  6
BYBLOCK
 62
     0
100
AcDbPoint
 10
1959.760031
 20
-303.338147
 30
0.0
  0
ENDBLK
  5
1124
100
AcDbEntity
  8
0
100
AcDbBlockEnd
  0
BLOCK
  5
119C
100
AcDbEntity
  8
0
100
AcDbBlockBegin
  2
*D46
 70
     1
 10
0.0
 20
0.0
 30
0.0
  3
*D46
  1

  0
LINE
  5
119D
100
AcDbEntity
  8
0
  6
BYBLOCK
100
AcDbLine
 10
268.091103
 20
1066.45174
 30
0.0
 11
432.058882
 21
1066.45174
 31
0.0
  0
LINE
  5
119E
100
AcDbEntity
  8
0
  6
BYBLOCK
100
AcDbLine
 10
150.102732
 20
436.37299
 30
0.0
 11
432.058882
 21
436.37299
 31
0.0
  0
LINE
  5
119F
100
AcDbEntity
  8
0
  6
BYBLOCK
100
AcDbLine
 10
430.808882
 20
1031.45174
 30
0.0
 11
430.808882
 21
471.37299
 31
0.0
  0
INSERT
  5
11A0
100
AcDbEntity
  8
0
  6
BYBLOCK
100
AcDbBlockReference
  2
_OPEN
 10
430.808882
 20
1066.45174
 30
0.0
 41
35.0
 42
35.0
 43
35.0
 50
90.0
  0
INSERT
  5
11A1
100
AcDbEntity
  8
0
  6
BYBLOCK
100
AcDbBlockReference
  2
_OPEN
 10
430.808882
 20
436.37299
 30
0.0
 41
35.0
 42
35.0
 43
35.0
 50
270.0
  0
MTEXT
  5
11A2
100
AcDbEntity
  8
0
  6
BYBLOCK
100
AcDbMText
 10
397.808882
 20
751.412365
 30
0.0
 40
60.0
 41
0.0
 71
     5
 72
     1
  1
\A1;\U+2205630
  7
ED40
 11
0.0
 21
1.0
 31
0.0
  0
POINT
  5
11A3
100
AcDbEntity
  8
DEFPOINTS
  6
BYBLOCK
 62
     0
100
AcDbPoint
 10
267.091103
 20
1066.45174
 30
0.0
  0
POINT
  5
11A4
100
AcDbEntity
  8
DEFPOINTS
  6
BYBLOCK
 62
     0
100
AcDbPoint
 10
149.102732
 20
436.37299
 30
0.0
  0
POINT
  5
11A5
100
AcDbEntity
  8
DEFPOINTS
  6
BYBLOCK
 62
     0
100
AcDbPoint
 10
430.808882
 20
436.37299
 30
0.0
  0
ENDBLK
  5
11A6
100
AcDbEntity
  8
0
100
AcDbBlockEnd
  0
BLOCK
  5
11B4
100
AcDbEntity
  8
0
100
AcDbBlockBegin
  2
*D47
 70
     1
 10
0.0
 20
0.0
 30
0.0
  3
*D47
  1

  0
LINE
  5
11B5
100
AcDbEntity
  8
0
  6
BYBLOCK
100
AcDbLine
 10
-152.961397
 20
1067.45174
 30
0.0
 11
-152.961397
 21
1292.859772
 31
0.0
  0
LINE
  5
11B6
100
AcDbEntity
  8
0
  6
BYBLOCK
100
AcDbLine
 10
268.091103
 20
1067.45174
 30
0.0
 11
268.091103
 21
1292.859772
 31
0.0
  0
LINE
  5
11B7
100
AcDbEntity
  8
0
  6
BYBLOCK
100
AcDbLine
 10
-117.961397
 20
1291.609772
 30
0.0
 11
233.091103
 21
1291.609772
 31
0.0
  0
INSERT
  5
11B8
100
AcDbEntity
  8
0
  6
BYBLOCK
100
AcDbBlockReference
  2
_OPEN
 10
-152.961397
 20
1291.609772
 30
0.0
 41
35.0
 42
35.0
 43
35.0
 50
180.0
  0
INSERT
  5
11B9
100
AcDbEntity
  8
0
  6
BYBLOCK
100
AcDbBlockReference
  2
_OPEN
 10
268.091103
 20
1291.609772
 30
0.0
 41
35.0
 42
35.0
 43
35.0
  0
MTEXT
  5
11BA
100
AcDbEntity
  8
0
  6
BYBLOCK
100
AcDbMText
 10
57.564853
 20
1324.609772
 30
0.0
 40
60.0
 41
0.0
 71
     5
 72
     1
  1
\A1;307
  7
ED40
  0
POINT
  5
11BB
100
AcDbEntity
  8
DEFPOINTS
  6
BYBLOCK
 62
     0
100
AcDbPoint
 10
-152.961397
 20
1066.45174
 30
0.0
  0
POINT
  5
11BC
100
AcDbEntity
  8
DEFPOINTS
  6
BYBLOCK
 62
     0
100
AcDbPoint
 10
268.091103
 20
1066.45174
 30
0.0
  0
POINT
  5
11BD
100
AcDbEntity
  8
DEFPOINTS
  6
BYBLOCK
 62
     0
100
AcDbPoint
 10
268.091103
 20
1291.609772
 30
0.0
  0
ENDBLK
  5
11BE
100
AcDbEntity
  8
0
100
AcDbBlockEnd
  0
ENDSEC
  0
SECTION
  2
ENTITIES
  0
MTEXT
  5
ACC
100
AcDbEntity
  8
V0-ZBYTEK
 62
    51
100
AcDbMText
 10
1537.920653
 20
-1016.915437
 30
0.0
 40
54.253981
 41
1536.908321
 71
     5
 72
     5
  1
STOJANOVY  AXIALNI \PVENTILATOR
  7
ED10
  0
MTEXT
  5
ACD
100
AcDbEntity
  8
V0-NAZVY
100
AcDbMText
 10
1541.775316
 20
-839.826547
 30
0.0
 40
96.882109
 41
796.915602
 71
     5
 72
     5
  1
PBB-630
  7
ED10
  0
LINE
  5
BFE
100
AcDbEntity
  8
V0-OBRYS
100
AcDbLine
 10
1099.652531
 20
784.572451
 30
0.0
 11
1099.652531
 21
64.002451
 31
0.0
  0
LINE
  5
BFF
100
AcDbEntity
  8
V0-OBRYS
100
AcDbLine
 10
1139.657531
 20
23.997451
 30
0.0
 11
1293.877817
 21
23.997451
 31
0.0
  0
LINE
  5
C00
100
AcDbEntity
  8
V0-OBRYS
100
AcDbLine
 10
1303.778549
 20
28.098469
 30
0.0
 11
1330.894637
 21
55.214556
 31
0.0
  0
LINE
  5
C01
100
AcDbEntity
  8
V0-OBRYS
100
AcDbLine
 10
1352.110492
 20
64.002451
 30
0.0
 11
1519.705031
 21
64.002451
 31
0.0
  0
LINE
  5
C02
100
AcDbEntity
  8
V0-OBRYS
100
AcDbLine
 10
1079.650031
 20
784.572451
 30
0.0
 11
1079.650031
 21
64.002451
 31
0.0
  0
LINE
  5
C03
100
AcDbEntity
  8
V0-OBRYS
100
AcDbLine
 10
1139.657531
 20
3.994951
 30
0.0
 11
1295.534878
 21
3.994951
 31
0.0
  0
LINE
  5
C04
100
AcDbEntity
  8
V0-OBRYS
100
AcDbLine
 10
1316.750733
 20
12.782846
 30
0.0
 11
1343.866821
 21
39.898933
 31
0.0
  0
LINE
  5
C05
100
AcDbEntity
  8
V0-OBRYS
100
AcDbLine
 10
1353.767553
 20
43.999951
 30
0.0
 11
1519.705031
 21
43.999951
 31
0.0
  0
ARC
  5
C06
100
AcDbEntity
  8
V0-OBRYS
100
AcDbCircle
 10
1139.657531
 20
64.002451
 30
0.0
 40
40.005
100
AcDbArc
 50
180.0
 51
270.0
  0
ARC
  5
C16
100
AcDbEntity
  8
V0-OBRYS
100
AcDbCircle
 10
1139.657531
 20
64.002451
 30
0.0
 40
60.0075
100
AcDbArc
 50
180.0
 51
270.0
  0
ARC
  5
C1F
100
AcDbEntity
  8
V0-OBRYS
100
AcDbCircle
 10
1352.110492
 20
33.998701
 30
0.0
 40
30.00375
100
AcDbArc
 50
90.0
 51
135.0
  0
ARC
  5
C20
100
AcDbEntity
  8
V0-OBRYS
100
AcDbCircle
 10
1295.534878
 20
33.998701
 30
0.0
 40
30.00375
100
AcDbArc
 50
270.0
 51
315.0
  0
ARC
  5
C21
100
AcDbEntity
  8
V0-OBRYS
100
AcDbCircle
 10
1293.877817
 20
37.999201
 30
0.0
 40
14.00175
100
AcDbArc
 50
270.0
 51
315.0
  0
ARC
  5
C22
100
AcDbEntity
  8
V0-OBRYS
100
AcDbCircle
 10
1353.767553
 20
29.998201
 30
0.0
 40
14.00175
100
AcDbArc
 50
90.0
 51
135.0
  0
MLINE
  5
C23
100
AcDbEntity
  8
V0-OBRYS
100
AcDbMline
  2
STANDARD
340
1B
 40
20.0025
 70
     0
 71
     1
 72
     2
 73
     2
 10
1079.650031463226
 20
784.5724510358948
 30
0.0
210
0.0
220
0.0
230
1.0
 11
1079.650031463226
 21
784.5724510358948
 31
0.0
 12
0.0
 22
1.0
 32
0.0
 13
-1.0
 23
1.224606353822377E-16
 33
0.0
 74
     2
 41
0.0
 41
0.0
 75
     0
 74
     2
 41
-20.00249999999999
 41
0.0
 75
     0
 11
1079.650031463226
 21
844.5799510358947
 31
0.0
 12
0.0
 22
1.0
 32
0.0
 13
-1.0
 23
1.224606353822377E-16
 33
0.0
 74
     2
 41
0.0
 41
0.0
 75
     0
 74
     2
 41
-20.00249999999999
 41
0.0
 75
     0
  0
ARC
  5
C24
100
AcDbEntity
  8
V0-OBRYS
100
AcDbCircle
 10
57.064853
 20
751.412365
 30
0.0
 40
60.0075
100
AcDbArc
 50
27.340515
 51
152.659485
  0
ARC
  5
C26
100
AcDbEntity
  8
V0-OBRYS
100
AcDbCircle
 10
57.064853
 20
751.412365
 30
0.0
 40
80.01
100
AcDbArc
 50
27.340515
 51
152.659485
  0
MLINE
  5
C2C
100
AcDbEntity
  8
V0-OBRYS
100
AcDbMline
  2
STANDARD
340
1B
 40
-20.0025
 70
     0
 71
     1
 72
     2
 73
     2
 10
527.1236030097552
 20
3.994951035894587
 30
0.0
210
0.0
220
0.0
230
1.0
 11
527.1236030097552
 21
3.994951035894587
 31
0.0
 12
-0.4534804498697755
 22
0.8912662237434481
 32
0.0
 13
-0.8912662237434481
 23
-0.4534804498697754
 33
0.0
 74
     2
 41
0.0
 41
0.0
 75
     0
 74
     2
 41
20.00249999999999
 41
0.0
 75
     0
 11
128.1371510458861
 21
788.1591823026485
 31
0.0
 12
-0.4534804498697755
 22
0.8912662237434481
 32
0.0
 13
-0.8912662237434481
 23
-0.4534804498697754
 33
0.0
 74
     2
 41
0.0
 41
0.0
 75
     0
 74
     2
 41
20.00249999999999
 41
0.0
 75
     0
  0
LINE
  5
C2D
100
AcDbEntity
  8
V0-OBRYS
100
AcDbLine
 10
-412.993897
 20
3.994951
 30
0.0
 11
-14.007445
 21
788.159182
 31
0.0
  0
LINE
  5
C2E
100
AcDbEntity
  8
V0-OBRYS
100
AcDbLine
 10
-395.225822
 20
-5.191753
 30
0.0
 11
3.760629
 21
778.972478
 31
0.0
  0
ARC
  5
C31
100
AcDbEntity
  8
V0-OBRYS
100
AcDbCircle
 10
-404.10986
 20
-0.598401
 30
0.0
 40
10.043908
100
AcDbArc
 50
147.37699
 51
337.94198
  0
ARC
  5
C32
100
AcDbEntity
  8
V0-OBRYS
100
AcDbCircle
 10
518.239566
 20
-0.598401
 30
0.0
 40
10.043908
100
AcDbArc
 50
202.05802
 51
32.62301
  0
ARC
  5
C35
100
AcDbEntity
  8
V0-OBRYS
100
AcDbCircle
 10
1089.651281
 20
844.579951
 30
0.0
 40
10.00125
100
AcDbArc
 50
0.0
 51
180.0
  0
LINE
  5
C37
100
AcDbEntity
  8
V0-OBRYS
100
AcDbLine
 10
1939.757531
 20
784.572451
 30
0.0
 11
1939.757531
 21
64.002451
 31
0.0
  0
LINE
  5
C38
100
AcDbEntity
  8
V0-OBRYS
100
AcDbLine
 10
1959.760031
 20
784.572451
 30
0.0
 11
1959.760031
 21
64.002451
 31
0.0
  0
LINE
  5
C3A
100
AcDbEntity
  8
V0-OBRYS
100
AcDbLine
 10
1899.752531
 20
3.994951
 30
0.0
 11
1743.875185
 21
3.994951
 31
0.0
  0
LINE
  5
C3B
100
AcDbEntity
  8
V0-OBRYS
100
AcDbLine
 10
1899.752531
 20
23.997451
 30
0.0
 11
1745.532246
 21
23.997451
 31
0.0
  0
ARC
  5
C3C
100
AcDbEntity
  8
V0-OBRYS
100
AcDbCircle
 10
1899.752531
 20
64.002451
 30
0.0
 40
60.0075
100
AcDbArc
 50
270.0
 51
0.0
  0
ARC
  5
C3D
100
AcDbEntity
  8
V0-OBRYS
100
AcDbCircle
 10
1899.752531
 20
64.002451
 30
0.0
 40
40.005
100
AcDbArc
 50
270.0
 51
0.0
  0
LINE
  5
C3E
100
AcDbEntity
  8
V0-OBRYS
100
AcDbLine
 10
1687.299571
 20
64.002451
 30
0.0
 11
1519.705031
 21
64.002451
 31
0.0
  0
LINE
  5
C3F
100
AcDbEntity
  8
V0-OBRYS
100
AcDbLine
 10
1685.64251
 20
43.999951
 30
0.0
 11
1519.705031
 21
43.999951
 31
0.0
  0
ARC
  5
C40
100
AcDbEntity
  8
V0-OBRYS
100
AcDbCircle
 10
1743.875185
 20
33.998701
 30
0.0
 40
30.00375
100
AcDbArc
 50
225.0
 51
270.0
  0
LINE
  5
C41
100
AcDbEntity
  8
V0-OBRYS
100
AcDbLine
 10
1735.631514
 20
28.098469
 30
0.0
 11
1708.515426
 21
55.214556
 31
0.0
  0
ARC
  5
C42
100
AcDbEntity
  8
V0-OBRYS
100
AcDbCircle
 10
1745.532246
 20
37.999201
 30
0.0
 40
14.00175
100
AcDbArc
 50
225.0
 51
270.0
  0
LINE
  5
C43
100
AcDbEntity
  8
V0-OBRYS
100
AcDbLine
 10
1722.65933
 20
12.782846
 30
0.0
 11
1695.543242
 21
39.898933
 31
0.0
  0
ARC
  5
C44
100
AcDbEntity
  8
V0-OBRYS
100
AcDbCircle
 10
1687.299571
 20
33.998701
 30
0.0
 40
30.00375
100
AcDbArc
 50
45.0
 51
90.0
  0
ARC
  5
C45
100
AcDbEntity
  8
V0-OBRYS
100
AcDbCircle
 10
1685.64251
 20
29.998201
 30
0.0
 40
14.00175
100
AcDbArc
 50
45.0
 51
90.0
  0
ARC
  5
C46
100
AcDbEntity
  8
V0-OBRYS
100
AcDbCircle
 10
1949.758781
 20
844.579951
 30
0.0
 40
10.00125
100
AcDbArc
 50
0.0
 51
180.0
  0
MLINE
  5
C47
100
AcDbEntity
  8
V0-OBRYS
100
AcDbMline
  2
STANDARD
340
1B
 40
-20.0025
 70
     0
 71
     1
 72
     2
 73
     2
 10
1959.760031463226
 20
784.5724510358948
 30
0.0
210
0.0
220
0.0
230
1.0
 11
1959.760031463226
 21
784.5724510358948
 31
0.0
 12
0.0
 22
1.0
 32
0.0
 13
1.0
 23
1.224606353822377E-16
 33
0.0
 74
     2
 41
0.0
 41
0.0
 75
     0
 74
     2
 41
-20.00249999999999
 41
0.0
 75
     0
 11
1959.760031463226
 21
844.5799510358947
 31
0.0
 12
0.0
 22
1.0
 32
0.0
 13
1.0
 23
1.224606353822377E-16
 33
0.0
 74
     2
 41
0.0
 41
0.0
 75
     0
 74
     2
 41
-20.00249999999999
 41
0.0
 75
     0
  0
LINE
  5
C86
100
AcDbEntity
  8
V0-VYPLNE
100
AcDbLine
 10
316.66629
 20
751.412365
 30
0.0
 11
-218.025039
 21
751.412365
 31
0.0
  0
LINE
  5
C87
100
AcDbEntity
  8
V0-VYPLNE
100
AcDbLine
 10
1519.705031
 20
305.180888
 30
0.0
 11
1519.705031
 21
1109.753965
 31
0.0
  0
CIRCLE
  5
C89
100
AcDbEntity
  8
V0-OBRYS
100
AcDbCircle
 10
1519.705031
 20
751.412365
 30
0.0
 40
315.039375
  0
CIRCLE
  5
C8B
100
AcDbEntity
  8
V0-OBRYS
100
AcDbCircle
 10
1519.705031
 20
751.412365
 30
0.0
 40
412.028892
  0
LINE
  5
C8C
100
AcDbEntity
  8
V0-OBRYS
100
AcDbLine
 10
-152.961397
 20
436.37299
 30
0.0
 11
267.091103
 21
436.37299
 31
0.0
  0
LINE
  5
C8D
100
AcDbEntity
  8
V0-OBRYS
100
AcDbLine
 10
-152.961397
 20
1066.45174
 30
0.0
 11
267.091103
 21
1066.45174
 31
0.0
  0
LINE
  5
C8E
100
AcDbEntity
  8
V0-OBRYS
100
AcDbLine
 10
57.064853
 20
436.37299
 30
0.0
 11
-152.961397
 21
436.37299
 31
0.0
  0
LINE
  5
C8F
100
AcDbEntity
  8
V0-OBRYS
100
AcDbLine
 10
-152.961397
 20
339.383473
 30
0.0
 11
-152.961397
 21
455.427042
 31
0.0
  0
LINE
  5
C90
100
AcDbEntity
  8
V0-OBRYS
100
AcDbLine
 10
267.091103
 20
436.37299
 30
0.0
 11
267.091103
 21
455.411414
 31
0.0
  0
LINE
  5
C91
100
AcDbEntity
  8
V0-OBRYS
100
AcDbLine
 10
-166.963147
 20
1163.441258
 30
0.0
 11
-152.961397
 21
1163.441258
 31
0.0
  0
LINE
  5
C92
100
AcDbEntity
  8
V0-OBRYS
100
AcDbLine
 10
-166.963147
 20
339.383473
 30
0.0
 11
-152.961397
 21
339.383473
 31
0.0
  0
LINE
  5
C93
100
AcDbEntity
  8
V0-OBRYS
100
AcDbLine
 10
-152.961397
 20
1163.441258
 30
0.0
 11
-166.963147
 21
1163.441258
 31
0.0
  0
LINE
  5
C94
100
AcDbEntity
  8
V0-OBRYS
100
AcDbLine
 10
-152.961397
 20
1163.441258
 30
0.0
 11
-166.963147
 21
1163.441258
 31
0.0
  0
LINE
  5
C95
100
AcDbEntity
  8
V0-OBRYS
100
AcDbLine
 10
-166.963147
 20
1163.441258
 30
0.0
 11
-166.963147
 21
472.389151
 31
0.0
  0
LINE
  5
C96
100
AcDbEntity
  8
V0-OBRYS
100
AcDbLine
 10
267.091103
 20
501.295121
 30
0.0
 11
267.091103
 21
1066.45174
 31
0.0
  0
LINE
  5
C97
100
AcDbEntity
  8
V0-OBRYS
100
AcDbLine
 10
-152.961397
 20
501.295121
 30
0.0
 11
-152.961397
 21
1163.441258
 31
0.0
  0
LINE
  5
C98
100
AcDbEntity
  8
V0-OBRYS
100
AcDbLine
 10
-166.963147
 20
426.521071
 30
0.0
 11
-166.963147
 21
339.383473
 31
0.0
  0
LINE
  5
C99
100
AcDbEntity
  8
V0-VYPLNE
100
AcDbLine
 10
2002.433384
 20
751.412365
 30
0.0
 11
1033.78968
 21
751.412365
 31
0.0
  0
ELLIPSE
  5
CC9
100
AcDbEntity
  8
V0-OBRYS
100
AcDbEllipse
 10
1518.111532
 20
751.412365
 30
0.0
 11
-0.0000000000025663
 21
214.6200146412597
 31
0.0
210
0.0
220
0.0
230
-1.0
 40
0.986698
 41
0.0
 42
6.283185307179586
  0
LINE
  5
CCA
100
AcDbEntity
  8
V0-OBRYS
100
AcDbLine
 10
1518.111532
 20
751.412365
 30
0.0
 11
1724.353889
 21
542.389587
 31
0.0
  0
LINE
  5
CCB
100
AcDbEntity
  8
V0-OBRYS
100
AcDbLine
 10
1518.111532
 20
751.412365
 30
0.0
 11
1809.78227
 21
751.412365
 31
0.0
  0
LINE
  5
CCC
100
AcDbEntity
  8
V0-OBRYS
100
AcDbLine
 10
1518.111532
 20
751.412365
 30
0.0
 11
1724.353889
 21
960.435144
 31
0.0
  0
ELLIPSE
  5
CCD
100
AcDbEntity
  8
V0-OBRYS
100
AcDbEllipse
 10
1518.111532
 20
751.412365
 30
0.0
 11
-0.0000000000027696
 21
298.2998811879135
 31
0.0
210
0.0
220
0.0
230
-1.0
 40
0.986698
 41
0.0
 42
6.283185307179586
  0
ELLIPSE
  5
CCE
100
AcDbEntity
  8
V0-OBRYS
100
AcDbEllipse
 10
1518.111532
 20
751.412365
 30
0.0
 11
-0.0000000000071019
 21
310.2179293283538
 31
0.0
210
0.0
220
0.0
230
-1.0
 40
0.986698
 41
0.0
 42
6.283185307179586
  0
ELLIPSE
  5
CCF
100
AcDbEntity
  8
V0-OBRYS
100
AcDbEllipse
 10
1518.111532
 20
751.412365
 30
0.0
 11
-0.0000000000019627
 21
122.7762610453984
 31
0.0
210
0.0
220
0.0
230
-1.0
 40
0.986698
 41
0.0
 42
6.283185307179586
  0
ELLIPSE
  5
CD0
100
AcDbEntity
  8
V0-OBRYS
100
AcDbEllipse
 10
1518.111532
 20
751.412365
 30
0.0
 11
-0.0000000000003484
 21
37.05542273644315
 31
0.0
210
0.0
220
0.0
230
-1.0
 40
0.986698
 41
0.0
 42
6.283185307179586
  0
LINE
  5
CD1
100
AcDbEntity
  8
V0-OBRYS
100
AcDbLine
 10
1518.111532
 20
751.412365
 30
0.0
 11
1518.111532
 21
1047.015213
 31
0.0
  0
LINE
  5
CD2
100
AcDbEntity
  8
V0-OBRYS
100
AcDbLine
 10
1518.111532
 20
751.412365
 30
0.0
 11
1311.869175
 21
960.435144
 31
0.0
  0
LINE
  5
CD3
100
AcDbEntity
  8
V0-OBRYS
100
AcDbLine
 10
1518.111532
 20
751.412365
 30
0.0
 11
1226.440794
 21
751.412365
 31
0.0
  0
LINE
  5
CD4
100
AcDbEntity
  8
V0-OBRYS
100
AcDbLine
 10
1518.111532
 20
751.412365
 30
0.0
 11
1311.869175
 21
542.389587
 31
0.0
  0
LINE
  5
CD5
100
AcDbEntity
  8
V0-OBRYS
100
AcDbLine
 10
1518.111532
 20
751.412365
 30
0.0
 11
1518.111532
 21
455.809518
 31
0.0
  0
LINE
  5
D2F
100
AcDbEntity
  8
V0-OBRYS
100
AcDbLine
 10
-57.683028
 20
1066.45174
 30
0.0
 11
-57.683028
 21
1137.078516
 31
0.0
  0
LINE
  5
D30
100
AcDbEntity
  8
V0-OBRYS
100
AcDbLine
 10
-57.683028
 20
1137.078516
 30
0.0
 11
208.88771
 21
1137.078516
 31
0.0
  0
LINE
  5
D31
100
AcDbEntity
  8
V0-OBRYS
100
AcDbLine
 10
208.88771
 20
1137.078516
 30
0.0
 11
208.88771
 21
1066.45174
 31
0.0
  0
LINE
  5
D86
100
AcDbEntity
  8
V0-OBRYS
100
AcDbLine
 10
267.091103
 20
-1435.787388
 30
0.0
 11
267.091103
 21
-805.708638
 31
0.0
  0
LINE
  5
D87
100
AcDbEntity
  8
V0-OBRYS
100
AcDbLine
 10
-166.963147
 20
-708.71912
 30
0.0
 11
-166.963147
 21
-1532.776905
 31
0.0
  0
LINE
  5
D88
100
AcDbEntity
  8
V0-OBRYS
100
AcDbLine
 10
-152.961397
 20
-1532.776905
 30
0.0
 11
-152.961397
 21
-708.71912
 31
0.0
  0
LINE
  5
D89
100
AcDbEntity
  8
V0-VYPLNE
100
AcDbLine
 10
316.66629
 20
-1120.748013
 30
0.0
 11
-194.008122
 21
-1120.748013
 31
0.0
  0
LINE
  5
D8A
100
AcDbEntity
  8
V0-OBRYS
100
AcDbLine
 10
-152.961397
 20
-1435.787388
 30
0.0
 11
267.091103
 21
-1435.787388
 31
0.0
  0
LINE
  5
D8D
100
AcDbEntity
  8
V0-OBRYS
100
AcDbLine
 10
-166.963147
 20
-1532.776905
 30
0.0
 11
-152.961397
 21
-1532.776905
 31
0.0
  0
LINE
  5
D8E
100
AcDbEntity
  8
V0-OBRYS
100
AcDbLine
 10
57.064853
 20
-1435.787388
 30
0.0
 11
-152.961397
 21
-1435.787388
 31
0.0
  0
LINE
  5
D92
100
AcDbEntity
  8
V0-OBRYS
100
AcDbLine
 10
-57.683028
 20
-1058.434625
 30
0.0
 11
208.88771
 21
-1058.434625
 31
0.0
  0
LINE
  5
D93
100
AcDbEntity
  8
V0-OBRYS
100
AcDbLine
 10
-152.961397
 20
-805.708638
 30
0.0
 11
267.091103
 21
-805.708638
 31
0.0
  0
LINE
  5
D94
100
AcDbEntity
  8
V0-OBRYS
100
AcDbLine
 10
-152.961397
 20
-708.71912
 30
0.0
 11
-166.963147
 21
-708.71912
 31
0.0
  0
LINE
  5
D95
100
AcDbEntity
  8
V0-OBRYS
100
AcDbLine
 10
-166.963147
 20
-708.71912
 30
0.0
 11
-152.961397
 21
-708.71912
 31
0.0
  0
LINE
  5
D96
100
AcDbEntity
  8
V0-OBRYS
100
AcDbLine
 10
-152.961397
 20
-708.71912
 30
0.0
 11
-166.963147
 21
-708.71912
 31
0.0
  0
LINE
  5
D97
100
AcDbEntity
  8
V0-OBRYS
100
AcDbLine
 10
-57.683028
 20
-1183.0614
 30
0.0
 11
-57.683028
 21
-1058.434625
 31
0.0
  0
LINE
  5
D98
100
AcDbEntity
  8
V0-OBRYS
100
AcDbLine
 10
208.88771
 20
-1058.434625
 30
0.0
 11
208.88771
 21
-1183.0614
 31
0.0
  0
LINE
  5
D99
100
AcDbEntity
  8
V0-OBRYS
100
AcDbLine
 10
-57.683028
 20
-1183.0614
 30
0.0
 11
208.88771
 21
-1183.0614
 31
0.0
  0
LINE
  5
DA4
100
AcDbEntity
  8
V0-OBRYS
100
AcDbLine
 10
57.064853
 20
-805.708638
 30
0.0
 11
57.064853
 21
-701.182667
 31
0.0
  0
LINE
  5
DA5
100
AcDbEntity
  8
V0-OBRYS
100
AcDbLine
 10
113.927272
 20
-805.708638
 30
0.0
 11
113.927272
 21
-701.182667
 31
0.0
  0
ARC
  5
DA9
100
AcDbEntity
  8
V0-OBRYS
100
AcDbCircle
 10
526.698906
 20
-691.181417
 30
0.0
 40
10.00125
100
AcDbArc
 50
270.0
 51
90.0
  0
ARC
  5
DAC
100
AcDbEntity
  8
V0-OBRYS
100
AcDbCircle
 10
526.698906
 20
-1550.314608
 30
0.0
 40
10.00125
100
AcDbArc
 50
270.0
 51
90.0
  0
LINE
  5
DAF
100
AcDbEntity
  8
V0-OBRYS
100
AcDbLine
 10
-317.06549
 20
-1560.315858
 30
0.0
 11
526.698906
 21
-1560.315858
 31
0.0
  0
LINE
  5
DB0
100
AcDbEntity
  8
V0-OBRYS
100
AcDbLine
 10
-317.06549
 20
-1540.313358
 30
0.0
 11
526.698906
 21
-1540.313358
 31
0.0
  0
LINE
  5
DB1
100
AcDbEntity
  8
V0-OBRYS
100
AcDbLine
 10
516.422176
 20
-1540.313358
 30
0.0
 11
516.422176
 21
-701.182667
 31
0.0
  0
LINE
  5
DB2
100
AcDbEntity
  8
V0-OBRYS
100
AcDbLine
 10
536.424676
 20
-1550.547602
 30
0.0
 11
536.424676
 21
-688.850237
 31
0.0
  0
LINE
  5
DB3
100
AcDbEntity
  8
V0-OBRYS
100
AcDbLine
 10
-317.06549
 20
-681.180167
 30
0.0
 11
526.698906
 21
-681.180167
 31
0.0
  0
LINE
  5
DB4
100
AcDbEntity
  8
V0-OBRYS
100
AcDbLine
 10
-317.06549
 20
-701.182667
 30
0.0
 11
526.698906
 21
-701.182667
 31
0.0
  0
LINE
  5
DB9
100
AcDbEntity
  8
V0-OBRYS
100
AcDbLine
 10
-393.367541
 20
-1456.231034
 30
0.0
 11
-352.8905
 21
-1338.668335
 31
0.0
  0
LINE
  5
DBA
100
AcDbEntity
  8
V0-OBRYS
100
AcDbLine
 10
-374.292028
 20
-1462.24974
 30
0.0
 11
-332.915471
 21
-1341.836142
 31
0.0
  0
LINE
  5
DBB
100
AcDbEntity
  8
V0-OBRYS
100
AcDbLine
 10
-393.367541
 20
-785.264991
 30
0.0
 11
-352.805323
 21
-913.821713
 31
0.0
  0
LINE
  5
DBC
100
AcDbEntity
  8
V0-OBRYS
100
AcDbLine
 10
-374.292028
 20
-779.246285
 30
0.0
 11
-332.775314
 21
-910.828161
 31
0.0
  0
ARC
  5
DC2
100
AcDbEntity
  8
V0-OBRYS
100
AcDbCircle
 10
-317.06549
 20
-761.190167
 30
0.0
 40
80.01
100
AcDbArc
 50
90.0
 51
197.511528
  0
ARC
  5
DC3
100
AcDbEntity
  8
V0-OBRYS
100
AcDbCircle
 10
-317.06549
 20
-1480.305858
 30
0.0
 40
80.01
100
AcDbArc
 50
162.488472
 51
270.0
  0
ARC
  5
DC4
100
AcDbEntity
  8
V0-OBRYS
100
AcDbCircle
 10
-317.06549
 20
-761.190167
 30
0.0
 40
60.0075
100
AcDbArc
 50
90.0
 51
197.511528
  0
ARC
  5
DC5
100
AcDbEntity
  8
V0-OBRYS
100
AcDbCircle
 10
-317.06549
 20
-1480.305858
 30
0.0
 40
60.0075
100
AcDbArc
 50
162.488472
 51
270.0
  0
LINE
  5
DC6
100
AcDbEntity
  8
V0-OBRYS
100
AcDbLine
 10
57.064853
 20
-1435.787388
 30
0.0
 11
57.064853
 21
-1540.313358
 31
0.0
  0
LINE
  5
DC7
100
AcDbEntity
  8
V0-OBRYS
100
AcDbLine
 10
113.927272
 20
-1435.787388
 30
0.0
 11
113.927272
 21
-1540.313358
 31
0.0
  0
LINE
  5
DCA
100
AcDbEntity
  8
V0-OBRYS
100
AcDbLine
 10
-329.996741
 20
-929.419728
 30
0.0
 11
-330.136898
 21
-1324.315474
 31
0.0
  0
LINE
  5
DCB
100
AcDbEntity
  8
V0-OBRYS
100
AcDbLine
 10
-350.02675
 20
-932.41328
 30
0.0
 11
-350.111927
 21
-1321.147667
 31
0.0
  0
ARC
  5
DCC
100
AcDbEntity
  8
V0-OBRYS
100
AcDbCircle
 10
-410.031861
 20
-931.87783
 30
0.0
 40
60.0075
100
AcDbArc
 50
359.48874
 51
17.511528
  0
ARC
  5
DCD
100
AcDbEntity
  8
V0-OBRYS
100
AcDbCircle
 10
-410.117038
 20
-1320.612217
 30
0.0
 40
60.0075
100
AcDbArc
 50
342.488472
 51
359.48874
  0
ARC
  5
DCE
100
AcDbEntity
  8
V0-OBRYS
100
AcDbCircle
 10
-390.142009
 20
-1323.780024
 30
0.0
 40
60.0075
100
AcDbArc
 50
342.488472
 51
359.48874
  0
ARC
  5
DCF
100
AcDbEntity
  8
V0-OBRYS
100
AcDbCircle
 10
-390.001852
 20
-928.884279
 30
0.0
 40
60.0075
100
AcDbArc
 50
359.48874
 51
17.511528
  0
DIMENSION
  5
10F2
100
AcDbEntity
  8
V0-KOTY
100
AcDbDimension
  2
*D41
 10
518.227409
 20
-165.904223
 30
0.0
 11
54.752303
 21
-255.904223
 31
0.0
 12
0.0
 22
123.0
 32
0.0
 70
    32
  1
840
  3
ED40
100
AcDbAlignedDimension
 13
-408.722804
 23
-9.520331
 33
0.0
 14
518.227409
 24
-10.642301
 34
0.0
100
AcDbRotatedDimension
1001
ACAD
1000
DSTYLE
1002
{
1070
    40
1040
1.0
1002
}
  0
DIMENSION
  5
10FF
100
AcDbEntity
  8
V0-KOTY
100
AcDbDimension
  2
*D42
 10
-594.890429
 20
1.601041
 30
0.0
 11
-627.890429
 21
376.506703
 31
0.0
 70
    32
  3
ED40
100
AcDbAlignedDimension
 13
-218.025039
 23
751.412365
 33
0.0
 14
-413.909989
 24
1.601041
 34
0.0
 50
90.0
100
AcDbRotatedDimension
1001
ACAD
1000
DSTYLE
1002
{
1070
    40
1040
1.0
1002
}
  0
DIMENSION
  5
110C
100
AcDbEntity
  8
V0-KOTY
100
AcDbDimension
  2
*D43
 10
705.291792
 20
-11.642301
 30
0.0
 11
672.291792
 21
562.718107
 31
0.0
 70
    32
  3
ED40
100
AcDbAlignedDimension
 13
208.88771
 23
1137.078516
 33
0.0
 14
518.227409
 24
-11.642301
 34
0.0
 50
90.0
100
AcDbRotatedDimension
1001
ACAD
1000
DSTYLE
1002
{
1070
    40
1040
1.0
1002
}
  0
DIMENSION
  5
1119
100
AcDbEntity
  8
V0-KOTY
100
AcDbDimension
  2
*D44
 10
1959.760031
 20
-180.338147
 30
0.0
 11
1519.705031
 21
-270.338147
 31
0.0
 12
0.0
 22
123.0
 32
0.0
 70
    32
  1
890
  3
ED40
100
AcDbAlignedDimension
 13
1079.650031
 23
64.002451
 33
0.0
 14
1959.760031
 24
64.002451
 34
0.0
100
AcDbRotatedDimension
1001
ACAD
1000
DSTYLE
1002
{
1070
    40
1040
1.0
1002
}
  0
DIMENSION
  5
119B
100
AcDbEntity
  8
V0-KOTY
100
AcDbDimension
  2
*D46
 10
430.808882
 20
436.37299
 30
0.0
 11
397.808882
 21
751.412365
 31
0.0
 70
    32
  1
%%c630
  3
ED40
100
AcDbAlignedDimension
 13
267.091103
 23
1066.45174
 33
0.0
 14
149.102732
 24
436.37299
 34
0.0
 50
90.0
100
AcDbRotatedDimension
1001
ACAD
1000
DSTYLE
1002
{
1070
    40
1040
1.0
1002
}
  0
DIMENSION
  5
11B3
100
AcDbEntity
  8
V0-KOTY
100
AcDbDimension
  2
*D47
 10
268.091103
 20
1291.609772
 30
0.0
 11
57.564853
 21
1324.609772
 31
0.0
 70
    32
  1
307
  3
ED40
100
AcDbAlignedDimension
 13
-152.961397
 23
1066.45174
 33
0.0
 14
268.091103
 24
1066.45174
 34
0.0
100
AcDbRotatedDimension
1001
ACAD
1000
DSTYLE
1002
{
1070
    40
1040
1.0
1002
}
  0
ENDSEC
  0
SECTION
  2
OBJECTS
  0
DICTIONARY
  5
1A
100
AcDbDictionary
  3
ACAD_GROUP
350
18
  3
ACAD_MLINESTYLE
350
19
  0
DICTIONARY
  5
18
102
{ACAD_REACTORS
330
1A
102
}
100
AcDbDictionary
  0
DICTIONARY
  5
19
102
{ACAD_REACTORS
330
1A
102
}
100
AcDbDictionary
  3
STANDARD
350
1B
  0
MLINESTYLE
  5
1B
102
{ACAD_REACTORS
330
19
102
}
100
AcDbMlineStyle
  2
STANDARD
 70
     0
  3

 62
     0
 51
90.0
 52
90.0
 71
     2
 49
0.5
 62
   256
  6
BYLAYER
 49
-0.5
 62
   256
  6
BYLAYER
  0
ENDSEC
  0
EOF
