  0
SECTION
  2
HEADER
  9
$ACADVER
  1
AC1014
  9
$ACADMAINTVER
 70
     0
  9
$DWGCODEPAGE
  3
ANSI_1250
  9
$INSBASE
 10
0.0
 20
0.0
 30
0.0
  9
$EXTMIN
 10
0.0
 20
-818.523968
 30
0.0
  9
$EXTMAX
 10
1026.807062
 20
281.104542
 30
0.0
  9
$LIMMIN
 10
0.0
 20
0.0
  9
$LIMMAX
 10
420.0
 20
297.0
  9
$ORTHOMODE
 70
     1
  9
$REGENMODE
 70
     1
  9
$FILLMODE
 70
     1
  9
$QTEXTMODE
 70
     0
  9
$MIRRTEXT
 70
     1
  9
$DRAGMODE
 70
     2
  9
$LTSCALE
 40
1.0
  9
$OSMODE
 70
    37
  9
$ATTMODE
 70
     1
  9
$TEXTSIZE
 40
2.5
  9
$TRACEWID
 40
1.0
  9
$TEXTSTYLE
  7
STANDARD
  9
$CLAYER
  8
0
  9
$CELTYPE
  6
BYLAYER
  9
$CECOLOR
 62
   256
  9
$CELTSCALE
 40
1.0
  9
$DELOBJ
 70
     1
  9
$DISPSILH
 70
     0
  9
$DIMSCALE
 40
1.0
  9
$DIMASZ
 40
25.0
  9
$DIMEXO
 40
0.625
  9
$DIMDLI
 40
3.75
  9
$DIMRND
 40
0.0
  9
$DIMDLE
 40
0.0
  9
$DIMEXE
 40
1.25
  9
$DIMTP
 40
0.0
  9
$DIMTM
 40
0.0
  9
$DIMTXT
 40
25.0
  9
$DIMCEN
 40
2.5
  9
$DIMTSZ
 40
0.0
  9
$DIMTOL
 70
     0
  9
$DIMLIM
 70
     0
  9
$DIMTIH
 70
     0
  9
$DIMTOH
 70
     0
  9
$DIMSE1
 70
     0
  9
$DIMSE2
 70
     0
  9
$DIMTAD
 70
     1
  9
$DIMZIN
 70
     8
  9
$DIMBLK
  1

  9
$DIMASO
 70
     1
  9
$DIMSHO
 70
     1
  9
$DIMPOST
  1

  9
$DIMAPOST
  1

  9
$DIMALT
 70
     0
  9
$DIMALTD
 70
     4
  9
$DIMALTF
 40
0.0394
  9
$DIMLFAC
 40
1.0
  9
$DIMTOFL
 70
     0
  9
$DIMTVP
 40
0.0
  9
$DIMTIX
 70
     0
  9
$DIMSOXD
 70
     0
  9
$DIMSAH
 70
     1
  9
$DIMBLK1
  1
_OPEN
  9
$DIMBLK2
  1
_OPEN
  9
$DIMSTYLE
  2
STANDARD
  9
$DIMCLRD
 70
     0
  9
$DIMCLRE
 70
     0
  9
$DIMCLRT
 70
     0
  9
$DIMTFAC
 40
1.0
  9
$DIMGAP
 40
3.0
  9
$DIMJUST
 70
     0
  9
$DIMSD1
 70
     0
  9
$DIMSD2
 70
     0
  9
$DIMTOLJ
 70
     1
  9
$DIMTZIN
 70
     0
  9
$DIMALTZ
 70
     0
  9
$DIMALTTZ
 70
     0
  9
$DIMFIT
 70
     3
  9
$DIMUPT
 70
     0
  9
$DIMUNIT
 70
     2
  9
$DIMDEC
 70
     0
  9
$DIMTDEC
 70
     4
  9
$DIMALTU
 70
     8
  9
$DIMALTTD
 70
     4
  9
$DIMTXSTY
  7
STANDARD
  9
$DIMAUNIT
 70
     0
  9
$LUNITS
 70
     2
  9
$LUPREC
 70
     4
  9
$SKETCHINC
 40
1.0
  9
$FILLETRAD
 40
10.0
  9
$AUNITS
 70
     0
  9
$AUPREC
 70
     0
  9
$MENU
  1
.
  9
$ELEVATION
 40
0.0
  9
$PELEVATION
 40
0.0
  9
$THICKNESS
 40
0.0
  9
$LIMCHECK
 70
     0
  9
$BLIPMODE
 70
     0
  9
$CHAMFERA
 40
10.0
  9
$CHAMFERB
 40
10.0
  9
$CHAMFERC
 40
20.0
  9
$CHAMFERD
 40
0.0
  9
$SKPOLY
 70
     0
  9
$TDCREATE
 40
2451201.446247917
  9
$TDUPDATE
 40
2453315.460827210
  9
$TDINDWG
 40
0.1672431597
  9
$TDUSRTIMER
 40
0.1672431597
  9
$USRTIMER
 70
     1
  9
$ANGBASE
 50
0.0
  9
$ANGDIR
 70
     0
  9
$PDMODE
 70
     3
  9
$PDSIZE
 40
20.0
  9
$PLINEWID
 40
0.0
  9
$COORDS
 70
     1
  9
$SPLFRAME
 70
     0
  9
$SPLINETYPE
 70
     6
  9
$SPLINESEGS
 70
     8
  9
$ATTDIA
 70
     0
  9
$ATTREQ
 70
     1
  9
$HANDLING
 70
     1
  9
$HANDSEED
  5
C97
  9
$SURFTAB1
 70
     6
  9
$SURFTAB2
 70
     6
  9
$SURFTYPE
 70
     6
  9
$SURFU
 70
     6
  9
$SURFV
 70
     6
  9
$UCSNAME
  2

  9
$UCSORG
 10
95.0
 20
-613.9684415448591
 30
0.0
  9
$UCSXDIR
 10
1.0
 20
0.0
 30
0.0
  9
$UCSYDIR
 10
0.0
 20
1.0
 30
0.0
  9
$PUCSNAME
  2

  9
$PUCSORG
 10
0.0
 20
0.0
 30
0.0
  9
$PUCSXDIR
 10
1.0
 20
0.0
 30
0.0
  9
$PUCSYDIR
 10
0.0
 20
1.0
 30
0.0
  9
$USERI1
 70
     0
  9
$USERI2
 70
     0
  9
$USERI3
 70
     0
  9
$USERI4
 70
     0
  9
$USERI5
 70
     0
  9
$USERR1
 40
0.0
  9
$USERR2
 40
0.0
  9
$USERR3
 40
0.0
  9
$USERR4
 40
0.0
  9
$USERR5
 40
0.0
  9
$WORLDVIEW
 70
     1
  9
$SHADEDGE
 70
     3
  9
$SHADEDIF
 70
    70
  9
$TILEMODE
 70
     1
  9
$MAXACTVP
 70
    48
  9
$PINSBASE
 10
0.0
 20
0.0
 30
0.0
  9
$PLIMCHECK
 70
     0
  9
$PEXTMIN
 10
1.000000E+20
 20
1.000000E+20
 30
1.000000E+20
  9
$PEXTMAX
 10
-1.000000E+20
 20
-1.000000E+20
 30
-1.000000E+20
  9
$PLIMMIN
 10
0.0
 20
0.0
  9
$PLIMMAX
 10
420.0
 20
297.0
  9
$UNITMODE
 70
     0
  9
$VISRETAIN
 70
     1
  9
$PLINEGEN
 70
     0
  9
$PSLTSCALE
 70
     1
  9
$TREEDEPTH
 70
  3020
  9
$PICKSTYLE
 70
     1
  9
$CMLSTYLE
  2
STANDARD
  9
$CMLJUST
 70
     1
  9
$CMLSCALE
 40
22.0
  9
$PROXYGRAPHICS
 70
     1
  9
$MEASUREMENT
 70
     1
  0
ENDSEC
  0
SECTION
  2
CLASSES
  0
ENDSEC
  0
SECTION
  2
TABLES
  0
TABLE
  2
VPORT
  5
8
100
AcDbSymbolTable
 70
     2
  0
VPORT
  5
C96
100
AcDbSymbolTableRecord
100
AcDbViewportTableRecord
  2
*ACTIVE
 70
     0
 10
0.0
 20
0.0
 11
1.0
 21
1.0
 12
543.179972
 22
-236.087848
 13
0.0
 23
0.0
 14
10.0
 24
10.0
 15
10.0
 25
10.0
 16
0.0
 26
0.0
 36
1.0
 17
0.0
 27
0.0
 37
0.0
 40
1211.42191
 41
1.523346
 42
50.0
 43
0.0
 44
0.0
 50
0.0
 51
0.0
 71
     0
 72
   100
 73
     1
 74
     1
 75
     0
 76
     0
 77
     0
 78
     0
  0
ENDTAB
  0
TABLE
  2
LTYPE
  5
5
100
AcDbSymbolTable
 70
     2
  0
LTYPE
  5
12
100
AcDbSymbolTableRecord
100
AcDbLinetypeTableRecord
  2
BYBLOCK
 70
     0
  3

 72
    65
 73
     0
 40
0.0
  0
LTYPE
  5
13
100
AcDbSymbolTableRecord
100
AcDbLinetypeTableRecord
  2
BYLAYER
 70
     0
  3

 72
    65
 73
     0
 40
0.0
  0
LTYPE
  5
14
100
AcDbSymbolTableRecord
100
AcDbLinetypeTableRecord
  2
CONTINUOUS
 70
     0
  3
Solid line
 72
    65
 73
     0
 40
0.0
  0
LTYPE
  5
75
100
AcDbSymbolTableRecord
100
AcDbLinetypeTableRecord
  2
DASHDOT
 70
     0
  3
__ . __ . __ . __ . __ . __ . __ . __ . __ . __
 72
    65
 73
     4
 40
1.0
 49
0.5
 74
     0
 49
-0.25
 74
     0
 49
0.0
 74
     0
 49
-0.25
 74
     0
  0
ENDTAB
  0
TABLE
  2
LAYER
  5
2
100
AcDbSymbolTable
 70
     6
  0
LAYER
  5
E
100
AcDbSymbolTableRecord
100
AcDbLayerTableRecord
  2
0
 70
     0
 62
     7
  6
CONTINUOUS
  0
LAYER
  5
242
100
AcDbSymbolTableRecord
100
AcDbLayerTableRecord
  2
DEFPOINTS
 70
     0
 62
    52
  6
CONTINUOUS
  0
LAYER
  5
C77
100
AcDbSymbolTableRecord
100
AcDbLayerTableRecord
  2
V0-OBRYS
 70
     0
 62
    90
  6
CONTINUOUS
  0
LAYER
  5
C78
100
AcDbSymbolTableRecord
100
AcDbLayerTableRecord
  2
V0-VYPLNE
 70
     0
 62
    52
  6
CONTINUOUS
  0
LAYER
  5
C79
100
AcDbSymbolTableRecord
100
AcDbLayerTableRecord
  2
V0-NAZVY
 70
     0
 62
   210
  6
CONTINUOUS
  0
LAYER
  5
C7A
100
AcDbSymbolTableRecord
100
AcDbLayerTableRecord
  2
V0-ZBYTEK
 70
     0
 62
    51
  6
CONTINUOUS
  0
ENDTAB
  0
TABLE
  2
STYLE
  5
3
100
AcDbSymbolTable
 70
     2
  0
STYLE
  5
F
100
AcDbSymbolTableRecord
100
AcDbTextStyleTableRecord
  2
STANDARD
 70
     0
 40
0.0
 41
1.0
 50
0.0
 71
     0
 42
2.5
  3
txt
  4

  0
STYLE
  5
93
100
AcDbSymbolTableRecord
100
AcDbTextStyleTableRecord
  2
SIMPLEX
 70
     0
 40
0.0
 41
1.0
 50
0.0
 71
     0
 42
0.2
  3
SIMPLEX
  4

  0
ENDTAB
  0
TABLE
  2
VIEW
  5
6
100
AcDbSymbolTable
 70
     0
  0
ENDTAB
  0
TABLE
  2
UCS
  5
7
100
AcDbSymbolTable
 70
     0
  0
ENDTAB
  0
TABLE
  2
APPID
  5
9
100
AcDbSymbolTable
 70
     1
  0
APPID
  5
10
100
AcDbSymbolTableRecord
100
AcDbRegAppTableRecord
  2
ACAD
 70
     0
  0
ENDTAB
  0
TABLE
  2
DIMSTYLE
  5
A
100
AcDbSymbolTable
 70
     1
  0
DIMSTYLE
105
1D
102
{ACAD_REACTORS
330
26E
330
286
330
90C
330
984
330
991
330
A00
330
A24
102
}
100
AcDbSymbolTableRecord
100
AcDbDimStyleTableRecord
  2
STANDARD
 70
     0
  3

  4

  5

  6

  7

 40
1.0
 41
0.18
 42
0.0625
 43
0.38
 44
0.18
 45
0.0
 46
0.0
 47
0.0
 48
0.0
140
0.18
141
0.09
142
0.0
143
25.4
144
1.0
145
0.0
146
1.0
147
0.09
 71
     0
 72
     0
 73
     1
 74
     1
 75
     0
 76
     0
 77
     0
 78
     0
170
     0
171
     2
172
     0
173
     0
174
     0
175
     0
176
     0
177
     0
178
     0
270
     2
271
     4
272
     4
273
     2
274
     2
340
F
275
     0
280
     0
281
     0
282
     0
283
     1
284
     0
285
     0
286
     0
287
     3
288
     0
  0
ENDTAB
  0
TABLE
  2
BLOCK_RECORD
  5
1
100
AcDbSymbolTable
 70
     8
  0
BLOCK_RECORD
  5
18
100
AcDbSymbolTableRecord
100
AcDbBlockTableRecord
  2
*MODEL_SPACE
  0
BLOCK_RECORD
  5
15
100
AcDbSymbolTableRecord
100
AcDbBlockTableRecord
  2
*PAPER_SPACE
  0
BLOCK_RECORD
  5
234
100
AcDbSymbolTableRecord
100
AcDbBlockTableRecord
  2
_OPEN
  0
BLOCK_RECORD
  5
262
100
AcDbSymbolTableRecord
100
AcDbBlockTableRecord
  2
*D1
  0
BLOCK_RECORD
  5
27A
100
AcDbSymbolTableRecord
100
AcDbBlockTableRecord
  2
*D2
  0
BLOCK_RECORD
  5
900
100
AcDbSymbolTableRecord
100
AcDbBlockTableRecord
  2
*D3
  0
BLOCK_RECORD
  5
978
100
AcDbSymbolTableRecord
100
AcDbBlockTableRecord
  2
*D4
  0
BLOCK_RECORD
  5
985
100
AcDbSymbolTableRecord
100
AcDbBlockTableRecord
  2
*D5
  0
BLOCK_RECORD
  5
9F4
100
AcDbSymbolTableRecord
100
AcDbBlockTableRecord
  2
*D6
  0
BLOCK_RECORD
  5
A17
100
AcDbSymbolTableRecord
100
AcDbBlockTableRecord
  2
*D7
  0
ENDTAB
  0
ENDSEC
  0
SECTION
  2
BLOCKS
  0
BLOCK
  5
19
100
AcDbEntity
  8
0
100
AcDbBlockBegin
  2
*MODEL_SPACE
 70
     0
 10
0.0
 20
0.0
 30
0.0
  3
*MODEL_SPACE
  1

  0
ENDBLK
  5
1A
100
AcDbEntity
  8
0
100
AcDbBlockEnd
  0
BLOCK
  5
16
100
AcDbEntity
 67
     1
  8
0
100
AcDbBlockBegin
  2
*PAPER_SPACE
 70
     0
 10
0.0
 20
0.0
 30
0.0
  3
*PAPER_SPACE
  1

  0
ENDBLK
  5
17
100
AcDbEntity
 67
     1
  8
0
100
AcDbBlockEnd
  0
BLOCK
  5
235
100
AcDbEntity
  8
0
100
AcDbBlockBegin
  2
_OPEN
 70
     0
 10
0.0
 20
0.0
 30
0.0
  3
_OPEN
  1

  0
LINE
  5
236
100
AcDbEntity
  8
0
  6
BYBLOCK
 62
     0
100
AcDbLine
 10
-1.0
 20
0.166667
 30
0.0
 11
0.0
 21
0.0
 31
0.0
  0
LINE
  5
237
100
AcDbEntity
  8
0
  6
BYBLOCK
 62
     0
100
AcDbLine
 10
0.0
 20
0.0
 30
0.0
 11
-1.0
 21
-0.166667
 31
0.0
  0
LINE
  5
238
100
AcDbEntity
  8
0
  6
BYBLOCK
 62
     0
100
AcDbLine
 10
0.0
 20
0.0
 30
0.0
 11
-1.0
 21
0.0
 31
0.0
  0
ENDBLK
  5
239
100
AcDbEntity
  8
0
100
AcDbBlockEnd
  0
BLOCK
  5
8DB
100
AcDbEntity
  8
0
100
AcDbBlockBegin
  2
*D1
 70
     1
 10
0.0
 20
0.0
 30
0.0
  3
*D1
  1

  0
LINE
  5
8DC
100
AcDbEntity
  8
0
  6
BYBLOCK
 62
     0
100
AcDbLine
 10
976.154982
 20
224.332185
 30
0.0
 11
1023.890395
 21
224.332185
 31
0.0
  0
LINE
  5
8DD
100
AcDbEntity
  8
0
  6
BYBLOCK
 62
     0
100
AcDbLine
 10
973.779982
 20
-235.667815
 30
0.0
 11
1023.890395
 21
-235.667815
 31
0.0
  0
LINE
  5
8DE
100
AcDbEntity
  8
0
  6
BYBLOCK
 62
     0
100
AcDbLine
 10
1022.640395
 20
199.332185
 30
0.0
 11
1022.640395
 21
-210.667815
 31
0.0
  0
INSERT
  5
8DF
100
AcDbEntity
  8
0
  6
BYBLOCK
 62
     0
100
AcDbBlockReference
  2
_OPEN
 10
1022.640395
 20
224.332185
 30
0.0
 41
25.0
 42
25.0
 43
25.0
 50
90.0
  0
INSERT
  5
8E0
100
AcDbEntity
  8
0
  6
BYBLOCK
 62
     0
100
AcDbBlockReference
  2
_OPEN
 10
1022.640395
 20
-235.667815
 30
0.0
 41
25.0
 42
25.0
 43
25.0
 50
270.0
  0
MTEXT
  5
8E1
100
AcDbEntity
  8
0
  6
BYBLOCK
 62
     0
100
AcDbMText
 10
1007.140395
 20
-5.667815
 30
0.0
 40
25.0
 41
0.0
 71
     5
 72
     1
  1
\A1;460
 11
0.0
 21
1.0
 31
0.0
  0
POINT
  5
8E2
100
AcDbEntity
  8
DEFPOINTS
  6
BYBLOCK
 62
     0
100
AcDbPoint
 10
975.529982
 20
224.332185
 30
0.0
  0
POINT
  5
8E3
100
AcDbEntity
  8
DEFPOINTS
  6
BYBLOCK
 62
     0
100
AcDbPoint
 10
973.154982
 20
-235.667815
 30
0.0
  0
POINT
  5
8E4
100
AcDbEntity
  8
DEFPOINTS
  6
BYBLOCK
 62
     0
100
AcDbPoint
 10
1022.640395
 20
-235.667815
 30
0.0
  0
ENDBLK
  5
8E5
100
AcDbEntity
  8
0
100
AcDbBlockEnd
  0
BLOCK
  5
918
100
AcDbEntity
  8
0
100
AcDbBlockBegin
  2
*D2
 70
     1
 10
0.0
 20
0.0
 30
0.0
  3
*D2
  1

  0
LINE
  5
919
100
AcDbEntity
  8
0
  6
BYBLOCK
 62
     0
100
AcDbLine
 10
587.279982
 20
206.372605
 30
0.0
 11
587.279982
 21
254.354542
 31
0.0
  0
LINE
  5
91A
100
AcDbEntity
  8
0
  6
BYBLOCK
 62
     0
100
AcDbLine
 10
952.279982
 20
206.372605
 30
0.0
 11
952.279982
 21
254.354542
 31
0.0
  0
LINE
  5
91B
100
AcDbEntity
  8
0
  6
BYBLOCK
 62
     0
100
AcDbLine
 10
612.279982
 20
253.104542
 30
0.0
 11
927.279982
 21
253.104542
 31
0.0
  0
INSERT
  5
91C
100
AcDbEntity
  8
0
  6
BYBLOCK
 62
     0
100
AcDbBlockReference
  2
_OPEN
 10
587.279982
 20
253.104542
 30
0.0
 41
25.0
 42
25.0
 43
25.0
 50
180.0
  0
INSERT
  5
91D
100
AcDbEntity
  8
0
  6
BYBLOCK
 62
     0
100
AcDbBlockReference
  2
_OPEN
 10
952.279982
 20
253.104542
 30
0.0
 41
25.0
 42
25.0
 43
25.0
  0
MTEXT
  5
91E
100
AcDbEntity
  8
0
  6
BYBLOCK
 62
     0
100
AcDbMText
 10
769.779982
 20
268.604542
 30
0.0
 40
25.0
 41
0.0
 71
     5
 72
     1
  1
\A1;365
  0
POINT
  5
91F
100
AcDbEntity
  8
DEFPOINTS
  6
BYBLOCK
 62
     0
100
AcDbPoint
 10
587.279982
 20
205.747605
 30
0.0
  0
POINT
  5
920
100
AcDbEntity
  8
DEFPOINTS
  6
BYBLOCK
 62
     0
100
AcDbPoint
 10
952.279982
 20
205.747605
 30
0.0
  0
POINT
  5
921
100
AcDbEntity
  8
DEFPOINTS
  6
BYBLOCK
 62
     0
100
AcDbPoint
 10
952.279982
 20
253.104542
 30
0.0
  0
ENDBLK
  5
922
100
AcDbEntity
  8
0
100
AcDbBlockEnd
  0
BLOCK
  5
901
100
AcDbEntity
  8
0
100
AcDbBlockBegin
  2
*D3
 70
     1
 10
0.0
 20
0.0
 30
0.0
  3
*D3
  1

  0
LINE
  5
902
100
AcDbEntity
  8
0
  6
BYBLOCK
 62
     0
100
AcDbLine
 10
565.779982
 20
-236.292815
 30
0.0
 11
565.779982
 21
-284.484547
 31
0.0
  0
LINE
  5
903
100
AcDbEntity
  8
0
  6
BYBLOCK
 62
     0
100
AcDbLine
 10
973.779982
 20
-236.292815
 30
0.0
 11
973.779982
 21
-284.484547
 31
0.0
  0
LINE
  5
904
100
AcDbEntity
  8
0
  6
BYBLOCK
 62
     0
100
AcDbLine
 10
590.779982
 20
-283.234547
 30
0.0
 11
948.779982
 21
-283.234547
 31
0.0
  0
INSERT
  5
905
100
AcDbEntity
  8
0
  6
BYBLOCK
 62
     0
100
AcDbBlockReference
  2
_OPEN
 10
565.779982
 20
-283.234547
 30
0.0
 41
25.0
 42
25.0
 43
25.0
 50
180.0
  0
INSERT
  5
906
100
AcDbEntity
  8
0
  6
BYBLOCK
 62
     0
100
AcDbBlockReference
  2
_OPEN
 10
973.779982
 20
-283.234547
 30
0.0
 41
25.0
 42
25.0
 43
25.0
  0
MTEXT
  5
907
100
AcDbEntity
  8
0
  6
BYBLOCK
 62
     0
100
AcDbMText
 10
769.779982
 20
-267.734547
 30
0.0
 40
25.0
 41
0.0
 71
     5
 72
     1
  1
\A1;408
  0
POINT
  5
908
100
AcDbEntity
  8
DEFPOINTS
  6
BYBLOCK
 62
     0
100
AcDbPoint
 10
565.779982
 20
-235.667815
 30
0.0
  0
POINT
  5
909
100
AcDbEntity
  8
DEFPOINTS
  6
BYBLOCK
 62
     0
100
AcDbPoint
 10
973.779982
 20
-235.667815
 30
0.0
  0
POINT
  5
90A
100
AcDbEntity
  8
DEFPOINTS
  6
BYBLOCK
 62
     0
100
AcDbPoint
 10
973.779982
 20
-283.234547
 30
0.0
  0
ENDBLK
  5
90B
100
AcDbEntity
  8
0
100
AcDbBlockEnd
  0
BLOCK
  5
AC2
100
AcDbEntity
  8
0
100
AcDbBlockBegin
  2
*D4
 70
     1
 10
0.0
 20
0.0
 30
0.0
  3
*D4
  1

  0
LINE
  5
AC3
100
AcDbEntity
  8
0
  6
BYBLOCK
 62
     0
100
AcDbLine
 10
429.625
 20
157.5
 30
0.0
 11
482.729036
 21
157.5
 31
0.0
  0
LINE
  5
AC4
100
AcDbEntity
  8
0
  6
BYBLOCK
 62
     0
100
AcDbLine
 10
429.625
 20
-157.5
 30
0.0
 11
482.729036
 21
-157.5
 31
0.0
  0
LINE
  5
AC5
100
AcDbEntity
  8
0
  6
BYBLOCK
 62
     0
100
AcDbLine
 10
481.479036
 20
132.5
 30
0.0
 11
481.479036
 21
-132.5
 31
0.0
  0
INSERT
  5
AC6
100
AcDbEntity
  8
0
  6
BYBLOCK
 62
     0
100
AcDbBlockReference
  2
_OPEN
 10
481.479036
 20
157.5
 30
0.0
 41
25.0
 42
25.0
 43
25.0
 50
90.0
  0
INSERT
  5
AC7
100
AcDbEntity
  8
0
  6
BYBLOCK
 62
     0
100
AcDbBlockReference
  2
_OPEN
 10
481.479036
 20
-157.5
 30
0.0
 41
25.0
 42
25.0
 43
25.0
 50
270.0
  0
MTEXT
  5
AC8
100
AcDbEntity
  8
0
  6
BYBLOCK
 62
     0
100
AcDbMText
 10
465.979036
 20
0.0
 30
0.0
 40
25.0
 41
0.0
 71
     5
 72
     1
  1
\A1;\U+2205315
 11
0.0
 21
1.0
 31
0.0
  0
POINT
  5
AC9
100
AcDbEntity
  8
DEFPOINTS
  6
BYBLOCK
 62
     0
100
AcDbPoint
 10
429.0
 20
157.5
 30
0.0
  0
POINT
  5
ACA
100
AcDbEntity
  8
DEFPOINTS
  6
BYBLOCK
 62
     0
100
AcDbPoint
 10
429.0
 20
-157.5
 30
0.0
  0
POINT
  5
ACB
100
AcDbEntity
  8
DEFPOINTS
  6
BYBLOCK
 62
     0
100
AcDbPoint
 10
481.479036
 20
-157.5
 30
0.0
  0
ENDBLK
  5
ACC
100
AcDbEntity
  8
0
100
AcDbBlockEnd
  0
BLOCK
  5
AA6
100
AcDbEntity
  8
0
100
AcDbBlockBegin
  2
*D5
 70
     1
 10
0.0
 20
0.0
 30
0.0
  3
*D5
  1

  0
LINE
  5
AA7
100
AcDbEntity
  8
0
  6
BYBLOCK
 62
     0
100
AcDbLine
 10
395.625
 20
224.353683
 30
0.0
 11
523.519991
 21
224.353683
 31
0.0
  0
LINE
  5
AA8
100
AcDbEntity
  8
0
  6
BYBLOCK
 62
     0
100
AcDbLine
 10
390.625
 20
-235.667815
 30
0.0
 11
523.519991
 21
-235.667815
 31
0.0
  0
LINE
  5
AA9
100
AcDbEntity
  8
0
  6
BYBLOCK
 62
     0
100
AcDbLine
 10
522.269991
 20
199.353683
 30
0.0
 11
522.269991
 21
-210.667815
 31
0.0
  0
INSERT
  5
AAA
100
AcDbEntity
  8
0
  6
BYBLOCK
 62
     0
100
AcDbBlockReference
  2
_OPEN
 10
522.269991
 20
224.353683
 30
0.0
 41
25.0
 42
25.0
 43
25.0
 50
90.0
  0
INSERT
  5
AAB
100
AcDbEntity
  8
0
  6
BYBLOCK
 62
     0
100
AcDbBlockReference
  2
_OPEN
 10
522.269991
 20
-235.667815
 30
0.0
 41
25.0
 42
25.0
 43
25.0
 50
270.0
  0
MTEXT
  5
AAC
100
AcDbEntity
  8
0
  6
BYBLOCK
 62
     0
100
AcDbMText
 10
506.769991
 20
-5.657066
 30
0.0
 40
25.0
 41
0.0
 71
     5
 72
     1
  1
\A1;460
 11
0.0
 21
1.0
 31
0.0
  0
POINT
  5
AAD
100
AcDbEntity
  8
DEFPOINTS
  6
BYBLOCK
 62
     0
100
AcDbPoint
 10
395.0
 20
224.353683
 30
0.0
  0
POINT
  5
AAE
100
AcDbEntity
  8
DEFPOINTS
  6
BYBLOCK
 62
     0
100
AcDbPoint
 10
390.0
 20
-235.667815
 30
0.0
  0
POINT
  5
AAF
100
AcDbEntity
  8
DEFPOINTS
  6
BYBLOCK
 62
     0
100
AcDbPoint
 10
522.269991
 20
-235.667815
 30
0.0
  0
ENDBLK
  5
AB0
100
AcDbEntity
  8
0
100
AcDbBlockEnd
  0
BLOCK
  5
A76
100
AcDbEntity
  8
0
100
AcDbBlockBegin
  2
*D6
 70
     1
 10
0.0
 20
0.0
 30
0.0
  3
*D6
  1

  0
LINE
  5
A77
100
AcDbEntity
  8
0
  6
BYBLOCK
 62
     0
100
AcDbLine
 10
50.0
 20
-158.125
 30
0.0
 11
50.0
 21
-325.01832
 31
0.0
  0
LINE
  5
A78
100
AcDbEntity
  8
0
  6
BYBLOCK
 62
     0
100
AcDbLine
 10
429.625
 20
-158.125
 30
0.0
 11
429.625
 21
-325.01832
 31
0.0
  0
LINE
  5
A79
100
AcDbEntity
  8
0
  6
BYBLOCK
 62
     0
100
AcDbLine
 10
75.0
 20
-323.76832
 30
0.0
 11
404.625
 21
-323.76832
 31
0.0
  0
INSERT
  5
A7A
100
AcDbEntity
  8
0
  6
BYBLOCK
 62
     0
100
AcDbBlockReference
  2
_OPEN
 10
50.0
 20
-323.76832
 30
0.0
 41
25.0
 42
25.0
 43
25.0
 50
180.0
  0
INSERT
  5
A7B
100
AcDbEntity
  8
0
  6
BYBLOCK
 62
     0
100
AcDbBlockReference
  2
_OPEN
 10
429.625
 20
-323.76832
 30
0.0
 41
25.0
 42
25.0
 43
25.0
  0
MTEXT
  5
A7C
100
AcDbEntity
  8
0
  6
BYBLOCK
 62
     0
100
AcDbMText
 10
240.3125
 20
-308.26832
 30
0.0
 40
25.0
 41
0.0
 71
     5
 72
     1
  1
\A1;380
  0
POINT
  5
A7D
100
AcDbEntity
  8
DEFPOINTS
  6
BYBLOCK
 62
     0
100
AcDbPoint
 10
50.0
 20
-157.5
 30
0.0
  0
POINT
  5
A7E
100
AcDbEntity
  8
DEFPOINTS
  6
BYBLOCK
 62
     0
100
AcDbPoint
 10
429.625
 20
-157.5
 30
0.0
  0
POINT
  5
A7F
100
AcDbEntity
  8
DEFPOINTS
  6
BYBLOCK
 62
     0
100
AcDbPoint
 10
429.625
 20
-323.76832
 30
0.0
  0
ENDBLK
  5
A80
100
AcDbEntity
  8
0
100
AcDbBlockEnd
  0
BLOCK
  5
AB6
100
AcDbEntity
  8
0
100
AcDbBlockBegin
  2
*D7
 70
     1
 10
0.0
 20
0.0
 30
0.0
  3
*D7
  1

  0
LINE
  5
AB7
100
AcDbEntity
  8
0
  6
BYBLOCK
 62
     0
100
AcDbLine
 10
50.0
 20
-158.125
 30
0.0
 11
50.0
 21
-280.33512
 31
0.0
  0
LINE
  5
AB8
100
AcDbEntity
  8
0
  6
BYBLOCK
 62
     0
100
AcDbLine
 10
90.0
 20
-236.292815
 30
0.0
 11
90.0
 21
-280.33512
 31
0.0
  0
LINE
  5
AB9
100
AcDbEntity
  8
0
  6
BYBLOCK
 62
     0
100
AcDbLine
 10
25.0
 20
-279.08512
 30
0.0
 11
0.0
 21
-279.08512
 31
0.0
  0
LINE
  5
ABA
100
AcDbEntity
  8
0
  6
BYBLOCK
 62
     0
100
AcDbLine
 10
115.0
 20
-279.08512
 30
0.0
 11
140.0
 21
-279.08512
 31
0.0
  0
INSERT
  5
ABB
100
AcDbEntity
  8
0
  6
BYBLOCK
 62
     0
100
AcDbBlockReference
  2
_OPEN
 10
50.0
 20
-279.08512
 30
0.0
 41
25.0
 42
25.0
 43
25.0
  0
INSERT
  5
ABC
100
AcDbEntity
  8
0
  6
BYBLOCK
 62
     0
100
AcDbBlockReference
  2
_OPEN
 10
90.0
 20
-279.08512
 30
0.0
 41
25.0
 42
25.0
 43
25.0
 50
180.0
  0
MTEXT
  5
ABD
100
AcDbEntity
  8
0
  6
BYBLOCK
 62
     0
100
AcDbMText
 10
70.0
 20
-263.58512
 30
0.0
 40
25.0
 41
0.0
 71
     5
 72
     1
  1
\A1;40
  0
POINT
  5
ABE
100
AcDbEntity
  8
DEFPOINTS
  6
BYBLOCK
 62
     0
100
AcDbPoint
 10
50.0
 20
-157.5
 30
0.0
  0
POINT
  5
ABF
100
AcDbEntity
  8
DEFPOINTS
  6
BYBLOCK
 62
     0
100
AcDbPoint
 10
90.0
 20
-235.667815
 30
0.0
  0
POINT
  5
AC0
100
AcDbEntity
  8
DEFPOINTS
  6
BYBLOCK
 62
     0
100
AcDbPoint
 10
90.0
 20
-279.08512
 30
0.0
  0
ENDBLK
  5
AC1
100
AcDbEntity
  8
0
100
AcDbBlockEnd
  0
ENDSEC
  0
SECTION
  2
ENTITIES
  0
LINE
  5
124
100
AcDbEntity
  8
V0-VYPLNE
  6
DASHDOT
 62
    63
 48
20.0
100
AcDbLine
 10
444.195923
 20
0.0
 30
0.0
 11
42.080452
 21
0.0
 31
0.0
  0
LINE
  5
125
100
AcDbEntity
  8
V0-VYPLNE
  6
DASHDOT
 62
    63
 48
20.0
100
AcDbLine
 10
439.195923
 20
-613.968442
 30
0.0
 11
47.080452
 21
-613.968442
 31
0.0
  0
TEXT
  5
126
100
AcDbEntity
  8
V0-ZBYTEK
  6
CONTINUOUS
 62
    51
100
AcDbText
 10
577.67036
 20
-638.604794
 30
0.0
 40
15.0
  1
PRO KRUHOVA POTRUBI
  7
SIMPLEX
 72
     1
 11
712.313217
 21
-638.604794
 31
0.0
100
AcDbText
  0
TEXT
  5
127
100
AcDbEntity
  8
V0-ZBYTEK
  6
CONTINUOUS
 62
   130
100
AcDbText
 10
568.144779
 20
-604.390286
 30
0.0
 40
25.0
  1
VODNI OHRIVAC
  7
SIMPLEX
 72
     1
 11
712.192398
 21
-604.390286
 31
0.0
100
AcDbText
  0
LINE
  5
128
100
AcDbEntity
  8
V0-VYPLNE
  6
CONTINUOUS
 62
    52
100
AcDbLine
 10
250.557556
 20
-613.549405
 30
0.0
 11
250.557556
 21
-585.159512
 31
0.0
  0
LINE
  5
129
100
AcDbEntity
  8
V0-VYPLNE
  6
CONTINUOUS
 62
    52
100
AcDbLine
 10
250.557556
 20
-585.159512
 30
0.0
 11
284.635498
 21
-615.219418
 31
0.0
  0
LINE
  5
12A
100
AcDbEntity
  8
V0-VYPLNE
  6
CONTINUOUS
 62
    52
100
AcDbLine
 10
243.934814
 20
-0.572205
 30
0.0
 11
243.934814
 21
27.817688
 31
0.0
  0
LINE
  5
12B
100
AcDbEntity
  8
V0-VYPLNE
  6
CONTINUOUS
 62
    52
100
AcDbLine
 10
243.934814
 20
27.817688
 30
0.0
 11
278.012756
 21
-2.242249
 31
0.0
  0
LINE
  5
12C
100
AcDbEntity
  8
V0-VYPLNE
  6
CONTINUOUS
 62
    52
100
AcDbLine
 10
243.934814
 20
0.0
 30
0.0
 11
243.934814
 21
-28.389893
 31
0.0
  0
LINE
  5
12D
100
AcDbEntity
  8
V0-VYPLNE
  6
CONTINUOUS
 62
    52
100
AcDbLine
 10
243.934814
 20
-28.389893
 30
0.0
 11
278.012756
 21
1.669983
 31
0.0
  0
LINE
  5
132
100
AcDbEntity
  8
V0-OBRYS
  6
CONTINUOUS
 62
    90
100
AcDbLine
 10
90.0
 20
0.0
 30
0.0
 11
90.0
 21
214.353683
 31
0.0
  0
LINE
  5
133
100
AcDbEntity
  8
V0-OBRYS
  6
CONTINUOUS
 62
    90
100
AcDbLine
 10
84.513985
 20
224.0
 30
0.0
 11
85.0
 21
224.0
 31
0.0
  0
LINE
  5
134
100
AcDbEntity
  8
V0-OBRYS
  6
CONTINUOUS
 62
    90
100
AcDbLine
 10
85.0
 20
224.0
 30
0.0
 11
85.0
 21
214.353683
 31
0.0
  0
LINE
  5
135
100
AcDbEntity
  8
V0-OBRYS
  6
CONTINUOUS
 62
    90
100
AcDbLine
 10
395.0
 20
224.0
 30
0.0
 11
395.0
 21
214.353683
 31
0.0
  0
LINE
  5
136
100
AcDbEntity
  8
V0-OBRYS
  6
CONTINUOUS
 62
    90
100
AcDbLine
 10
85.0
 20
214.353683
 30
0.0
 11
395.0
 21
214.353683
 31
0.0
  0
LINE
  5
137
100
AcDbEntity
  8
V0-OBRYS
  6
CONTINUOUS
 62
    90
100
AcDbLine
 10
395.0
 20
224.353683
 30
0.0
 11
85.0
 21
224.353683
 31
0.0
  0
LINE
  5
13C
100
AcDbEntity
  8
V0-OBRYS
  6
CONTINUOUS
 62
    90
100
AcDbLine
 10
50.0
 20
0.0
 30
0.0
 11
50.0
 21
157.5
 31
0.0
  0
LINE
  5
13D
100
AcDbEntity
  8
V0-OBRYS
  6
CONTINUOUS
 62
    90
100
AcDbLine
 10
59.345802
 20
0.0
 30
0.0
 11
59.345802
 21
160.720367
 31
0.0
  0
LINE
  5
13E
100
AcDbEntity
  8
V0-OBRYS
  6
CONTINUOUS
 62
    90
100
AcDbLine
 10
59.345802
 20
160.720367
 30
0.0
 11
64.130844
 21
160.720367
 31
0.0
  0
LINE
  5
13F
100
AcDbEntity
  8
V0-OBRYS
  6
CONTINUOUS
 62
    90
100
AcDbLine
 10
64.130844
 20
160.720367
 30
0.0
 11
64.130844
 21
-0.100907
 31
0.0
  0
LINE
  5
140
100
AcDbEntity
  8
V0-OBRYS
  6
CONTINUOUS
 62
    90
100
AcDbLine
 10
59.358932
 20
157.5
 30
0.0
 11
50.0
 21
157.5
 31
0.0
  0
LINE
  5
141
100
AcDbEntity
  8
V0-OBRYS
  6
CONTINUOUS
 62
    90
100
AcDbLine
 10
64.146248
 20
157.5
 30
0.0
 11
90.0
 21
157.5
 31
0.0
  0
LINE
  5
142
100
AcDbEntity
  8
V0-OBRYS
  6
CONTINUOUS
 62
    90
100
AcDbLine
 10
429.0
 20
0.0
 30
0.0
 11
429.0
 21
157.5
 31
0.0
  0
LINE
  5
143
100
AcDbEntity
  8
V0-OBRYS
  6
CONTINUOUS
 62
    90
100
AcDbLine
 10
419.654205
 20
0.0
 30
0.0
 11
419.654205
 21
160.720367
 31
0.0
  0
LINE
  5
144
100
AcDbEntity
  8
V0-OBRYS
  6
CONTINUOUS
 62
    90
100
AcDbLine
 10
419.654205
 20
160.720367
 30
0.0
 11
414.869141
 21
160.720367
 31
0.0
  0
LINE
  5
145
100
AcDbEntity
  8
V0-OBRYS
  6
CONTINUOUS
 62
    90
100
AcDbLine
 10
414.869141
 20
160.720367
 30
0.0
 11
414.869141
 21
-0.100906
 31
0.0
  0
LINE
  5
146
100
AcDbEntity
  8
V0-OBRYS
  6
CONTINUOUS
 62
    90
100
AcDbLine
 10
419.641052
 20
157.5
 30
0.0
 11
429.0
 21
157.5
 31
0.0
  0
LINE
  5
147
100
AcDbEntity
  8
V0-OBRYS
  6
CONTINUOUS
 62
    90
100
AcDbLine
 10
414.85376
 20
157.5
 30
0.0
 11
390.0
 21
157.5
 31
0.0
  0
LINE
  5
154
100
AcDbEntity
  8
V0-OBRYS
  6
CONTINUOUS
 62
    90
100
AcDbLine
 10
390.0
 20
-409.614758
 30
0.0
 11
95.0
 21
-409.614758
 31
0.0
  0
LINE
  5
155
100
AcDbEntity
  8
V0-OBRYS
  6
CONTINUOUS
 62
    90
100
AcDbLine
 10
95.0
 20
-409.968442
 30
0.0
 11
95.0
 21
-613.968442
 31
0.0
  0
LINE
  5
156
100
AcDbEntity
  8
V0-OBRYS
  6
CONTINUOUS
 62
    90
100
AcDbLine
 10
390.0
 20
-409.968442
 30
0.0
 11
390.0
 21
-613.968442
 31
0.0
  0
LINE
  5
158
100
AcDbEntity
  8
V0-OBRYS
  6
CONTINUOUS
 62
    90
100
AcDbLine
 10
55.0
 20
-613.968442
 30
0.0
 11
55.0
 21
-456.468442
 31
0.0
  0
LINE
  5
159
100
AcDbEntity
  8
V0-OBRYS
  6
CONTINUOUS
 62
    90
100
AcDbLine
 10
64.345802
 20
-613.968442
 30
0.0
 11
64.345802
 21
-453.248074
 31
0.0
  0
LINE
  5
15A
100
AcDbEntity
  8
V0-OBRYS
  6
CONTINUOUS
 62
    90
100
AcDbLine
 10
64.345802
 20
-453.248074
 30
0.0
 11
69.130844
 21
-453.248074
 31
0.0
  0
LINE
  5
15B
100
AcDbEntity
  8
V0-OBRYS
  6
CONTINUOUS
 62
    90
100
AcDbLine
 10
69.130844
 20
-453.248074
 30
0.0
 11
69.130844
 21
-614.069363
 31
0.0
  0
LINE
  5
15C
100
AcDbEntity
  8
V0-OBRYS
  6
CONTINUOUS
 62
    90
100
AcDbLine
 10
64.358932
 20
-456.468442
 30
0.0
 11
55.0
 21
-456.468442
 31
0.0
  0
LINE
  5
15D
100
AcDbEntity
  8
V0-OBRYS
  6
CONTINUOUS
 62
    90
100
AcDbLine
 10
424.0
 20
-613.968442
 30
0.0
 11
424.0
 21
-456.468442
 31
0.0
  0
LINE
  5
15E
100
AcDbEntity
  8
V0-OBRYS
  6
CONTINUOUS
 62
    90
100
AcDbLine
 10
414.654205
 20
-613.968442
 30
0.0
 11
414.654205
 21
-453.248074
 31
0.0
  0
LINE
  5
15F
100
AcDbEntity
  8
V0-OBRYS
  6
CONTINUOUS
 62
    90
100
AcDbLine
 10
414.654205
 20
-453.248074
 30
0.0
 11
409.869141
 21
-453.248074
 31
0.0
  0
LINE
  5
160
100
AcDbEntity
  8
V0-OBRYS
  6
CONTINUOUS
 62
    90
100
AcDbLine
 10
409.869141
 20
-453.248074
 30
0.0
 11
409.869141
 21
-614.069333
 31
0.0
  0
LINE
  5
161
100
AcDbEntity
  8
V0-OBRYS
  6
CONTINUOUS
 62
    90
100
AcDbLine
 10
414.641052
 20
-456.468442
 30
0.0
 11
424.0
 21
-456.468442
 31
0.0
  0
LINE
  5
16F
100
AcDbEntity
  8
V0-VYPLNE
  6
CONTINUOUS
 62
    52
100
AcDbLine
 10
250.557556
 20
-614.387478
 30
0.0
 11
250.557556
 21
-642.777371
 31
0.0
  0
LINE
  5
170
100
AcDbEntity
  8
V0-VYPLNE
  6
CONTINUOUS
 62
    52
100
AcDbLine
 10
250.557556
 20
-642.777371
 30
0.0
 11
284.635498
 21
-612.717465
 31
0.0
  0
LINE
  5
179
100
AcDbEntity
  8
V0-OBRYS
  6
CONTINUOUS
 62
    90
100
AcDbLine
 10
69.146248
 20
-456.468442
 30
0.0
 11
95.0
 21
-456.468442
 31
0.0
  0
LINE
  5
17B
100
AcDbEntity
  8
V0-OBRYS
  6
CONTINUOUS
 62
    90
100
AcDbLine
 10
409.85376
 20
-456.468442
 30
0.0
 11
390.0
 21
-456.468442
 31
0.0
  0
TEXT
  5
17D
100
AcDbEntity
  8
V0-NAZVY
  6
CONTINUOUS
 62
   210
100
AcDbText
 10
142.380911
 20
98.66355
 30
0.0
 40
30.0
  1
MBW-315
  7
SIMPLEX
 72
     1
 11
245.952339
 21
98.66355
 31
0.0
100
AcDbText
  0
TEXT
  5
17E
100
AcDbEntity
  8
V0-NAZVY
  6
CONTINUOUS
 62
   210
100
AcDbText
 10
144.899504
 20
-543.947846
 30
0.0
 40
30.0
  1
MBW-315
  7
SIMPLEX
 72
     1
 11
248.470932
 21
-543.947846
 31
0.0
100
AcDbText
  0
TEXT
  5
17F
100
AcDbEntity
  8
V0-NAZVY
  6
CONTINUOUS
 62
   210
100
AcDbText
 10
557.960211
 20
-542.258032
 30
0.0
 40
45.0
  1
MBW-315
  7
SIMPLEX
 72
     1
 11
713.317354
 21
-542.258032
 31
0.0
100
AcDbText
  0
LINE
  5
180
100
AcDbEntity
  8
V0-OBRYS
  6
CONTINUOUS
 62
    90
100
AcDbLine
 10
562.467777
 20
224.332185
 30
0.0
 11
562.467777
 21
214.889649
 31
0.0
  0
LINE
  5
181
100
AcDbEntity
  8
V0-OBRYS
  6
CONTINUOUS
 62
    90
100
AcDbLine
 10
562.467777
 20
224.332185
 30
0.0
 11
769.779982
 21
224.332185
 31
0.0
  0
LINE
  5
182
100
AcDbEntity
  8
V0-OBRYS
  6
CONTINUOUS
 62
    90
100
AcDbLine
 10
562.467777
 20
214.332185
 30
0.0
 11
769.779982
 21
214.332185
 31
0.0
  0
LINE
  5
186
100
AcDbEntity
  8
V0-OBRYS
  6
CONTINUOUS
 62
    90
100
AcDbLine
 10
576.092777
 20
-225.667815
 30
0.0
 11
575.467777
 21
214.332185
 31
0.0
  0
LINE
  5
187
100
AcDbEntity
  8
V0-OBRYS
  6
CONTINUOUS
 62
    90
100
AcDbLine
 10
975.529982
 20
224.332185
 30
0.0
 11
975.529982
 21
214.889649
 31
0.0
  0
LINE
  5
188
100
AcDbEntity
  8
V0-OBRYS
  6
CONTINUOUS
 62
    90
100
AcDbLine
 10
975.529982
 20
224.332185
 30
0.0
 11
769.779982
 21
224.332185
 31
0.0
  0
LINE
  5
189
100
AcDbEntity
  8
V0-OBRYS
  6
CONTINUOUS
 62
    90
100
AcDbLine
 10
975.529982
 20
214.332185
 30
0.0
 11
769.779982
 21
214.332185
 31
0.0
  0
TEXT
  5
18E
100
AcDbEntity
  8
V0-NAZVY
  6
CONTINUOUS
 62
   210
100
AcDbText
 10
677.762989
 20
164.966768
 30
0.0
 40
30.0
  1
MBW-315
  7
SIMPLEX
 72
     1
 11
781.334417
 21
164.966768
 31
0.0
100
AcDbText
  0
CIRCLE
  5
18F
100
AcDbEntity
  8
V0-OBRYS
  6
CONTINUOUS
 62
    90
100
AcDbCircle
 10
769.779982
 20
-5.667815
 30
0.0
 40
157.005
  0
CIRCLE
  5
190
100
AcDbEntity
  8
V0-OBRYS
  6
CONTINUOUS
 62
    90
100
AcDbCircle
 10
769.779982
 20
-5.667815
 30
0.0
 40
168.919685
  0
LINE
  5
1A4
100
AcDbEntity
  8
V0-VYPLNE
  6
DASHDOT
 62
    63
 48
20.0
100
AcDbLine
 10
590.696943
 20
-5.667815
 30
0.0
 11
944.661739
 21
-5.667815
 31
0.0
  0
LINE
  5
1A6
100
AcDbEntity
  8
V0-VYPLNE
  6
DASHDOT
 62
    63
 48
20.0
100
AcDbLine
 10
769.779982
 20
163.25187
 30
0.0
 11
769.779982
 21
-174.587501
 31
0.0
  0
LINE
  5
1AA
100
AcDbEntity
  8
V0-VYPLNE
  6
DASHDOT
 62
    63
 48
20.0
100
AcDbLine
 10
587.279982
 20
205.747605
 30
0.0
 11
587.279982
 21
180.033784
 31
0.0
  0
LINE
  5
1AE
100
AcDbEntity
  8
V0-VYPLNE
  6
DASHDOT
 62
    63
 48
20.0
100
AcDbLine
 10
952.279982
 20
205.747605
 30
0.0
 11
952.279982
 21
180.033784
 31
0.0
  0
LINE
  5
1B0
100
AcDbEntity
  8
V0-VYPLNE
  6
CONTINUOUS
 62
    52
100
AcDbLine
 10
666.156706
 20
112.284636
 30
0.0
 11
666.156706
 21
-123.620267
 31
0.0
  0
LINE
  5
1B2
100
AcDbEntity
  8
V0-VYPLNE
  6
CONTINUOUS
 62
    52
100
AcDbLine
 10
703.837906
 20
-148.15364
 30
0.0
 11
703.837906
 21
136.818009
 31
0.0
  0
LINE
  5
1B4
100
AcDbEntity
  8
V0-VYPLNE
  6
CONTINUOUS
 62
    52
100
AcDbLine
 10
689.660967
 20
-138.923368
 30
0.0
 11
703.837921
 21
-138.923368
 31
0.0
  0
LINE
  5
1B5
100
AcDbEntity
  8
V0-VYPLNE
  6
CONTINUOUS
 62
    52
100
AcDbLine
 10
666.156708
 20
-123.222867
 30
0.0
 11
703.837918
 21
-123.222867
 31
0.0
  0
LINE
  5
1B6
100
AcDbEntity
  8
V0-VYPLNE
  6
CONTINUOUS
 62
    52
100
AcDbLine
 10
666.156708
 20
-107.522367
 30
0.0
 11
703.837918
 21
-107.522367
 31
0.0
  0
LINE
  5
1B7
100
AcDbEntity
  8
V0-VYPLNE
  6
CONTINUOUS
 62
    52
100
AcDbLine
 10
666.156708
 20
-91.821867
 30
0.0
 11
703.837918
 21
-91.821867
 31
0.0
  0
LINE
  5
1B8
100
AcDbEntity
  8
V0-VYPLNE
  6
CONTINUOUS
 62
    52
100
AcDbLine
 10
666.156708
 20
-76.121367
 30
0.0
 11
703.837918
 21
-76.121367
 31
0.0
  0
LINE
  5
1B9
100
AcDbEntity
  8
V0-VYPLNE
  6
CONTINUOUS
 62
    52
100
AcDbLine
 10
666.156708
 20
-60.420866
 30
0.0
 11
703.837915
 21
-60.420866
 31
0.0
  0
LINE
  5
1BA
100
AcDbEntity
  8
V0-VYPLNE
  6
CONTINUOUS
 62
    52
100
AcDbLine
 10
666.156707
 20
-44.720366
 30
0.0
 11
703.837915
 21
-44.720366
 31
0.0
  0
LINE
  5
1BB
100
AcDbEntity
  8
V0-VYPLNE
  6
CONTINUOUS
 62
    52
100
AcDbLine
 10
666.156707
 20
-29.019866
 30
0.0
 11
703.837915
 21
-29.019866
 31
0.0
  0
LINE
  5
1BC
100
AcDbEntity
  8
V0-VYPLNE
  6
CONTINUOUS
 62
    52
100
AcDbLine
 10
666.156707
 20
-13.319366
 30
0.0
 11
703.837915
 21
-13.319366
 31
0.0
  0
LINE
  5
1BD
100
AcDbEntity
  8
V0-VYPLNE
  6
CONTINUOUS
 62
    52
100
AcDbLine
 10
666.156707
 20
2.381135
 30
0.0
 11
703.837915
 21
2.381135
 31
0.0
  0
LINE
  5
1BE
100
AcDbEntity
  8
V0-VYPLNE
  6
CONTINUOUS
 62
    52
100
AcDbLine
 10
666.156707
 20
18.081635
 30
0.0
 11
703.837912
 21
18.081635
 31
0.0
  0
LINE
  5
1BF
100
AcDbEntity
  8
V0-VYPLNE
  6
CONTINUOUS
 62
    52
100
AcDbLine
 10
666.156706
 20
33.782135
 30
0.0
 11
703.837912
 21
33.782135
 31
0.0
  0
LINE
  5
1C0
100
AcDbEntity
  8
V0-VYPLNE
  6
CONTINUOUS
 62
    52
100
AcDbLine
 10
666.156706
 20
49.482635
 30
0.0
 11
703.837912
 21
49.482635
 31
0.0
  0
LINE
  5
1C1
100
AcDbEntity
  8
V0-VYPLNE
  6
CONTINUOUS
 62
    52
100
AcDbLine
 10
666.156706
 20
65.183135
 30
0.0
 11
703.837912
 21
65.183135
 31
0.0
  0
LINE
  5
1C2
100
AcDbEntity
  8
V0-VYPLNE
  6
CONTINUOUS
 62
    52
100
AcDbLine
 10
666.156706
 20
80.883636
 30
0.0
 11
703.837906
 21
80.883636
 31
0.0
  0
LINE
  5
1C3
100
AcDbEntity
  8
V0-VYPLNE
  6
CONTINUOUS
 62
    52
100
AcDbLine
 10
666.156706
 20
96.584136
 30
0.0
 11
703.837906
 21
96.584136
 31
0.0
  0
LINE
  5
1C4
100
AcDbEntity
  8
V0-VYPLNE
  6
CONTINUOUS
 62
    52
100
AcDbLine
 10
666.156706
 20
112.284636
 30
0.0
 11
703.837906
 21
112.284636
 31
0.0
  0
LINE
  5
1C5
100
AcDbEntity
  8
V0-VYPLNE
  6
CONTINUOUS
 62
    52
100
AcDbLine
 10
690.271356
 20
127.985136
 30
0.0
 11
703.837906
 21
127.985136
 31
0.0
  0
LINE
  5
1CA
100
AcDbEntity
  8
V0-VYPLNE
  6
CONTINUOUS
 62
    52
100
AcDbLine
 10
647.316034
 20
-103.918329
 30
0.0
 11
647.316034
 21
92.582693
 31
0.0
  0
LINE
  5
1CB
100
AcDbEntity
  8
V0-VYPLNE
  6
CONTINUOUS
 62
    52
100
AcDbLine
 10
642.738415
 20
-95.82331
 30
0.0
 11
647.316036
 21
-95.82331
 31
0.0
  0
LINE
  5
1CC
100
AcDbEntity
  8
V0-VYPLNE
  6
CONTINUOUS
 62
    52
100
AcDbLine
 10
633.86
 20
-80.12281
 30
0.0
 11
647.316036
 21
-80.12281
 31
0.0
  0
LINE
  5
1CD
100
AcDbEntity
  8
V0-VYPLNE
  6
CONTINUOUS
 62
    52
100
AcDbLine
 10
624.981588
 20
-64.422309
 30
0.0
 11
647.316036
 21
-64.422309
 31
0.0
  0
LINE
  5
1CE
100
AcDbEntity
  8
V0-VYPLNE
  6
CONTINUOUS
 62
    52
100
AcDbLine
 10
619.497054
 20
-48.721809
 30
0.0
 11
647.316035
 21
-48.721809
 31
0.0
  0
LINE
  5
1CF
100
AcDbEntity
  8
V0-VYPLNE
  6
CONTINUOUS
 62
    52
100
AcDbLine
 10
617.045699
 20
-33.021309
 30
0.0
 11
647.316035
 21
-33.021309
 31
0.0
  0
LINE
  5
1D0
100
AcDbEntity
  8
V0-VYPLNE
  6
CONTINUOUS
 62
    52
100
AcDbLine
 10
614.59434
 20
-17.320809
 30
0.0
 11
647.316035
 21
-17.320809
 31
0.0
  0
LINE
  5
1D1
100
AcDbEntity
  8
V0-VYPLNE
  6
CONTINUOUS
 62
    52
100
AcDbLine
 10
613.53336
 20
-1.620308
 30
0.0
 11
647.316035
 21
-1.620308
 31
0.0
  0
LINE
  5
1D2
100
AcDbEntity
  8
V0-VYPLNE
  6
CONTINUOUS
 62
    52
100
AcDbLine
 10
616.475308
 20
14.080192
 30
0.0
 11
647.316035
 21
14.080192
 31
0.0
  0
LINE
  5
1D3
100
AcDbEntity
  8
V0-VYPLNE
  6
CONTINUOUS
 62
    52
100
AcDbLine
 10
619.417253
 20
29.780692
 30
0.0
 11
647.316034
 21
29.780692
 31
0.0
  0
LINE
  5
1D4
100
AcDbEntity
  8
V0-VYPLNE
  6
CONTINUOUS
 62
    52
100
AcDbLine
 10
622.359198
 20
45.481192
 30
0.0
 11
647.316034
 21
45.481192
 31
0.0
  0
LINE
  5
1D5
100
AcDbEntity
  8
V0-VYPLNE
  6
CONTINUOUS
 62
    52
100
AcDbLine
 10
628.808124
 20
61.181692
 30
0.0
 11
647.316034
 21
61.181692
 31
0.0
  0
LINE
  5
1D6
100
AcDbEntity
  8
V0-VYPLNE
  6
CONTINUOUS
 62
    52
100
AcDbLine
 10
638.062079
 20
76.882193
 30
0.0
 11
647.316034
 21
76.882193
 31
0.0
  0
LINE
  5
1D7
100
AcDbEntity
  8
V0-OBRYS
  6
CONTINUOUS
 62
    90
100
AcDbLine
 10
722.678482
 20
144.105416
 30
0.0
 11
722.374706
 21
144.177431
 31
0.0
  0
LINE
  5
1D8
100
AcDbEntity
  8
V0-OBRYS
  6
CONTINUOUS
 62
    90
100
AcDbLine
 10
722.374706
 20
144.177431
 30
0.0
 11
722.678482
 21
144.105416
 31
0.0
  0
LINE
  5
1D9
100
AcDbEntity
  8
V0-VYPLNE
  6
CONTINUOUS
 62
    52
100
AcDbLine
 10
722.678482
 20
144.105416
 30
0.0
 11
722.678482
 21
-155.441039
 31
0.0
  0
LINE
  5
1DB
100
AcDbEntity
  8
V0-VYPLNE
  6
CONTINUOUS
 62
    52
100
AcDbLine
 10
760.359682
 20
-162.389953
 30
0.0
 11
760.359682
 21
151.05433
 31
0.0
  0
LINE
  5
1DD
100
AcDbEntity
  8
V0-VYPLNE
  6
CONTINUOUS
 62
    52
100
AcDbLine
 10
722.678485
 20
-154.204088
 30
0.0
 11
760.359679
 21
-154.204088
 31
0.0
  0
LINE
  5
1DE
100
AcDbEntity
  8
V0-VYPLNE
  6
CONTINUOUS
 62
    52
100
AcDbLine
 10
722.678485
 20
-138.503588
 30
0.0
 11
760.359679
 21
-138.503588
 31
0.0
  0
LINE
  5
1DF
100
AcDbEntity
  8
V0-VYPLNE
  6
CONTINUOUS
 62
    52
100
AcDbLine
 10
722.678485
 20
-122.803088
 30
0.0
 11
760.359679
 21
-122.803088
 31
0.0
  0
LINE
  5
1E0
100
AcDbEntity
  8
V0-VYPLNE
  6
CONTINUOUS
 62
    52
100
AcDbLine
 10
722.678485
 20
-107.102587
 30
0.0
 11
760.359679
 21
-107.102587
 31
0.0
  0
LINE
  5
1E1
100
AcDbEntity
  8
V0-VYPLNE
  6
CONTINUOUS
 62
    52
100
AcDbLine
 10
722.678484
 20
-91.402087
 30
0.0
 11
760.359679
 21
-91.402087
 31
0.0
  0
LINE
  5
1E2
100
AcDbEntity
  8
V0-VYPLNE
  6
CONTINUOUS
 62
    52
100
AcDbLine
 10
722.678484
 20
-75.701587
 30
0.0
 11
760.359679
 21
-75.701587
 31
0.0
  0
LINE
  5
1E3
100
AcDbEntity
  8
V0-VYPLNE
  6
CONTINUOUS
 62
    52
100
AcDbLine
 10
722.678484
 20
-60.001087
 30
0.0
 11
760.359679
 21
-60.001087
 31
0.0
  0
LINE
  5
1E4
100
AcDbEntity
  8
V0-VYPLNE
  6
CONTINUOUS
 62
    52
100
AcDbLine
 10
722.678484
 20
-44.300586
 30
0.0
 11
760.359679
 21
-44.300586
 31
0.0
  0
LINE
  5
1E5
100
AcDbEntity
  8
V0-VYPLNE
  6
CONTINUOUS
 62
    52
100
AcDbLine
 10
722.678484
 20
-28.600086
 30
0.0
 11
760.359679
 21
-28.600086
 31
0.0
  0
LINE
  5
1E6
100
AcDbEntity
  8
V0-VYPLNE
  6
CONTINUOUS
 62
    52
100
AcDbLine
 10
722.678483
 20
-12.899586
 30
0.0
 11
760.359679
 21
-12.899586
 31
0.0
  0
LINE
  5
1E7
100
AcDbEntity
  8
V0-VYPLNE
  6
CONTINUOUS
 62
    52
100
AcDbLine
 10
722.678483
 20
2.800914
 30
0.0
 11
760.359682
 21
2.800914
 31
0.0
  0
LINE
  5
1E8
100
AcDbEntity
  8
V0-VYPLNE
  6
CONTINUOUS
 62
    52
100
AcDbLine
 10
722.678483
 20
18.501414
 30
0.0
 11
760.359682
 21
18.501414
 31
0.0
  0
LINE
  5
1E9
100
AcDbEntity
  8
V0-VYPLNE
  6
CONTINUOUS
 62
    52
100
AcDbLine
 10
722.678483
 20
34.201915
 30
0.0
 11
760.359682
 21
34.201915
 31
0.0
  0
LINE
  5
1EA
100
AcDbEntity
  8
V0-VYPLNE
  6
CONTINUOUS
 62
    52
100
AcDbLine
 10
722.678483
 20
49.902415
 30
0.0
 11
760.359682
 21
49.902415
 31
0.0
  0
LINE
  5
1EB
100
AcDbEntity
  8
V0-VYPLNE
  6
CONTINUOUS
 62
    52
100
AcDbLine
 10
722.678482
 20
65.602915
 30
0.0
 11
760.359682
 21
65.602915
 31
0.0
  0
LINE
  5
1EC
100
AcDbEntity
  8
V0-VYPLNE
  6
CONTINUOUS
 62
    52
100
AcDbLine
 10
722.678482
 20
81.303415
 30
0.0
 11
760.359682
 21
81.303415
 31
0.0
  0
LINE
  5
1ED
100
AcDbEntity
  8
V0-VYPLNE
  6
CONTINUOUS
 62
    52
100
AcDbLine
 10
722.678482
 20
97.003916
 30
0.0
 11
760.359682
 21
97.003916
 31
0.0
  0
LINE
  5
1EE
100
AcDbEntity
  8
V0-VYPLNE
  6
CONTINUOUS
 62
    52
100
AcDbLine
 10
722.678482
 20
112.704416
 30
0.0
 11
760.359682
 21
112.704416
 31
0.0
  0
LINE
  5
1EF
100
AcDbEntity
  8
V0-VYPLNE
  6
CONTINUOUS
 62
    52
100
AcDbLine
 10
722.678482
 20
128.404916
 30
0.0
 11
760.359682
 21
128.404916
 31
0.0
  0
LINE
  5
1F0
100
AcDbEntity
  8
V0-OBRYS
  6
CONTINUOUS
 62
    90
100
AcDbLine
 10
722.678482
 20
144.105416
 30
0.0
 11
722.678482
 21
144.105416
 31
0.0
  0
LINE
  5
1F1
100
AcDbEntity
  8
V0-VYPLNE
  6
CONTINUOUS
 62
    52
100
AcDbLine
 10
722.678482
 20
144.105416
 30
0.0
 11
760.359682
 21
144.105416
 31
0.0
  0
LINE
  5
1F2
100
AcDbEntity
  8
V0-OBRYS
  6
CONTINUOUS
 62
    90
100
AcDbLine
 10
816.881482
 20
144.105416
 30
0.0
 11
817.185257
 21
144.177431
 31
0.0
  0
LINE
  5
1F3
100
AcDbEntity
  8
V0-OBRYS
  6
CONTINUOUS
 62
    90
100
AcDbLine
 10
817.185257
 20
144.177431
 30
0.0
 11
816.881482
 21
144.105416
 31
0.0
  0
LINE
  5
1F4
100
AcDbEntity
  8
V0-VYPLNE
  6
CONTINUOUS
 62
    52
100
AcDbLine
 10
816.881482
 20
144.105416
 30
0.0
 11
816.881482
 21
-155.441039
 31
0.0
  0
LINE
  5
1F6
100
AcDbEntity
  8
V0-VYPLNE
  6
CONTINUOUS
 62
    52
100
AcDbLine
 10
779.200281
 20
-162.389953
 30
0.0
 11
779.200281
 21
151.05433
 31
0.0
  0
LINE
  5
1F8
100
AcDbEntity
  8
V0-VYPLNE
  6
CONTINUOUS
 62
    52
100
AcDbLine
 10
816.881478
 20
-154.204088
 30
0.0
 11
779.200284
 21
-154.204088
 31
0.0
  0
LINE
  5
1F9
100
AcDbEntity
  8
V0-VYPLNE
  6
CONTINUOUS
 62
    52
100
AcDbLine
 10
816.881478
 20
-138.503588
 30
0.0
 11
779.200284
 21
-138.503588
 31
0.0
  0
LINE
  5
1FA
100
AcDbEntity
  8
V0-VYPLNE
  6
CONTINUOUS
 62
    52
100
AcDbLine
 10
816.881478
 20
-122.803088
 30
0.0
 11
779.200284
 21
-122.803088
 31
0.0
  0
LINE
  5
1FB
100
AcDbEntity
  8
V0-VYPLNE
  6
CONTINUOUS
 62
    52
100
AcDbLine
 10
816.881479
 20
-107.102587
 30
0.0
 11
779.200284
 21
-107.102587
 31
0.0
  0
LINE
  5
1FC
100
AcDbEntity
  8
V0-VYPLNE
  6
CONTINUOUS
 62
    52
100
AcDbLine
 10
816.881479
 20
-91.402087
 30
0.0
 11
779.200284
 21
-91.402087
 31
0.0
  0
LINE
  5
1FD
100
AcDbEntity
  8
V0-VYPLNE
  6
CONTINUOUS
 62
    52
100
AcDbLine
 10
816.881479
 20
-75.701587
 30
0.0
 11
779.200284
 21
-75.701587
 31
0.0
  0
LINE
  5
1FE
100
AcDbEntity
  8
V0-VYPLNE
  6
CONTINUOUS
 62
    52
100
AcDbLine
 10
816.881479
 20
-60.001087
 30
0.0
 11
779.200284
 21
-60.001087
 31
0.0
  0
LINE
  5
1FF
100
AcDbEntity
  8
V0-VYPLNE
  6
CONTINUOUS
 62
    52
100
AcDbLine
 10
816.881479
 20
-44.300586
 30
0.0
 11
779.200284
 21
-44.300586
 31
0.0
  0
LINE
  5
200
100
AcDbEntity
  8
V0-VYPLNE
  6
CONTINUOUS
 62
    52
100
AcDbLine
 10
816.88148
 20
-28.600086
 30
0.0
 11
779.200284
 21
-28.600086
 31
0.0
  0
LINE
  5
201
100
AcDbEntity
  8
V0-VYPLNE
  6
CONTINUOUS
 62
    52
100
AcDbLine
 10
816.88148
 20
-12.899586
 30
0.0
 11
779.200284
 21
-12.899586
 31
0.0
  0
LINE
  5
202
100
AcDbEntity
  8
V0-VYPLNE
  6
CONTINUOUS
 62
    52
100
AcDbLine
 10
816.88148
 20
2.800914
 30
0.0
 11
779.200281
 21
2.800914
 31
0.0
  0
LINE
  5
203
100
AcDbEntity
  8
V0-VYPLNE
  6
CONTINUOUS
 62
    52
100
AcDbLine
 10
816.88148
 20
18.501414
 30
0.0
 11
779.200281
 21
18.501414
 31
0.0
  0
LINE
  5
204
100
AcDbEntity
  8
V0-VYPLNE
  6
CONTINUOUS
 62
    52
100
AcDbLine
 10
816.88148
 20
34.201915
 30
0.0
 11
779.200281
 21
34.201915
 31
0.0
  0
LINE
  5
205
100
AcDbEntity
  8
V0-VYPLNE
  6
CONTINUOUS
 62
    52
100
AcDbLine
 10
816.88148
 20
49.902415
 30
0.0
 11
779.200281
 21
49.902415
 31
0.0
  0
LINE
  5
206
100
AcDbEntity
  8
V0-VYPLNE
  6
CONTINUOUS
 62
    52
100
AcDbLine
 10
816.881481
 20
65.602915
 30
0.0
 11
779.200281
 21
65.602915
 31
0.0
  0
LINE
  5
207
100
AcDbEntity
  8
V0-VYPLNE
  6
CONTINUOUS
 62
    52
100
AcDbLine
 10
816.881481
 20
81.303415
 30
0.0
 11
779.200281
 21
81.303415
 31
0.0
  0
LINE
  5
208
100
AcDbEntity
  8
V0-VYPLNE
  6
CONTINUOUS
 62
    52
100
AcDbLine
 10
816.881481
 20
97.003916
 30
0.0
 11
779.200281
 21
97.003916
 31
0.0
  0
LINE
  5
209
100
AcDbEntity
  8
V0-VYPLNE
  6
CONTINUOUS
 62
    52
100
AcDbLine
 10
816.881481
 20
112.704416
 30
0.0
 11
779.200281
 21
112.704416
 31
0.0
  0
LINE
  5
20A
100
AcDbEntity
  8
V0-VYPLNE
  6
CONTINUOUS
 62
    52
100
AcDbLine
 10
816.881481
 20
128.404916
 30
0.0
 11
779.200281
 21
128.404916
 31
0.0
  0
LINE
  5
20B
100
AcDbEntity
  8
V0-OBRYS
  6
CONTINUOUS
 62
    90
100
AcDbLine
 10
816.881482
 20
144.105416
 30
0.0
 11
816.881482
 21
144.105416
 31
0.0
  0
LINE
  5
20C
100
AcDbEntity
  8
V0-VYPLNE
  6
CONTINUOUS
 62
    52
100
AcDbLine
 10
816.881482
 20
144.105416
 30
0.0
 11
779.200281
 21
144.105416
 31
0.0
  0
LINE
  5
20D
100
AcDbEntity
  8
V0-VYPLNE
  6
CONTINUOUS
 62
    52
100
AcDbLine
 10
873.403258
 20
112.284636
 30
0.0
 11
873.403258
 21
-123.620267
 31
0.0
  0
LINE
  5
20F
100
AcDbEntity
  8
V0-VYPLNE
  6
CONTINUOUS
 62
    52
100
AcDbLine
 10
835.722057
 20
-148.15364
 30
0.0
 11
835.722057
 21
136.818009
 31
0.0
  0
LINE
  5
211
100
AcDbEntity
  8
V0-VYPLNE
  6
CONTINUOUS
 62
    52
100
AcDbLine
 10
849.898996
 20
-138.923368
 30
0.0
 11
835.722042
 21
-138.923368
 31
0.0
  0
LINE
  5
212
100
AcDbEntity
  8
V0-VYPLNE
  6
CONTINUOUS
 62
    52
100
AcDbLine
 10
873.403255
 20
-123.222867
 30
0.0
 11
835.722045
 21
-123.222867
 31
0.0
  0
LINE
  5
213
100
AcDbEntity
  8
V0-VYPLNE
  6
CONTINUOUS
 62
    52
100
AcDbLine
 10
873.403255
 20
-107.522367
 30
0.0
 11
835.722045
 21
-107.522367
 31
0.0
  0
LINE
  5
214
100
AcDbEntity
  8
V0-VYPLNE
  6
CONTINUOUS
 62
    52
100
AcDbLine
 10
873.403255
 20
-91.821867
 30
0.0
 11
835.722045
 21
-91.821867
 31
0.0
  0
LINE
  5
215
100
AcDbEntity
  8
V0-VYPLNE
  6
CONTINUOUS
 62
    52
100
AcDbLine
 10
873.403255
 20
-76.121367
 30
0.0
 11
835.722045
 21
-76.121367
 31
0.0
  0
LINE
  5
216
100
AcDbEntity
  8
V0-VYPLNE
  6
CONTINUOUS
 62
    52
100
AcDbLine
 10
873.403256
 20
-60.420866
 30
0.0
 11
835.722048
 21
-60.420866
 31
0.0
  0
LINE
  5
217
100
AcDbEntity
  8
V0-VYPLNE
  6
CONTINUOUS
 62
    52
100
AcDbLine
 10
873.403256
 20
-44.720366
 30
0.0
 11
835.722048
 21
-44.720366
 31
0.0
  0
LINE
  5
218
100
AcDbEntity
  8
V0-VYPLNE
  6
CONTINUOUS
 62
    52
100
AcDbLine
 10
873.403256
 20
-29.019866
 30
0.0
 11
835.722048
 21
-29.019866
 31
0.0
  0
LINE
  5
219
100
AcDbEntity
  8
V0-VYPLNE
  6
CONTINUOUS
 62
    52
100
AcDbLine
 10
873.403256
 20
-13.319366
 30
0.0
 11
835.722048
 21
-13.319366
 31
0.0
  0
LINE
  5
21A
100
AcDbEntity
  8
V0-VYPLNE
  6
CONTINUOUS
 62
    52
100
AcDbLine
 10
873.403256
 20
2.381135
 30
0.0
 11
835.722048
 21
2.381135
 31
0.0
  0
LINE
  5
21B
100
AcDbEntity
  8
V0-VYPLNE
  6
CONTINUOUS
 62
    52
100
AcDbLine
 10
873.403256
 20
18.081635
 30
0.0
 11
835.722051
 21
18.081635
 31
0.0
  0
LINE
  5
21C
100
AcDbEntity
  8
V0-VYPLNE
  6
CONTINUOUS
 62
    52
100
AcDbLine
 10
873.403257
 20
33.782135
 30
0.0
 11
835.722051
 21
33.782135
 31
0.0
  0
LINE
  5
21D
100
AcDbEntity
  8
V0-VYPLNE
  6
CONTINUOUS
 62
    52
100
AcDbLine
 10
873.403257
 20
49.482635
 30
0.0
 11
835.722051
 21
49.482635
 31
0.0
  0
LINE
  5
21E
100
AcDbEntity
  8
V0-VYPLNE
  6
CONTINUOUS
 62
    52
100
AcDbLine
 10
873.403257
 20
65.183135
 30
0.0
 11
835.722051
 21
65.183135
 31
0.0
  0
LINE
  5
21F
100
AcDbEntity
  8
V0-VYPLNE
  6
CONTINUOUS
 62
    52
100
AcDbLine
 10
873.403257
 20
80.883636
 30
0.0
 11
835.722057
 21
80.883636
 31
0.0
  0
LINE
  5
220
100
AcDbEntity
  8
V0-VYPLNE
  6
CONTINUOUS
 62
    52
100
AcDbLine
 10
873.403257
 20
96.584136
 30
0.0
 11
835.722057
 21
96.584136
 31
0.0
  0
LINE
  5
221
100
AcDbEntity
  8
V0-VYPLNE
  6
CONTINUOUS
 62
    52
100
AcDbLine
 10
873.403258
 20
112.284636
 30
0.0
 11
835.722057
 21
112.284636
 31
0.0
  0
LINE
  5
222
100
AcDbEntity
  8
V0-VYPLNE
  6
CONTINUOUS
 62
    52
100
AcDbLine
 10
849.288607
 20
127.985136
 30
0.0
 11
835.722057
 21
127.985136
 31
0.0
  0
LINE
  5
227
100
AcDbEntity
  8
V0-VYPLNE
  6
CONTINUOUS
 62
    52
100
AcDbLine
 10
892.243929
 20
-103.918337
 30
0.0
 11
892.243929
 21
92.582685
 31
0.0
  0
LINE
  5
228
100
AcDbEntity
  8
V0-VYPLNE
  6
CONTINUOUS
 62
    52
100
AcDbLine
 10
896.821548
 20
-95.823317
 30
0.0
 11
892.243927
 21
-95.823317
 31
0.0
  0
LINE
  5
229
100
AcDbEntity
  8
V0-VYPLNE
  6
CONTINUOUS
 62
    52
100
AcDbLine
 10
905.699963
 20
-80.122817
 30
0.0
 11
892.243927
 21
-80.122817
 31
0.0
  0
LINE
  5
22A
100
AcDbEntity
  8
V0-VYPLNE
  6
CONTINUOUS
 62
    52
100
AcDbLine
 10
914.578375
 20
-64.422317
 30
0.0
 11
892.243928
 21
-64.422317
 31
0.0
  0
LINE
  5
22B
100
AcDbEntity
  8
V0-VYPLNE
  6
CONTINUOUS
 62
    52
100
AcDbLine
 10
920.062909
 20
-48.721817
 30
0.0
 11
892.243928
 21
-48.721817
 31
0.0
  0
LINE
  5
22C
100
AcDbEntity
  8
V0-VYPLNE
  6
CONTINUOUS
 62
    52
100
AcDbLine
 10
922.514264
 20
-33.021316
 30
0.0
 11
892.243928
 21
-33.021316
 31
0.0
  0
LINE
  5
22D
100
AcDbEntity
  8
V0-VYPLNE
  6
CONTINUOUS
 62
    52
100
AcDbLine
 10
924.965623
 20
-17.320816
 30
0.0
 11
892.243928
 21
-17.320816
 31
0.0
  0
LINE
  5
22E
100
AcDbEntity
  8
V0-VYPLNE
  6
CONTINUOUS
 62
    52
100
AcDbLine
 10
926.026603
 20
-1.620316
 30
0.0
 11
892.243928
 21
-1.620316
 31
0.0
  0
LINE
  5
22F
100
AcDbEntity
  8
V0-VYPLNE
  6
CONTINUOUS
 62
    52
100
AcDbLine
 10
923.084655
 20
14.080184
 30
0.0
 11
892.243929
 21
14.080184
 31
0.0
  0
LINE
  5
230
100
AcDbEntity
  8
V0-VYPLNE
  6
CONTINUOUS
 62
    52
100
AcDbLine
 10
920.14271
 20
29.780685
 30
0.0
 11
892.243929
 21
29.780685
 31
0.0
  0
LINE
  5
231
100
AcDbEntity
  8
V0-VYPLNE
  6
CONTINUOUS
 62
    52
100
AcDbLine
 10
917.200765
 20
45.481185
 30
0.0
 11
892.243929
 21
45.481185
 31
0.0
  0
LINE
  5
232
100
AcDbEntity
  8
V0-VYPLNE
  6
CONTINUOUS
 62
    52
100
AcDbLine
 10
910.75184
 20
61.181685
 30
0.0
 11
892.243929
 21
61.181685
 31
0.0
  0
LINE
  5
233
100
AcDbEntity
  8
V0-VYPLNE
  6
CONTINUOUS
 62
    52
100
AcDbLine
 10
901.497885
 20
76.882185
 30
0.0
 11
892.243929
 21
76.882185
 31
0.0
  0
DIMENSION
  5
26E
100
AcDbEntity
  8
V0-VYPLNE
  6
CONTINUOUS
 62
    52
100
AcDbDimension
  2
*D1
 10
1022.640395
 20
-235.667815
 30
0.0
 11
1007.140395
 21
-5.667815
 31
0.0
 70
    32
  3
STANDARD
100
AcDbAlignedDimension
 13
975.529982
 23
224.332185
 33
0.0
 14
973.154982
 24
-235.667815
 34
0.0
 50
90.0
100
AcDbRotatedDimension
1001
ACAD
1000
DSTYLE
1002
{
1070
    78
1070
     8
1070
   140
1040
25.0
1070
    74
1070
     0
1070
    73
1070
     0
1070
    77
1070
     1
1070
   173
1070
     1
1070
   147
1040
3.0
1070
    42
1040
0.625
1070
    44
1040
1.25
1070
    43
1040
3.75
1070
   271
1070
     0
1070
   141
1040
2.5
1070
     7
1000
_OPEN
1070
     6
1000
_OPEN
1070
    41
1040
25.0
1070
   273
1070
     8
1070
   274
1070
     4
1070
   143
1040
0.0394
1070
   171
1070
     4
1002
}
  0
DIMENSION
  5
286
100
AcDbEntity
  8
V0-VYPLNE
  6
CONTINUOUS
 62
    52
100
AcDbDimension
  2
*D2
 10
952.279982
 20
253.104542
 30
0.0
 11
769.779982
 21
268.604542
 31
0.0
 70
    32
  3
STANDARD
100
AcDbAlignedDimension
 13
587.279982
 23
205.747605
 33
0.0
 14
952.279982
 24
205.747605
 34
0.0
100
AcDbRotatedDimension
1001
ACAD
1000
DSTYLE
1002
{
1070
    78
1070
     8
1070
   140
1040
25.0
1070
    74
1070
     0
1070
    73
1070
     0
1070
    77
1070
     1
1070
   173
1070
     1
1070
   147
1040
3.0
1070
    42
1040
0.625
1070
    44
1040
1.25
1070
    43
1040
3.75
1070
   271
1070
     0
1070
   141
1040
2.5
1070
     7
1000
_OPEN
1070
     6
1000
_OPEN
1070
    41
1040
25.0
1070
   273
1070
     8
1070
   274
1070
     4
1070
   143
1040
0.0394
1070
   171
1070
     4
1002
}
  0
LINE
  5
6A2
100
AcDbEntity
  8
V0-OBRYS
  6
CONTINUOUS
 62
    90
100
AcDbLine
 10
565.779982
 20
-5.667815
 30
0.0
 11
566.092777
 21
215.310868
 31
0.0
  0
LINE
  5
6C9
100
AcDbEntity
  8
V0-OBRYS
  6
CONTINUOUS
 62
    90
100
AcDbLine
 10
963.154982
 20
-225.667815
 30
0.0
 11
963.154982
 21
213.929574
 31
0.0
  0
LINE
  5
70A
100
AcDbEntity
  8
V0-OBRYS
  6
CONTINUOUS
 62
    90
100
AcDbLine
 10
565.779982
 20
-235.667815
 30
0.0
 11
565.779982
 21
-5.667815
 31
0.0
  0
LINE
  5
70B
100
AcDbEntity
  8
V0-OBRYS
  6
CONTINUOUS
 62
    90
100
AcDbLine
 10
973.779982
 20
-235.667815
 30
0.0
 11
973.779982
 21
213.929574
 31
0.0
  0
POINT
  5
734
100
AcDbEntity
  8
V0-VYPLNE
  6
CONTINUOUS
 62
    52
100
AcDbPoint
 10
95.0
 20
-613.766598
 30
0.0
  0
POINT
  5
735
100
AcDbEntity
  8
V0-VYPLNE
  6
CONTINUOUS
 62
    52
100
AcDbPoint
 10
90.0
 20
0.0
 30
0.0
  0
POINT
  5
736
100
AcDbEntity
  8
V0-VYPLNE
  6
CONTINUOUS
 62
    52
100
AcDbPoint
 10
769.779982
 20
-5.667815
 30
0.0
  0
LINE
  5
8FE
100
AcDbEntity
  8
V0-OBRYS
  6
CONTINUOUS
 62
    90
100
AcDbLine
 10
90.0
 20
-235.667815
 30
0.0
 11
390.0
 21
-235.667815
 31
0.0
  0
LINE
  5
8FF
100
AcDbEntity
  8
V0-OBRYS
  6
CONTINUOUS
 62
    90
100
AcDbLine
 10
576.092777
 20
-225.667815
 30
0.0
 11
963.154982
 21
-225.667815
 31
0.0
  0
DIMENSION
  5
90C
100
AcDbEntity
  8
V0-VYPLNE
  6
CONTINUOUS
 62
    52
100
AcDbDimension
  2
*D3
 10
973.779982
 20
-283.234547
 30
0.0
 11
769.779982
 21
-267.734547
 31
0.0
 70
    32
  3
STANDARD
100
AcDbAlignedDimension
 13
565.779982
 23
-235.667815
 33
0.0
 14
973.779982
 24
-235.667815
 34
0.0
100
AcDbRotatedDimension
1001
ACAD
1000
DSTYLE
1002
{
1070
    78
1070
     8
1070
   140
1040
25.0
1070
    74
1070
     0
1070
    73
1070
     0
1070
    77
1070
     1
1070
   173
1070
     1
1070
   147
1040
3.0
1070
    42
1040
0.625
1070
    44
1040
1.25
1070
    43
1040
3.75
1070
   271
1070
     1
1070
   141
1040
2.5
1070
     7
1000
_OPEN
1070
     6
1000
_OPEN
1070
    41
1040
25.0
1070
   273
1070
     8
1070
   274
1070
     4
1070
   143
1040
0.0394
1070
   171
1070
     4
1002
}
  0
LINE
  5
923
100
AcDbEntity
  8
V0-VYPLNE
  6
DASHDOT
 62
    63
 48
20.0
100
AcDbLine
 10
40.515052
 20
194.332185
 30
0.0
 11
97.765012
 21
194.332185
 31
0.0
  0
LINE
  5
924
100
AcDbEntity
  8
V0-VYPLNE
  6
DASHDOT
 62
    63
 48
20.0
100
AcDbLine
 10
939.411796
 20
194.332185
 30
0.0
 11
963.154982
 21
194.332185
 31
0.0
  0
LINE
  5
926
100
AcDbEntity
  8
V0-OBRYS
  6
CONTINUOUS
 62
    90
100
AcDbLine
 10
390.0
 20
-818.523968
 30
0.0
 11
95.0
 21
-818.523968
 31
0.0
  0
LINE
  5
927
100
AcDbEntity
  8
V0-OBRYS
  6
CONTINUOUS
 62
    90
100
AcDbLine
 10
69.130844
 20
-774.890652
 30
0.0
 11
69.130844
 21
-614.069363
 31
0.0
  0
LINE
  5
928
100
AcDbEntity
  8
V0-OBRYS
  6
CONTINUOUS
 62
    90
100
AcDbLine
 10
64.345802
 20
-614.170285
 30
0.0
 11
64.345802
 21
-774.890652
 31
0.0
  0
LINE
  5
929
100
AcDbEntity
  8
V0-OBRYS
  6
CONTINUOUS
 62
    90
100
AcDbLine
 10
55.0
 20
-614.170285
 30
0.0
 11
55.0
 21
-771.670285
 31
0.0
  0
LINE
  5
92A
100
AcDbEntity
  8
V0-OBRYS
  6
CONTINUOUS
 62
    90
100
AcDbLine
 10
95.0
 20
-818.170285
 30
0.0
 11
95.0
 21
-614.170285
 31
0.0
  0
LINE
  5
92B
100
AcDbEntity
  8
V0-OBRYS
  6
CONTINUOUS
 62
    90
100
AcDbLine
 10
64.345802
 20
-774.890652
 30
0.0
 11
69.130844
 21
-774.890652
 31
0.0
  0
LINE
  5
92F
100
AcDbEntity
  8
V0-OBRYS
  6
CONTINUOUS
 62
    90
100
AcDbLine
 10
64.358932
 20
-771.670285
 30
0.0
 11
55.0
 21
-771.670285
 31
0.0
  0
LINE
  5
931
100
AcDbEntity
  8
V0-OBRYS
  6
CONTINUOUS
 62
    90
100
AcDbLine
 10
69.146248
 20
-771.670285
 30
0.0
 11
95.0
 21
-771.670285
 31
0.0
  0
LINE
  5
932
100
AcDbEntity
  8
V0-OBRYS
  6
CONTINUOUS
 62
    90
100
AcDbLine
 10
409.869141
 20
-774.890652
 30
0.0
 11
409.869141
 21
-614.069394
 31
0.0
  0
LINE
  5
933
100
AcDbEntity
  8
V0-OBRYS
  6
CONTINUOUS
 62
    90
100
AcDbLine
 10
414.654205
 20
-614.170285
 30
0.0
 11
414.654205
 21
-774.890652
 31
0.0
  0
LINE
  5
934
100
AcDbEntity
  8
V0-OBRYS
  6
CONTINUOUS
 62
    90
100
AcDbLine
 10
424.0
 20
-614.170285
 30
0.0
 11
424.0
 21
-771.670285
 31
0.0
  0
LINE
  5
935
100
AcDbEntity
  8
V0-OBRYS
  6
CONTINUOUS
 62
    90
100
AcDbLine
 10
390.0
 20
-818.170285
 30
0.0
 11
390.0
 21
-614.170285
 31
0.0
  0
LINE
  5
936
100
AcDbEntity
  8
V0-OBRYS
  6
CONTINUOUS
 62
    90
100
AcDbLine
 10
414.654205
 20
-774.890652
 30
0.0
 11
409.869141
 21
-774.890652
 31
0.0
  0
LINE
  5
937
100
AcDbEntity
  8
V0-OBRYS
  6
CONTINUOUS
 62
    90
100
AcDbLine
 10
409.85376
 20
-771.670285
 30
0.0
 11
390.0
 21
-771.670285
 31
0.0
  0
LINE
  5
938
100
AcDbEntity
  8
V0-OBRYS
  6
CONTINUOUS
 62
    90
100
AcDbLine
 10
414.641052
 20
-771.670285
 30
0.0
 11
424.0
 21
-771.670285
 31
0.0
  0
LINE
  5
95A
100
AcDbEntity
  8
V0-OBRYS
  6
CONTINUOUS
 62
    90
100
AcDbLine
 10
50.0
 20
0.0
 30
0.0
 11
50.0
 21
-157.5
 31
0.0
  0
LINE
  5
95B
100
AcDbEntity
  8
V0-OBRYS
  6
CONTINUOUS
 62
    90
100
AcDbLine
 10
59.345802
 20
0.0
 30
0.0
 11
59.345802
 21
-160.720367
 31
0.0
  0
LINE
  5
95C
100
AcDbEntity
  8
V0-OBRYS
  6
CONTINUOUS
 62
    90
100
AcDbLine
 10
64.130844
 20
-160.720367
 30
0.0
 11
64.130844
 21
0.100907
 31
0.0
  0
LINE
  5
95D
100
AcDbEntity
  8
V0-OBRYS
  6
CONTINUOUS
 62
    90
100
AcDbLine
 10
90.0
 20
0.0
 30
0.0
 11
90.0
 21
-235.667815
 31
0.0
  0
LINE
  5
95E
100
AcDbEntity
  8
V0-OBRYS
  6
CONTINUOUS
 62
    90
100
AcDbLine
 10
64.146248
 20
-157.5
 30
0.0
 11
90.0
 21
-157.5
 31
0.0
  0
LINE
  5
95F
100
AcDbEntity
  8
V0-OBRYS
  6
CONTINUOUS
 62
    90
100
AcDbLine
 10
59.358932
 20
-157.5
 30
0.0
 11
50.0
 21
-157.5
 31
0.0
  0
LINE
  5
960
100
AcDbEntity
  8
V0-OBRYS
  6
CONTINUOUS
 62
    90
100
AcDbLine
 10
59.345802
 20
-160.720367
 30
0.0
 11
64.130844
 21
-160.720367
 31
0.0
  0
LINE
  5
961
100
AcDbEntity
  8
V0-OBRYS
  6
CONTINUOUS
 62
    90
100
AcDbLine
 10
429.0
 20
0.0
 30
0.0
 11
429.0
 21
-157.5
 31
0.0
  0
LINE
  5
962
100
AcDbEntity
  8
V0-OBRYS
  6
CONTINUOUS
 62
    90
100
AcDbLine
 10
419.654205
 20
0.0
 30
0.0
 11
419.654205
 21
-160.720367
 31
0.0
  0
LINE
  5
963
100
AcDbEntity
  8
V0-OBRYS
  6
CONTINUOUS
 62
    90
100
AcDbLine
 10
414.869141
 20
-160.720367
 30
0.0
 11
414.869141
 21
0.100906
 31
0.0
  0
LINE
  5
964
100
AcDbEntity
  8
V0-OBRYS
  6
CONTINUOUS
 62
    90
100
AcDbLine
 10
414.85376
 20
-157.5
 30
0.0
 11
390.0
 21
-157.5
 31
0.0
  0
LINE
  5
965
100
AcDbEntity
  8
V0-OBRYS
  6
CONTINUOUS
 62
    90
100
AcDbLine
 10
419.641052
 20
-157.5
 30
0.0
 11
429.0
 21
-157.5
 31
0.0
  0
LINE
  5
966
100
AcDbEntity
  8
V0-OBRYS
  6
CONTINUOUS
 62
    90
100
AcDbLine
 10
419.654205
 20
-160.720367
 30
0.0
 11
414.869141
 21
-160.720367
 31
0.0
  0
LINE
  5
969
100
AcDbEntity
  8
V0-OBRYS
  6
CONTINUOUS
 62
    90
100
AcDbLine
 10
390.0
 20
-235.667815
 30
0.0
 11
390.0
 21
213.604243
 31
0.0
  0
LINE
  5
96A
100
AcDbEntity
  8
V0-OBRYS
  6
CONTINUOUS
 62
    90
100
AcDbLine
 10
565.779982
 20
-235.667815
 30
0.0
 11
973.779982
 21
-235.667815
 31
0.0
  0
DIMENSION
  5
984
100
AcDbEntity
  8
V0-VYPLNE
  6
CONTINUOUS
 62
    52
100
AcDbDimension
  2
*D4
 10
481.479036
 20
-157.5
 30
0.0
 11
465.979036
 21
0.0
 31
0.0
 70
    32
  1
%%c<>
  3
STANDARD
100
AcDbAlignedDimension
 13
429.0
 23
157.5
 33
0.0
 14
429.0
 24
-157.5
 34
0.0
 50
90.0
100
AcDbRotatedDimension
1001
ACAD
1000
DSTYLE
1002
{
1070
    78
1070
     8
1070
   140
1040
25.0
1070
    74
1070
     0
1070
    73
1070
     0
1070
    77
1070
     1
1070
   173
1070
     1
1070
   147
1040
3.0
1070
    42
1040
0.625
1070
    44
1040
1.25
1070
    43
1040
3.75
1070
   271
1070
     1
1070
   141
1040
2.5
1070
     7
1000
_OPEN
1070
     6
1000
_OPEN
1070
    41
1040
25.0
1070
   273
1070
     8
1070
   274
1070
     4
1070
   143
1040
0.0394
1070
   171
1070
     4
1002
}
  0
DIMENSION
  5
991
100
AcDbEntity
  8
V0-VYPLNE
  6
CONTINUOUS
 62
    52
100
AcDbDimension
  2
*D5
 10
522.269991
 20
-235.667815
 30
0.0
 11
506.769991
 21
-5.657066
 31
0.0
 70
    32
  3
STANDARD
100
AcDbAlignedDimension
 13
395.0
 23
224.353683
 33
0.0
 14
390.0
 24
-235.667815
 34
0.0
 50
90.0
100
AcDbRotatedDimension
1001
ACAD
1000
DSTYLE
1002
{
1070
    78
1070
     8
1070
   140
1040
25.0
1070
    74
1070
     0
1070
    73
1070
     0
1070
    77
1070
     1
1070
   173
1070
     1
1070
   147
1040
3.0
1070
    42
1040
0.625
1070
    44
1040
1.25
1070
    43
1040
3.75
1070
   271
1070
     1
1070
   141
1040
2.5
1070
     7
1000
_OPEN
1070
     6
1000
_OPEN
1070
    41
1040
25.0
1070
   273
1070
     8
1070
   274
1070
     4
1070
   143
1040
0.0394
1070
   171
1070
     4
1002
}
  0
DIMENSION
  5
A00
100
AcDbEntity
  8
V0-VYPLNE
  6
CONTINUOUS
 62
    52
100
AcDbDimension
  2
*D6
 10
429.625
 20
-323.76832
 30
0.0
 11
240.3125
 21
-323.76832
 31
0.0
 70
   160
  3
STANDARD
100
AcDbAlignedDimension
 13
50.0
 23
-157.5
 33
0.0
 14
429.625
 24
-157.5
 34
0.0
100
AcDbRotatedDimension
1001
ACAD
1000
DSTYLE
1002
{
1070
    78
1070
     8
1070
   140
1040
25.0
1070
    74
1070
     0
1070
    73
1070
     0
1070
    77
1070
     1
1070
   173
1070
     1
1070
   147
1040
3.0
1070
    42
1040
0.625
1070
    44
1040
1.25
1070
    43
1040
3.75
1070
   271
1070
     0
1070
   141
1040
2.5
1070
     7
1000
_OPEN
1070
     6
1000
_OPEN
1070
    41
1040
25.0
1070
   273
1070
     8
1070
   274
1070
     4
1070
   143
1040
0.0394
1070
   171
1070
     4
1002
}
  0
DIMENSION
  5
A24
100
AcDbEntity
  8
V0-VYPLNE
  6
CONTINUOUS
 62
    52
100
AcDbDimension
  2
*D7
 10
90.0
 20
-279.08512
 30
0.0
 11
70.0
 21
-279.08512
 31
0.0
 70
   160
  3
STANDARD
100
AcDbAlignedDimension
 13
50.0
 23
-157.5
 33
0.0
 14
90.0
 24
-235.667815
 34
0.0
100
AcDbRotatedDimension
1001
ACAD
1000
DSTYLE
1002
{
1070
    78
1070
     8
1070
   140
1040
25.0
1070
    74
1070
     0
1070
    73
1070
     0
1070
    77
1070
     1
1070
   173
1070
     1
1070
   147
1040
3.0
1070
    42
1040
0.625
1070
    44
1040
1.25
1070
    43
1040
3.75
1070
   271
1070
     0
1070
   141
1040
2.5
1070
     7
1000
_OPEN
1070
     6
1000
_OPEN
1070
    41
1040
25.0
1070
   273
1070
     8
1070
   274
1070
     4
1070
   143
1040
0.0394
1070
   171
1070
     4
1002
}
  0
CIRCLE
  5
AB2
100
AcDbEntity
  8
V0-OBRYS
  6
CONTINUOUS
 62
    90
100
AcDbCircle
 10
952.279982
 20
194.332185
 30
0.0
 40
11.0
  0
CIRCLE
  5
AB3
100
AcDbEntity
  8
V0-OBRYS
  6
CONTINUOUS
 62
    90
100
AcDbCircle
 10
587.279982
 20
194.332185
 30
0.0
 40
11.0
  0
LEADER
  5
AB4
100
AcDbEntity
  8
V0-VYPLNE
  6
CONTINUOUS
 62
    52
100
AcDbLeader
  3
STANDARD
 73
     0
 75
     1
 40
25.0
 41
66.666667
 76
     3
 10
580.338743
 20
203.269616
 30
0.0
 10
559.623547
 20
242.529396
 30
0.0
 10
534.623547
 20
242.529396
 30
0.0
 77
    52
340
AB5
1001
ACAD
1000
DSTYLE
1002
{
1070
    78
1070
     8
1070
   140
1040
25.0
1070
    74
1070
     0
1070
    73
1070
     0
1070
    77
1070
     1
1070
   173
1070
     1
1070
   147
1040
3.0
1070
    42
1040
0.625
1070
    44
1040
1.25
1070
    43
1040
3.75
1070
   271
1070
     0
1070
   141
1040
2.5
1070
     7
1000
_OPEN
1070
     6
1000
_OPEN
1070
    41
1040
25.0
1070
   273
1070
     8
1070
   274
1070
     4
1070
   143
1040
0.0394
1070
   171
1070
     4
1002
}
  0
MTEXT
  5
AB5
102
{ACAD_REACTORS
330
AB4
102
}
100
AcDbEntity
  8
V0-VYPLNE
  6
CONTINUOUS
 62
    52
100
AcDbMText
 10
531.623547
 20
258.029396
 30
0.0
 40
25.0
 41
0.0
 71
     6
 72
     1
  1
\A1;%%c22
  0
LINE
  5
ADB
100
AcDbEntity
  8
V0-VYPLNE
  6
DASHDOT
 62
    63
 48
20.0
100
AcDbLine
 10
570.781063
 20
194.332185
 30
0.0
 11
602.890423
 21
194.332185
 31
0.0
  0
MLINE
  5
AE2
100
AcDbEntity
  8
V0-OBRYS
  6
CONTINUOUS
 62
    90
100
AcDbMline
  2
STANDARD
340
1C
 40
22.0
 70
     1
 71
     1
 72
     2
 73
     2
 10
90.0
 20
194.3321848118305
 30
0.0
210
0.0
220
0.0
230
1.0
 11
90.0
 21
194.3321848118305
 31
0.0
 12
-1.0
 22
0.0
 32
0.0
 13
-2.220446049250313E-16
 23
-1.0
 33
0.0
 74
     2
 41
11.0
 41
0.0
 75
     0
 74
     2
 41
-11.0
 41
0.0
 75
     0
 11
40.60083366321214
 21
194.3321848118305
 31
0.0
 12
-1.0
 22
0.0
 32
0.0
 13
-2.220446049250313E-16
 23
-1.0
 33
0.0
 74
     2
 41
11.0
 41
0.0
 75
     0
 74
     2
 41
-11.0
 41
0.0
 75
     0
  0
LINE
  5
AE3
100
AcDbEntity
  8
V0-OBRYS
  6
CONTINUOUS
 62
    90
100
AcDbLine
 10
40.600834
 20
205.332185
 30
0.0
 11
40.600834
 21
183.332185
 31
0.0
  0
LINE
  5
AE4
100
AcDbEntity
  8
V0-OBRYS
  6
CONTINUOUS
 62
    90
100
AcDbLine
 10
45.600834
 20
-420.468442
 30
0.0
 11
45.600834
 21
-442.468442
 31
0.0
  0
MLINE
  5
AE5
100
AcDbEntity
  8
V0-OBRYS
  6
CONTINUOUS
 62
    90
100
AcDbMline
  2
STANDARD
340
1C
 40
22.0
 70
     1
 71
     1
 72
     2
 73
     2
 10
95.0
 20
-431.4684415448591
 30
0.0
210
0.0
220
0.0
230
1.0
 11
95.0
 21
-431.4684415448591
 31
0.0
 12
-1.0
 22
0.0
 32
0.0
 13
-2.220446049250313E-16
 23
-1.0
 33
0.0
 74
     2
 41
11.0
 41
0.0
 75
     0
 74
     2
 41
-11.0
 41
0.0
 75
     0
 11
45.60083366321214
 21
-431.4684415448591
 31
0.0
 12
-1.0
 22
0.0
 32
0.0
 13
-2.220446049250313E-16
 23
-1.0
 33
0.0
 74
     2
 41
11.0
 41
0.0
 75
     0
 74
     2
 41
-11.0
 41
0.0
 75
     0
  0
LINE
  5
AE6
100
AcDbEntity
  8
V0-VYPLNE
  6
DASHDOT
 62
    63
 48
20.0
100
AcDbLine
 10
45.515052
 20
-431.468442
 30
0.0
 11
102.765012
 21
-431.468442
 31
0.0
  0
LINE
  5
AE7
100
AcDbEntity
  8
V0-VYPLNE
  6
DASHDOT
 62
    63
 48
20.0
100
AcDbLine
 10
45.515052
 20
-796.468442
 30
0.0
 11
102.765012
 21
-796.468442
 31
0.0
  0
MLINE
  5
AE8
100
AcDbEntity
  8
V0-OBRYS
  6
CONTINUOUS
 62
    90
100
AcDbMline
  2
STANDARD
340
1C
 40
-22.0
 70
     1
 71
     1
 72
     2
 73
     2
 10
95.0
 20
-796.4684415448592
 30
0.0
210
0.0
220
0.0
230
1.0
 11
95.0
 21
-796.4684415448592
 31
0.0
 12
-1.0
 22
0.0
 32
0.0
 13
-2.220446049250313E-16
 23
1.0
 33
0.0
 74
     2
 41
11.0
 41
0.0
 75
     0
 74
     2
 41
-11.0
 41
0.0
 75
     0
 11
45.60083366321214
 21
-796.4684415448592
 31
0.0
 12
-1.0
 22
0.0
 32
0.0
 13
-2.220446049250313E-16
 23
1.0
 33
0.0
 74
     2
 41
11.0
 41
0.0
 75
     0
 74
     2
 41
-11.0
 41
0.0
 75
     0
  0
LINE
  5
AE9
100
AcDbEntity
  8
V0-OBRYS
  6
CONTINUOUS
 62
    90
100
AcDbLine
 10
45.600834
 20
-807.468442
 30
0.0
 11
45.600834
 21
-785.468442
 31
0.0
  0
ENDSEC
  0
SECTION
  2
OBJECTS
  0
DICTIONARY
  5
C
100
AcDbDictionary
  3
ACAD_GROUP
350
D
  3
ACAD_MLINESTYLE
350
1B
  0
DICTIONARY
  5
D
102
{ACAD_REACTORS
330
C
102
}
100
AcDbDictionary
  0
DICTIONARY
  5
1B
102
{ACAD_REACTORS
330
C
102
}
100
AcDbDictionary
  3
STANDARD
350
1C
  0
MLINESTYLE
  5
1C
102
{ACAD_REACTORS
330
1B
102
}
100
AcDbMlineStyle
  2
STANDARD
 70
     0
  3

 62
   256
 51
90.0
 52
90.0
 71
     2
 49
0.5
 62
   256
  6
BYLAYER
 49
-0.5
 62
   256
  6
BYLAYER
  0
ENDSEC
  0
EOF
