  0
SECTION
  2
HEADER
  9
$ACADVER
  1
AC1014
  9
$ACADMAINTVER
 70
     0
  9
$DWGCODEPAGE
  3
ANSI_1250
  9
$INSBASE
 10
0.0
 20
0.0
 30
0.0
  9
$EXTMIN
 10
664.207664
 20
-410.80021
 30
0.0
  9
$EXTMAX
 10
1307.946531
 20
182.373177
 30
0.0
  9
$LIMMIN
 10
0.0
 20
0.0
  9
$LIMMAX
 10
420.0
 20
297.0
  9
$ORTHOMODE
 70
     0
  9
$REGENMODE
 70
     1
  9
$FILLMODE
 70
     1
  9
$QTEXTMODE
 70
     0
  9
$MIRRTEXT
 70
     1
  9
$DRAGMODE
 70
     2
  9
$LTSCALE
 40
1.0
  9
$OSMODE
 70
    15
  9
$ATTMODE
 70
     1
  9
$TEXTSIZE
 40
10.0
  9
$TRACEWID
 40
1.0
  9
$TEXTSTYLE
  7
ED30
  9
$CLAYER
  8
V0-VYPLNE
  9
$CELTYPE
  6
DASHED
  9
$CECOLOR
 62
    52
  9
$CELTSCALE
 40
1.0
  9
$DELOBJ
 70
     1
  9
$DISPSILH
 70
     0
  9
$DIMSCALE
 40
0.0
  9
$DIMASZ
 40
15.0
  9
$DIMEXO
 40
1.0
  9
$DIMDLI
 40
3.75
  9
$DIMRND
 40
0.0
  9
$DIMDLE
 40
0.0
  9
$DIMEXE
 40
1.25
  9
$DIMTP
 40
0.0
  9
$DIMTM
 40
0.0
  9
$DIMTXT
 40
10.0
  9
$DIMCEN
 40
3.0
  9
$DIMTSZ
 40
0.0
  9
$DIMTOL
 70
     0
  9
$DIMLIM
 70
     0
  9
$DIMTIH
 70
     0
  9
$DIMTOH
 70
     0
  9
$DIMSE1
 70
     0
  9
$DIMSE2
 70
     0
  9
$DIMTAD
 70
     1
  9
$DIMZIN
 70
     8
  9
$DIMBLK
  1

  9
$DIMASO
 70
     1
  9
$DIMSHO
 70
     1
  9
$DIMPOST
  1

  9
$DIMAPOST
  1

  9
$DIMALT
 70
     0
  9
$DIMALTD
 70
     4
  9
$DIMALTF
 40
0.0394
  9
$DIMLFAC
 40
1.0
  9
$DIMTOFL
 70
     1
  9
$DIMTVP
 40
0.0
  9
$DIMTIX
 70
     0
  9
$DIMSOXD
 70
     0
  9
$DIMSAH
 70
     1
  9
$DIMBLK1
  1
_OPEN
  9
$DIMBLK2
  1
_OPEN
  9
$DIMSTYLE
  2
ED10
  9
$DIMCLRD
 70
    41
  9
$DIMCLRE
 70
    41
  9
$DIMCLRT
 70
    41
  9
$DIMTFAC
 40
1.0
  9
$DIMGAP
 40
1.5
  9
$DIMJUST
 70
     0
  9
$DIMSD1
 70
     0
  9
$DIMSD2
 70
     0
  9
$DIMTOLJ
 70
     1
  9
$DIMTZIN
 70
     8
  9
$DIMALTZ
 70
     0
  9
$DIMALTTZ
 70
     0
  9
$DIMFIT
 70
     3
  9
$DIMUPT
 70
     0
  9
$DIMUNIT
 70
     2
  9
$DIMDEC
 70
     0
  9
$DIMTDEC
 70
     1
  9
$DIMALTU
 70
     8
  9
$DIMALTTD
 70
     4
  9
$DIMTXSTY
  7
ED20
  9
$DIMAUNIT
 70
     0
  9
$LUNITS
 70
     2
  9
$LUPREC
 70
     4
  9
$SKETCHINC
 40
1.0
  9
$FILLETRAD
 40
5.0
  9
$AUNITS
 70
     0
  9
$AUPREC
 70
     0
  9
$MENU
  1
.
  9
$ELEVATION
 40
0.0
  9
$PELEVATION
 40
0.0
  9
$THICKNESS
 40
0.0
  9
$LIMCHECK
 70
     0
  9
$BLIPMODE
 70
     0
  9
$CHAMFERA
 40
10.0
  9
$CHAMFERB
 40
10.0
  9
$CHAMFERC
 40
20.0
  9
$CHAMFERD
 40
0.0
  9
$SKPOLY
 70
     1
  9
$TDCREATE
 40
2451196.643769328
  9
$TDUPDATE
 40
2453320.492392893
  9
$TDINDWG
 40
0.2623798380
  9
$TDUSRTIMER
 40
0.2623798380
  9
$USRTIMER
 70
     1
  9
$ANGBASE
 50
0.0
  9
$ANGDIR
 70
     0
  9
$PDMODE
 70
     3
  9
$PDSIZE
 40
15.0
  9
$PLINEWID
 40
0.0
  9
$COORDS
 70
     1
  9
$SPLFRAME
 70
     0
  9
$SPLINETYPE
 70
     6
  9
$SPLINESEGS
 70
     8
  9
$ATTDIA
 70
     0
  9
$ATTREQ
 70
     1
  9
$HANDLING
 70
     1
  9
$HANDSEED
  5
FB9
  9
$SURFTAB1
 70
     6
  9
$SURFTAB2
 70
     6
  9
$SURFTYPE
 70
     6
  9
$SURFU
 70
     6
  9
$SURFV
 70
     6
  9
$UCSNAME
  2

  9
$UCSORG
 10
727.5522535047794
 20
0.0
 30
0.0
  9
$UCSXDIR
 10
1.0
 20
0.0
 30
0.0
  9
$UCSYDIR
 10
0.0
 20
1.0
 30
0.0
  9
$PUCSNAME
  2

  9
$PUCSORG
 10
0.0
 20
0.0
 30
0.0
  9
$PUCSXDIR
 10
1.0
 20
0.0
 30
0.0
  9
$PUCSYDIR
 10
0.0
 20
1.0
 30
0.0
  9
$USERI1
 70
     0
  9
$USERI2
 70
     0
  9
$USERI3
 70
     2
  9
$USERI4
 70
     2
  9
$USERI5
 70
     6
  9
$USERR1
 40
281.0
  9
$USERR2
 40
321.0
  9
$USERR3
 40
0.0
  9
$USERR4
 40
0.0
  9
$USERR5
 40
0.0
  9
$WORLDVIEW
 70
     1
  9
$SHADEDGE
 70
     3
  9
$SHADEDIF
 70
    70
  9
$TILEMODE
 70
     1
  9
$MAXACTVP
 70
    48
  9
$PINSBASE
 10
0.0
 20
0.0
 30
0.0
  9
$PLIMCHECK
 70
     0
  9
$PEXTMIN
 10
1.000000E+20
 20
1.000000E+20
 30
1.000000E+20
  9
$PEXTMAX
 10
-1.000000E+20
 20
-1.000000E+20
 30
-1.000000E+20
  9
$PLIMMIN
 10
0.0
 20
0.0
  9
$PLIMMAX
 10
420.0
 20
297.0
  9
$UNITMODE
 70
     0
  9
$VISRETAIN
 70
     1
  9
$PLINEGEN
 70
     0
  9
$PSLTSCALE
 70
     0
  9
$TREEDEPTH
 70
  3020
  9
$PICKSTYLE
 70
     1
  9
$CMLSTYLE
  2
STANDARD
  9
$CMLJUST
 70
     0
  9
$CMLSCALE
 40
1.0
  9
$PROXYGRAPHICS
 70
     1
  9
$MEASUREMENT
 70
     1
  0
ENDSEC
  0
SECTION
  2
CLASSES
  0
CLASS
  1
DICTIONARYVAR
  2
AcDbDictionaryVar
  3
"AutoCAD"
 90
        0
280
     0
281
     0
  0
CLASS
  1
LWPOLYLINE
  2
AcDbPolyline
  3
"AutoCAD"
 90
        0
280
     0
281
     1
  0
CLASS
  1
HATCH
  2
AcDbHatch
  3
"ACAD_SEDONA"
 90
        0
280
     0
281
     1
  0
ENDSEC
  0
SECTION
  2
TABLES
  0
TABLE
  2
VPORT
  5
8
100
AcDbSymbolTable
 70
     3
  0
VPORT
  5
FB8
100
AcDbSymbolTableRecord
100
AcDbViewportTableRecord
  2
*ACTIVE
 70
     0
 10
0.0
 20
0.0
 11
1.0
 21
1.0
 12
982.092905
 22
-71.833792
 13
0.0
 23
0.0
 14
10.0
 24
10.0
 15
10.0
 25
10.0
 16
0.0
 26
0.0
 36
1.0
 17
0.0
 27
0.0
 37
0.0
 40
690.267794
 41
1.585567
 42
50.0
 43
0.0
 44
0.0
 50
0.0
 51
0.0
 71
     0
 72
   100
 73
     1
 74
     1
 75
     0
 76
     0
 77
     0
 78
     0
  0
ENDTAB
  0
TABLE
  2
LTYPE
  5
5
100
AcDbSymbolTable
 70
     3
  0
LTYPE
  5
14
100
AcDbSymbolTableRecord
100
AcDbLinetypeTableRecord
  2
BYBLOCK
 70
     0
  3

 72
    65
 73
     0
 40
0.0
  0
LTYPE
  5
15
100
AcDbSymbolTableRecord
100
AcDbLinetypeTableRecord
  2
BYLAYER
 70
     0
  3

 72
    65
 73
     0
 40
0.0
  0
LTYPE
  5
16
100
AcDbSymbolTableRecord
100
AcDbLinetypeTableRecord
  2
CONTINUOUS
 70
     0
  3
Solid line
 72
    65
 73
     0
 40
0.0
  0
LTYPE
  5
7F
100
AcDbSymbolTableRecord
100
AcDbLinetypeTableRecord
  2
DASHDOT
 70
     0
  3
Dash dot __ . __ . __ . __ . __ . __ . __ . __
 72
    65
 73
     4
 40
25.4
 49
12.7
 74
     0
 49
-6.35
 74
     0
 49
0.0
 74
     0
 49
-6.35
 74
     0
  0
LTYPE
  5
80
100
AcDbSymbolTableRecord
100
AcDbLinetypeTableRecord
  2
DASHED
 70
     0
  3
Dashed __ __ __ __ __ __ __ __ __ __ __ __ __ _
 72
    65
 73
     2
 40
19.05
 49
12.7
 74
     0
 49
-6.35
 74
     0
  0
ENDTAB
  0
TABLE
  2
LAYER
  5
2
100
AcDbSymbolTable
 70
     6
  0
LAYER
  5
F
100
AcDbSymbolTableRecord
100
AcDbLayerTableRecord
  2
0
 70
     0
 62
     7
  6
CONTINUOUS
  0
LAYER
  5
9E
100
AcDbSymbolTableRecord
100
AcDbLayerTableRecord
  2
DEFPOINTS
 70
     0
 62
     7
  6
CONTINUOUS
  0
LAYER
  5
377
100
AcDbSymbolTableRecord
100
AcDbLayerTableRecord
  2
V0-OBRYS
 70
     0
 62
    90
  6
CONTINUOUS
  0
LAYER
  5
378
100
AcDbSymbolTableRecord
100
AcDbLayerTableRecord
  2
V0-VYPLNE
 70
     0
 62
    63
  6
DASHDOT
  0
LAYER
  5
37A
100
AcDbSymbolTableRecord
100
AcDbLayerTableRecord
  2
V0-NAZVY
 70
     0
 62
   210
  6
CONTINUOUS
  0
LAYER
  5
559
100
AcDbSymbolTableRecord
100
AcDbLayerTableRecord
  2
V0-ZBYTEK
 70
     0
 62
    51
  6
CONTINUOUS
  0
ENDTAB
  0
TABLE
  2
STYLE
  5
3
100
AcDbSymbolTable
 70
     6
  0
STYLE
  5
10
100
AcDbSymbolTableRecord
100
AcDbTextStyleTableRecord
  2
STANDARD
 70
     0
 40
7.0
 41
1.0
 50
0.0
 71
     0
 42
20.0
  3
ISOCP.shx
  4

  0
STYLE
  5
331
100
AcDbSymbolTableRecord
100
AcDbTextStyleTableRecord
  2
ED30
 70
     0
 40
30.0
 41
1.0
 50
0.0
 71
     0
 42
2.5
  3
ISOCP.shx
  4

  0
STYLE
  5
5D2
100
AcDbSymbolTableRecord
100
AcDbTextStyleTableRecord
  2
ED20
 70
     0
 40
20.0
 41
1.0
 50
0.0
 71
     0
 42
20.0
  3
isocp.shx
  4

  0
STYLE
  5
64F
100
AcDbSymbolTableRecord
100
AcDbTextStyleTableRecord
  2
ED40
 70
     0
 40
40.0
 41
1.0
 50
0.0
 71
     0
 42
20.0
  3
isocp.shx
  4

  0
STYLE
  5
650
100
AcDbSymbolTableRecord
100
AcDbTextStyleTableRecord
  2
ED10
 70
     0
 40
10.0
 41
1.0
 50
0.0
 71
     0
 42
10.0
  3
isocp.shx
  4

  0
STYLE
  5
C56
100
AcDbSymbolTableRecord
100
AcDbTextStyleTableRecord
  2
ED15
 70
     0
 40
15.0
 41
1.0
 50
0.0
 71
     0
 42
30.0
  3
isocp.shx
  4

  0
ENDTAB
  0
TABLE
  2
VIEW
  5
6
100
AcDbSymbolTable
 70
     0
  0
ENDTAB
  0
TABLE
  2
UCS
  5
7
100
AcDbSymbolTable
 70
     0
  0
ENDTAB
  0
TABLE
  2
APPID
  5
9
100
AcDbSymbolTable
 70
     3
  0
APPID
  5
11
100
AcDbSymbolTableRecord
100
AcDbRegAppTableRecord
  2
ACAD
 70
     0
  0
APPID
  5
E78
100
AcDbSymbolTableRecord
100
AcDbRegAppTableRecord
  2
CONTENTBLOCKICON
 70
     0
  0
APPID
  5
E79
100
AcDbSymbolTableRecord
100
AcDbRegAppTableRecord
  2
CONTENTBLOCKDESCRIPTION
 70
     0
  0
ENDTAB
  0
TABLE
  2
DIMSTYLE
  5
A
100
AcDbSymbolTable
 70
     6
  0
DIMSTYLE
105
1D
100
AcDbSymbolTableRecord
100
AcDbDimStyleTableRecord
  2
STANDARD
 70
     0
  3

  4

  5

  6
_OPEN
  7
_OPEN
 40
0.0
 41
15.0
 42
0.625
 43
3.75
 44
1.25
 45
0.0
 46
0.0
 47
0.0
 48
0.0
140
15.0
141
2.5
142
0.0
143
0.0394
144
1.0
145
0.0
146
1.0
147
3.0
 71
     0
 72
     0
 73
     0
 74
     0
 75
     0
 76
     0
 77
     1
 78
     8
170
     0
171
     4
172
     1
173
     1
174
     0
175
     0
176
     0
177
     0
178
     0
270
     2
271
     0
272
     1
273
     8
274
     4
340
331
275
     0
280
     0
281
     0
282
     0
283
     1
284
     8
285
     0
286
     0
287
     3
288
     0
  0
DIMSTYLE
105
397
100
AcDbSymbolTableRecord
100
AcDbDimStyleTableRecord
  2
ED40
 70
     0
  3

  4

  5

  6
_OPEN
  7
_OPEN
 40
0.0
 41
35.0
 42
1.0
 43
3.75
 44
1.25
 45
0.0
 46
0.0
 47
0.0
 48
0.0
140
40.0
141
3.0
142
0.0
143
0.0394
144
1.0
145
0.0
146
1.0
147
3.0
 71
     0
 72
     0
 73
     0
 74
     0
 75
     0
 76
     0
 77
     1
 78
     8
170
     0
171
     4
172
     1
173
     1
174
     0
175
     0
176
     0
177
     0
178
     0
270
     2
271
     0
272
     1
273
     8
274
     4
340
64F
275
     0
280
     0
281
     0
282
     0
283
     1
284
     8
285
     0
286
     0
287
     3
288
     0
  0
DIMSTYLE
105
656
102
{ACAD_REACTORS
330
A42
330
A3E
102
}
100
AcDbSymbolTableRecord
100
AcDbDimStyleTableRecord
  2
ED30
 70
     0
  3

  4

  5

  6
_OPEN
  7
_OPEN
 40
0.0
 41
25.0
 42
1.0
 43
3.75
 44
1.25
 45
0.0
 46
0.0
 47
0.0
 48
0.0
140
30.0
141
3.0
142
0.0
143
0.0394
144
1.0
145
0.0
146
1.0
147
2.0
 71
     0
 72
     0
 73
     0
 74
     0
 75
     0
 76
     0
 77
     1
 78
     8
170
     0
171
     4
172
     1
173
     1
174
     0
175
     0
176
     0
177
     0
178
     0
270
     2
271
     0
272
     1
273
     8
274
     4
340
331
275
     0
280
     0
281
     0
282
     0
283
     1
284
     8
285
     0
286
     0
287
     3
288
     0
  0
DIMSTYLE
105
657
100
AcDbSymbolTableRecord
100
AcDbDimStyleTableRecord
  2
ED20
 70
     0
  3

  4

  5

  6
_OPEN
  7
_OPEN
 40
0.0
 41
20.0
 42
1.0
 43
3.75
 44
1.25
 45
0.0
 46
0.0
 47
0.0
 48
0.0
140
20.0
141
3.0
142
0.0
143
0.0394
144
1.0
145
0.0
146
1.0
147
1.5
 71
     0
 72
     0
 73
     0
 74
     0
 75
     0
 76
     0
 77
     1
 78
     8
170
     0
171
     4
172
     1
173
     1
174
     0
175
     0
176
     0
177
     0
178
     0
270
     2
271
     0
272
     1
273
     8
274
     4
340
5D2
275
     0
280
     0
281
     0
282
     0
283
     1
284
     8
285
     0
286
     0
287
     3
288
     0
  0
DIMSTYLE
105
658
102
{ACAD_REACTORS
330
BA3
330
BFF
102
}
100
AcDbSymbolTableRecord
100
AcDbDimStyleTableRecord
  2
ED10
 70
     0
  3

  4

  5

  6
_OPEN
  7
_OPEN
 40
0.0
 41
15.0
 42
1.0
 43
3.75
 44
1.25
 45
0.0
 46
0.0
 47
0.0
 48
0.0
140
10.0
141
3.0
142
0.0
143
0.0394
144
1.0
145
0.0
146
1.0
147
1.5
 71
     0
 72
     0
 73
     0
 74
     0
 75
     0
 76
     0
 77
     1
 78
     8
170
     0
171
     4
172
     1
173
     1
174
     0
175
     0
176
    41
177
    41
178
    41
270
     2
271
     0
272
     1
273
     8
274
     4
340
5D2
275
     0
280
     0
281
     0
282
     0
283
     1
284
     8
285
     0
286
     0
287
     3
288
     0
  0
DIMSTYLE
105
C57
100
AcDbSymbolTableRecord
100
AcDbDimStyleTableRecord
  2
ED15
 70
     0
  3

  4

  5

  6
_OPEN
  7
_OPEN
 40
0.0
 41
15.0
 42
1.0
 43
3.75
 44
1.25
 45
0.0
 46
0.0
 47
0.0
 48
0.0
140
15.0
141
3.0
142
0.0
143
0.0394
144
1.0
145
0.0
146
1.0
147
1.5
 71
     0
 72
     0
 73
     0
 74
     0
 75
     0
 76
     0
 77
     1
 78
     8
170
     0
171
     4
172
     1
173
     1
174
     0
175
     0
176
     0
177
     0
178
     0
270
     2
271
     0
272
     1
273
     8
274
     4
340
C56
275
     0
280
     0
281
     0
282
     0
283
     1
284
     8
285
     0
286
     0
287
     3
288
     0
  0
ENDTAB
  0
TABLE
  2
BLOCK_RECORD
  5
1
100
AcDbSymbolTable
 70
     8
  0
BLOCK_RECORD
  5
1A
100
AcDbSymbolTableRecord
100
AcDbBlockTableRecord
  2
*MODEL_SPACE
  0
BLOCK_RECORD
  5
17
100
AcDbSymbolTableRecord
100
AcDbBlockTableRecord
  2
*PAPER_SPACE
  0
BLOCK_RECORD
  5
90
100
AcDbSymbolTableRecord
100
AcDbBlockTableRecord
  2
_OPEN
  0
BLOCK_RECORD
  5
A52
100
AcDbSymbolTableRecord
100
AcDbBlockTableRecord
  2
*D1
  0
BLOCK_RECORD
  5
A5E
100
AcDbSymbolTableRecord
100
AcDbBlockTableRecord
  2
*D2
  0
BLOCK_RECORD
  5
B97
100
AcDbSymbolTableRecord
100
AcDbBlockTableRecord
  2
*D3
  0
BLOCK_RECORD
  5
BF3
100
AcDbSymbolTableRecord
100
AcDbBlockTableRecord
  2
*D4
  0
BLOCK_RECORD
  5
D62
100
AcDbSymbolTableRecord
100
AcDbBlockTableRecord
  2
*D5
  0
BLOCK_RECORD
  5
D6E
100
AcDbSymbolTableRecord
100
AcDbBlockTableRecord
  2
*D6
  0
BLOCK_RECORD
  5
D7A
100
AcDbSymbolTableRecord
100
AcDbBlockTableRecord
  2
*D7
  0
ENDTAB
  0
ENDSEC
  0
SECTION
  2
BLOCKS
  0
BLOCK
  5
1B
100
AcDbEntity
  8
0
100
AcDbBlockBegin
  2
*MODEL_SPACE
 70
     0
 10
0.0
 20
0.0
 30
0.0
  3
*MODEL_SPACE
  1

  0
ENDBLK
  5
1C
100
AcDbEntity
  8
0
100
AcDbBlockEnd
  0
BLOCK
  5
18
100
AcDbEntity
 67
     1
  8
0
100
AcDbBlockBegin
  2
*PAPER_SPACE
 70
     0
 10
0.0
 20
0.0
 30
0.0
  3
*PAPER_SPACE
  1

  0
ENDBLK
  5
19
100
AcDbEntity
 67
     1
  8
0
100
AcDbBlockEnd
  0
BLOCK
  5
91
100
AcDbEntity
  8
0
100
AcDbBlockBegin
  2
_OPEN
 70
     0
 10
0.0
 20
0.0
 30
0.0
  3
_OPEN
  1

  0
LINE
  5
92
100
AcDbEntity
  8
0
  6
BYBLOCK
 62
     0
100
AcDbLine
 10
-1.0
 20
0.166667
 30
0.0
 11
0.0
 21
0.0
 31
0.0
  0
LINE
  5
93
100
AcDbEntity
  8
0
  6
BYBLOCK
 62
     0
100
AcDbLine
 10
0.0
 20
0.0
 30
0.0
 11
-1.0
 21
-0.166667
 31
0.0
  0
LINE
  5
94
100
AcDbEntity
  8
0
  6
BYBLOCK
 62
     0
100
AcDbLine
 10
0.0
 20
0.0
 30
0.0
 11
-1.0
 21
0.0
 31
0.0
  0
ENDBLK
  5
95
100
AcDbEntity
  8
0
100
AcDbBlockEnd
  0
BLOCK
  5
FA8
100
AcDbEntity
  8
0
100
AcDbBlockBegin
  2
*D1
 70
     1
 10
0.0
 20
0.0
 30
0.0
  3
*D1
  1

  0
LINE
  5
FA9
100
AcDbEntity
  8
0
  6
BYBLOCK
 62
     0
100
AcDbLine
 10
726.552254
 20
90.0
 30
0.0
 11
684.355302
 21
90.0
 31
0.0
  0
LINE
  5
FAA
100
AcDbEntity
  8
0
  6
BYBLOCK
 62
     0
100
AcDbLine
 10
726.552254
 20
-90.0
 30
0.0
 11
684.355302
 21
-90.0
 31
0.0
  0
LINE
  5
FAB
100
AcDbEntity
  8
0
  6
BYBLOCK
 62
     0
100
AcDbLine
 10
685.605302
 20
70.0
 30
0.0
 11
685.605302
 21
-70.0
 31
0.0
  0
INSERT
  5
FAC
100
AcDbEntity
  8
0
  6
BYBLOCK
 62
     0
100
AcDbBlockReference
  2
_OPEN
 10
685.605302
 20
90.0
 30
0.0
 41
20.0
 42
20.0
 43
20.0
 50
90.0
  0
INSERT
  5
FAD
100
AcDbEntity
  8
0
  6
BYBLOCK
 62
     0
100
AcDbBlockReference
  2
_OPEN
 10
685.605302
 20
-90.0
 30
0.0
 41
20.0
 42
20.0
 43
20.0
 50
270.0
  0
MTEXT
  5
FAE
100
AcDbEntity
  8
0
  6
BYBLOCK
 62
     0
100
AcDbMText
 10
674.105302
 20
-1.802349
 30
0.0
 40
20.0
 41
0.0
 71
     5
 72
     1
  1
\A1;\U+2205180
  7
ED20
 11
0.0
 21
1.0
 31
0.0
  0
POINT
  5
FAF
100
AcDbEntity
  8
DEFPOINTS
  6
BYBLOCK
 62
     0
100
AcDbPoint
 10
727.552254
 20
90.0
 30
0.0
  0
POINT
  5
FB0
100
AcDbEntity
  8
DEFPOINTS
  6
BYBLOCK
 62
     0
100
AcDbPoint
 10
727.552254
 20
-90.0
 30
0.0
  0
POINT
  5
FB1
100
AcDbEntity
  8
DEFPOINTS
  6
BYBLOCK
 62
     0
100
AcDbPoint
 10
685.605302
 20
-90.0
 30
0.0
  0
ENDBLK
  5
FB2
100
AcDbEntity
  8
0
100
AcDbBlockEnd
  0
BLOCK
  5
B08
100
AcDbEntity
  8
0
100
AcDbBlockBegin
  2
*D2
 70
     1
 10
0.0
 20
0.0
 30
0.0
  3
*D2
  1

  0
LINE
  5
B09
100
AcDbEntity
  8
0
  6
BYBLOCK
 62
     0
100
AcDbLine
 10
727.552254
 20
-51.0
 30
0.0
 11
727.552254
 21
-99.245962
 31
0.0
  0
LINE
  5
B0A
100
AcDbEntity
  8
0
  6
BYBLOCK
 62
     0
100
AcDbLine
 10
767.552254
 20
-51.0
 30
0.0
 11
767.552254
 21
-99.245962
 31
0.0
  0
LINE
  5
B0B
100
AcDbEntity
  8
0
  6
BYBLOCK
 62
     0
100
AcDbLine
 10
707.552254
 20
-97.995962
 30
0.0
 11
687.552254
 21
-97.995962
 31
0.0
  0
LINE
  5
B0C
100
AcDbEntity
  8
0
  6
BYBLOCK
 62
     0
100
AcDbLine
 10
787.552254
 20
-97.995962
 30
0.0
 11
807.552254
 21
-97.995962
 31
0.0
  0
LINE
  5
B0D
100
AcDbEntity
  8
0
  6
BYBLOCK
 62
     0
100
AcDbLine
 10
727.552254
 20
-97.995962
 30
0.0
 11
767.552254
 21
-97.995962
 31
0.0
  0
INSERT
  5
B0E
100
AcDbEntity
  8
0
  6
BYBLOCK
 62
     0
100
AcDbBlockReference
  2
_OPEN
 10
727.552254
 20
-97.995962
 30
0.0
 41
20.0
 42
20.0
 43
20.0
  0
INSERT
  5
B0F
100
AcDbEntity
  8
0
  6
BYBLOCK
 62
     0
100
AcDbBlockReference
  2
_OPEN
 10
767.552254
 20
-97.995962
 30
0.0
 41
20.0
 42
20.0
 43
20.0
 50
180.0
  0
MTEXT
  5
B10
100
AcDbEntity
  8
0
  6
BYBLOCK
 62
     0
100
AcDbMText
 10
747.552254
 20
-86.495962
 30
0.0
 40
20.0
 41
0.0
 71
     5
 72
     1
  1
\A1;40
  7
ED20
  0
POINT
  5
B11
100
AcDbEntity
  8
DEFPOINTS
  6
BYBLOCK
 62
     0
100
AcDbPoint
 10
727.552254
 20
-50.0
 30
0.0
  0
POINT
  5
B12
100
AcDbEntity
  8
DEFPOINTS
  6
BYBLOCK
 62
     0
100
AcDbPoint
 10
767.552254
 20
-50.0
 30
0.0
  0
POINT
  5
B13
100
AcDbEntity
  8
DEFPOINTS
  6
BYBLOCK
 62
     0
100
AcDbPoint
 10
767.552254
 20
-97.995962
 30
0.0
  0
ENDBLK
  5
B14
100
AcDbEntity
  8
0
100
AcDbBlockEnd
  0
BLOCK
  5
BE8
100
AcDbEntity
  8
0
100
AcDbBlockBegin
  2
*D3
 70
     1
 10
0.0
 20
0.0
 30
0.0
  3
*D3
  1

  0
LINE
  5
BE9
100
AcDbEntity
  8
0
  6
BYBLOCK
 62
    41
100
AcDbLine
 10
727.552254
 20
-82.0
 30
0.0
 11
727.552254
 21
-171.474261
 31
0.0
  0
LINE
  5
BEA
100
AcDbEntity
  8
0
  6
BYBLOCK
 62
    41
100
AcDbLine
 10
977.547962
 20
-82.0
 30
0.0
 11
977.547962
 21
-171.474261
 31
0.0
  0
LINE
  5
BEB
100
AcDbEntity
  8
0
  6
BYBLOCK
 62
    41
100
AcDbLine
 10
742.552254
 20
-170.224261
 30
0.0
 11
962.547962
 21
-170.224261
 31
0.0
  0
INSERT
  5
BEC
100
AcDbEntity
  8
0
  6
BYBLOCK
 62
    41
100
AcDbBlockReference
  2
_OPEN
 10
727.552254
 20
-170.224261
 30
0.0
 41
15.0
 42
15.0
 43
15.0
 50
180.0
  0
INSERT
  5
BED
100
AcDbEntity
  8
0
  6
BYBLOCK
 62
    41
100
AcDbBlockReference
  2
_OPEN
 10
977.547962
 20
-170.224261
 30
0.0
 41
15.0
 42
15.0
 43
15.0
  0
MTEXT
  5
BEE
100
AcDbEntity
  8
0
  6
BYBLOCK
 62
    41
100
AcDbMText
 10
852.550108
 20
-158.722293
 30
0.0
 40
20.0
 41
0.0
 71
     5
 72
     1
  1
\A1;250
  7
ED20
  0
POINT
  5
BEF
100
AcDbEntity
  8
DEFPOINTS
  6
BYBLOCK
 62
     0
100
AcDbPoint
 10
727.552254
 20
-81.0
 30
0.0
  0
POINT
  5
BF0
100
AcDbEntity
  8
DEFPOINTS
  6
BYBLOCK
 62
     0
100
AcDbPoint
 10
977.547962
 20
-81.0
 30
0.0
  0
POINT
  5
BF1
100
AcDbEntity
  8
DEFPOINTS
  6
BYBLOCK
 62
     0
100
AcDbPoint
 10
977.547962
 20
-170.224261
 30
0.0
  0
ENDBLK
  5
BF2
100
AcDbEntity
  8
0
100
AcDbBlockEnd
  0
BLOCK
  5
BF4
100
AcDbEntity
  8
0
100
AcDbBlockBegin
  2
*D4
 70
     1
 10
0.0
 20
0.0
 30
0.0
  3
*D4
  1

  0
LINE
  5
BF5
100
AcDbEntity
  8
0
  6
BYBLOCK
 62
    41
100
AcDbLine
 10
767.552254
 20
-81.0
 30
0.0
 11
767.552254
 21
-129.433206
 31
0.0
  0
LINE
  5
BF6
100
AcDbEntity
  8
0
  6
BYBLOCK
 62
    41
100
AcDbLine
 10
937.552254
 20
-81.0
 30
0.0
 11
937.552254
 21
-129.433206
 31
0.0
  0
LINE
  5
BF7
100
AcDbEntity
  8
0
  6
BYBLOCK
 62
    41
100
AcDbLine
 10
782.552254
 20
-128.183206
 30
0.0
 11
922.552254
 21
-128.183206
 31
0.0
  0
INSERT
  5
BF8
100
AcDbEntity
  8
0
  6
BYBLOCK
 62
    41
100
AcDbBlockReference
  2
_OPEN
 10
767.552254
 20
-128.183206
 30
0.0
 41
15.0
 42
15.0
 43
15.0
 50
180.0
  0
INSERT
  5
BF9
100
AcDbEntity
  8
0
  6
BYBLOCK
 62
    41
100
AcDbBlockReference
  2
_OPEN
 10
937.552254
 20
-128.183206
 30
0.0
 41
15.0
 42
15.0
 43
15.0
  0
MTEXT
  5
BFA
100
AcDbEntity
  8
0
  6
BYBLOCK
 62
    41
100
AcDbMText
 10
852.552254
 20
-116.683206
 30
0.0
 40
20.0
 41
0.0
 71
     5
 72
     1
  1
\A1;170
  7
ED20
  0
POINT
  5
BFB
100
AcDbEntity
  8
DEFPOINTS
  6
BYBLOCK
 62
     0
100
AcDbPoint
 10
767.552254
 20
-80.0
 30
0.0
  0
POINT
  5
BFC
100
AcDbEntity
  8
DEFPOINTS
  6
BYBLOCK
 62
     0
100
AcDbPoint
 10
937.552254
 20
-80.0
 30
0.0
  0
POINT
  5
BFD
100
AcDbEntity
  8
DEFPOINTS
  6
BYBLOCK
 62
     0
100
AcDbPoint
 10
937.552254
 20
-128.183206
 30
0.0
  0
ENDBLK
  5
BFE
100
AcDbEntity
  8
0
100
AcDbBlockEnd
  0
BLOCK
  5
D86
100
AcDbEntity
  8
0
100
AcDbBlockBegin
  2
*D5
 70
     1
 10
0.0
 20
0.0
 30
0.0
  3
*D5
  1

  0
LINE
  5
D87
100
AcDbEntity
  8
0
  6
BYBLOCK
 62
    41
100
AcDbLine
 10
852.552254
 20
123.0
 30
0.0
 11
852.552254
 21
157.873177
 31
0.0
  0
LINE
  5
D88
100
AcDbEntity
  8
0
  6
BYBLOCK
 62
    41
100
AcDbLine
 10
987.552254
 20
126.0
 30
0.0
 11
987.552254
 21
157.873177
 31
0.0
  0
LINE
  5
D89
100
AcDbEntity
  8
0
  6
BYBLOCK
 62
    41
100
AcDbLine
 10
867.552254
 20
156.623177
 30
0.0
 11
972.552254
 21
156.623177
 31
0.0
  0
INSERT
  5
D8A
100
AcDbEntity
  8
0
  6
BYBLOCK
 62
    41
100
AcDbBlockReference
  2
_OPEN
 10
852.552254
 20
156.623177
 30
0.0
 41
15.0
 42
15.0
 43
15.0
 50
180.0
  0
INSERT
  5
D8B
100
AcDbEntity
  8
0
  6
BYBLOCK
 62
    41
100
AcDbBlockReference
  2
_OPEN
 10
987.552254
 20
156.623177
 30
0.0
 41
15.0
 42
15.0
 43
15.0
  0
MTEXT
  5
D8C
100
AcDbEntity
  8
0
  6
BYBLOCK
 62
    41
100
AcDbMText
 10
920.052254
 20
165.623177
 30
0.0
 40
15.0
 41
0.0
 71
     5
 72
     1
  1
\A1;135
  7
ED15
  0
POINT
  5
D8D
100
AcDbEntity
  8
DEFPOINTS
  6
BYBLOCK
 62
     0
100
AcDbPoint
 10
852.552254
 20
122.0
 30
0.0
  0
POINT
  5
D8E
100
AcDbEntity
  8
DEFPOINTS
  6
BYBLOCK
 62
     0
100
AcDbPoint
 10
987.552254
 20
125.0
 30
0.0
  0
POINT
  5
D8F
100
AcDbEntity
  8
DEFPOINTS
  6
BYBLOCK
 62
     0
100
AcDbPoint
 10
987.552254
 20
156.623177
 30
0.0
  0
ENDBLK
  5
D90
100
AcDbEntity
  8
0
100
AcDbBlockEnd
  0
BLOCK
  5
D91
100
AcDbEntity
  8
0
100
AcDbBlockBegin
  2
*D6
 70
     1
 10
0.0
 20
0.0
 30
0.0
  3
*D6
  1

  0
LINE
  5
D92
100
AcDbEntity
  8
0
  6
BYBLOCK
 62
    41
100
AcDbLine
 10
988.552254
 20
125.0
 30
0.0
 11
1005.133946
 21
125.0
 31
0.0
  0
LINE
  5
D93
100
AcDbEntity
  8
0
  6
BYBLOCK
 62
    41
100
AcDbLine
 10
953.552254
 20
80.0
 30
0.0
 11
1005.133946
 21
80.0
 31
0.0
  0
LINE
  5
D94
100
AcDbEntity
  8
0
  6
BYBLOCK
 62
    41
100
AcDbLine
 10
1003.883946
 20
110.0
 30
0.0
 11
1003.883946
 21
95.0
 31
0.0
  0
INSERT
  5
D95
100
AcDbEntity
  8
0
  6
BYBLOCK
 62
    41
100
AcDbBlockReference
  2
_OPEN
 10
1003.883946
 20
125.0
 30
0.0
 41
15.0
 42
15.0
 43
15.0
 50
90.0
  0
INSERT
  5
D96
100
AcDbEntity
  8
0
  6
BYBLOCK
 62
    41
100
AcDbBlockReference
  2
_OPEN
 10
1003.883946
 20
80.0
 30
0.0
 41
15.0
 42
15.0
 43
15.0
 50
270.0
  0
MTEXT
  5
D97
100
AcDbEntity
  8
0
  6
BYBLOCK
 62
    41
100
AcDbMText
 10
994.883946
 20
102.5
 30
0.0
 40
15.0
 41
0.0
 71
     5
 72
     1
  1
\A1;45
  7
ED15
 11
0.0
 21
1.0
 31
0.0
  0
POINT
  5
D98
100
AcDbEntity
  8
DEFPOINTS
  6
BYBLOCK
 62
     0
100
AcDbPoint
 10
987.552254
 20
125.0
 30
0.0
  0
POINT
  5
D99
100
AcDbEntity
  8
DEFPOINTS
  6
BYBLOCK
 62
     0
100
AcDbPoint
 10
952.552254
 20
80.0
 30
0.0
  0
POINT
  5
D9A
100
AcDbEntity
  8
DEFPOINTS
  6
BYBLOCK
 62
     0
100
AcDbPoint
 10
1003.883946
 20
80.0
 30
0.0
  0
ENDBLK
  5
D9B
100
AcDbEntity
  8
0
100
AcDbBlockEnd
  0
BLOCK
  5
F92
100
AcDbEntity
  8
0
100
AcDbBlockBegin
  2
*D7
 70
     1
 10
0.0
 20
0.0
 30
0.0
  3
*D7
  1

  0
LINE
  5
F93
100
AcDbEntity
  8
0
  6
BYBLOCK
 62
    41
100
AcDbLine
 10
1142.792507
 20
124.75
 30
0.0
 11
1142.792507
 21
159.257902
 31
0.0
  0
LINE
  5
F94
100
AcDbEntity
  8
0
  6
BYBLOCK
 62
    41
100
AcDbLine
 10
1255.292507
 20
124.75
 30
0.0
 11
1255.292507
 21
159.257902
 31
0.0
  0
LINE
  5
F95
100
AcDbEntity
  8
0
  6
BYBLOCK
 62
    41
100
AcDbLine
 10
1157.792507
 20
158.007902
 30
0.0
 11
1240.292507
 21
158.007902
 31
0.0
  0
INSERT
  5
F96
100
AcDbEntity
  8
0
  6
BYBLOCK
 62
    41
100
AcDbBlockReference
  2
_OPEN
 10
1142.792507
 20
158.007902
 30
0.0
 41
15.0
 42
15.0
 43
15.0
 50
180.0
  0
INSERT
  5
F97
100
AcDbEntity
  8
0
  6
BYBLOCK
 62
    41
100
AcDbBlockReference
  2
_OPEN
 10
1255.292507
 20
158.007902
 30
0.0
 41
15.0
 42
15.0
 43
15.0
  0
MTEXT
  5
F98
100
AcDbEntity
  8
0
  6
BYBLOCK
 62
    41
100
AcDbMText
 10
1199.612074
 20
167.007902
 30
0.0
 40
15.0
 41
0.0
 71
     5
 72
     1
  1
\A1;113
  7
ED15
  0
POINT
  5
F99
100
AcDbEntity
  8
DEFPOINTS
  6
BYBLOCK
 62
     0
100
AcDbPoint
 10
1142.792507
 20
123.75
 30
0.0
  0
POINT
  5
F9A
100
AcDbEntity
  8
DEFPOINTS
  6
BYBLOCK
 62
     0
100
AcDbPoint
 10
1255.292507
 20
123.75
 30
0.0
  0
POINT
  5
F9B
100
AcDbEntity
  8
DEFPOINTS
  6
BYBLOCK
 62
     0
100
AcDbPoint
 10
1255.292507
 20
158.007902
 30
0.0
  0
ENDBLK
  5
F9C
100
AcDbEntity
  8
0
100
AcDbBlockEnd
  0
ENDSEC
  0
SECTION
  2
ENTITIES
  0
DIMENSION
  5
A3E
100
AcDbEntity
  8
V0-VYPLNE
  6
CONTINUOUS
 62
    41
100
AcDbDimension
  2
*D2
 10
767.552254
 20
-137.995962
 30
0.0
 11
747.552254
 21
-137.995962
 31
0.0
 12
0.0
 22
-40.0
 32
0.0
 70
   160
  3
ED20
100
AcDbAlignedDimension
 13
727.552254
 23
-90.0
 33
0.0
 14
767.552254
 24
-90.0
 34
0.0
100
AcDbRotatedDimension
1001
ACAD
1000
DSTYLE
1002
{
1070
    40
1040
1.0
1002
}
  0
LINE
  5
A3F
100
AcDbEntity
  8
V0-OBRYS
  6
CONTINUOUS
 62
    90
100
AcDbLine
 10
727.552254
 20
-90.0
 30
0.0
 11
767.552254
 21
-90.0
 31
0.0
  0
LINE
  5
A40
100
AcDbEntity
  8
V0-OBRYS
  6
CONTINUOUS
 62
    90
100
AcDbLine
 10
727.552254
 20
90.0
 30
0.0
 11
767.552254
 21
90.0
 31
0.0
  0
LINE
  5
A41
100
AcDbEntity
  8
V0-VYPLNE
  6
DASHDOT
 62
    63
100
AcDbLine
 10
722.552254
 20
0.0
 30
0.0
 11
990.56662
 21
0.0
 31
0.0
  0
DIMENSION
  5
A42
100
AcDbEntity
  8
V0-VYPLNE
  6
CONTINUOUS
 62
    41
100
AcDbDimension
  2
*D1
 10
685.605302
 20
-90.0
 30
0.0
 11
685.605302
 21
-1.802349
 31
0.0
 70
   160
  1
%%c<>
  3
ED20
100
AcDbAlignedDimension
 13
727.552254
 23
90.0
 33
0.0
 14
727.552254
 24
-90.0
 34
0.0
 50
90.0
100
AcDbRotatedDimension
1001
ACAD
1000
DSTYLE
1002
{
1070
    40
1040
1.0
1002
}
  0
LINE
  5
A43
100
AcDbEntity
  8
V0-OBRYS
  6
CONTINUOUS
 62
    90
100
AcDbLine
 10
727.552254
 20
0.0
 30
0.0
 11
727.552254
 21
90.0
 31
0.0
  0
LINE
  5
A44
100
AcDbEntity
  8
V0-OBRYS
  6
CONTINUOUS
 62
    90
100
AcDbLine
 10
727.552254
 20
0.0
 30
0.0
 11
727.552254
 21
-90.0
 31
0.0
  0
POINT
  5
A45
100
AcDbEntity
  8
V0-VYPLNE
  6
CONTINUOUS
 62
     7
100
AcDbPoint
 10
768.79957
 20
0.0
 30
0.0
  0
LINE
  5
A46
100
AcDbEntity
  8
V0-OBRYS
  6
CONTINUOUS
 62
    90
100
AcDbLine
 10
767.552254
 20
0.0
 30
0.0
 11
767.552254
 21
90.0
 31
0.0
  0
LINE
  5
A47
100
AcDbEntity
  8
V0-OBRYS
  6
CONTINUOUS
 62
    90
100
AcDbLine
 10
782.552254
 20
90.0
 30
0.0
 11
782.552254
 21
0.0
 31
0.0
  0
LINE
  5
A48
100
AcDbEntity
  8
V0-OBRYS
  6
CONTINUOUS
 62
    90
100
AcDbLine
 10
782.552254
 20
-90.0
 30
0.0
 11
782.552254
 21
0.0
 31
0.0
  0
LINE
  5
A49
100
AcDbEntity
  8
V0-OBRYS
  6
CONTINUOUS
 62
    90
100
AcDbLine
 10
767.552254
 20
0.0
 30
0.0
 11
767.552254
 21
-90.0
 31
0.0
  0
ARC
  5
A4B
100
AcDbEntity
  8
V0-OBRYS
  6
CONTINUOUS
 62
    90
100
AcDbCircle
 10
772.552254
 20
-90.0
 30
0.0
 40
5.0
100
AcDbArc
 50
180.0
 51
270.0
  0
ARC
  5
A4C
100
AcDbEntity
  8
V0-OBRYS
  6
CONTINUOUS
 62
    90
100
AcDbCircle
 10
777.552254
 20
-90.0
 30
0.0
 40
5.0
100
AcDbArc
 50
270.0
 51
0.0
  0
LINE
  5
A4D
100
AcDbEntity
  8
V0-OBRYS
  6
CONTINUOUS
 62
    90
100
AcDbLine
 10
772.552254
 20
-95.0
 30
0.0
 11
777.552254
 21
-95.0
 31
0.0
  0
ARC
  5
A4F
100
AcDbEntity
  8
V0-OBRYS
  6
CONTINUOUS
 62
    90
100
AcDbCircle
 10
772.552254
 20
90.0
 30
0.0
 40
5.0
100
AcDbArc
 50
90.0
 51
180.0
  0
ARC
  5
A50
100
AcDbEntity
  8
V0-OBRYS
  6
CONTINUOUS
 62
    90
100
AcDbCircle
 10
777.552254
 20
90.0
 30
0.0
 40
5.0
100
AcDbArc
 50
0.0
 51
90.0
  0
LINE
  5
A51
100
AcDbEntity
  8
V0-OBRYS
  6
CONTINUOUS
 62
    90
100
AcDbLine
 10
772.552254
 20
95.0
 30
0.0
 11
777.552254
 21
95.0
 31
0.0
  0
LINE
  5
B85
100
AcDbEntity
  8
V0-OBRYS
  6
CONTINUOUS
 62
    90
100
AcDbLine
 10
922.552254
 20
-90.0
 30
0.0
 11
782.552254
 21
-90.0
 31
0.0
  0
LINE
  5
B86
100
AcDbEntity
  8
V0-OBRYS
  6
CONTINUOUS
 62
    90
100
AcDbLine
 10
922.552254
 20
90.0
 30
0.0
 11
902.552254
 21
90.0
 31
0.0
  0
LINE
  5
B88
100
AcDbEntity
  8
V0-OBRYS
  6
CONTINUOUS
 62
    90
100
AcDbLine
 10
977.552254
 20
0.0
 30
0.0
 11
977.552254
 21
90.0
 31
0.0
  0
LINE
  5
B89
100
AcDbEntity
  8
V0-OBRYS
  6
CONTINUOUS
 62
    90
100
AcDbLine
 10
937.552254
 20
0.0
 30
0.0
 11
937.552254
 21
90.0
 31
0.0
  0
LINE
  5
B8A
100
AcDbEntity
  8
V0-OBRYS
  6
CONTINUOUS
 62
    90
100
AcDbLine
 10
922.552254
 20
90.0
 30
0.0
 11
922.552254
 21
0.0
 31
0.0
  0
POINT
  5
B8B
100
AcDbEntity
  8
V0-VYPLNE
  6
CONTINUOUS
 62
     7
100
AcDbPoint
 10
937.552254
 20
0.0
 30
0.0
  0
LINE
  5
B8C
100
AcDbEntity
  8
V0-OBRYS
  6
CONTINUOUS
 62
    90
100
AcDbLine
 10
977.552254
 20
-90.0
 30
0.0
 11
937.552254
 21
-90.0
 31
0.0
  0
LINE
  5
B8D
100
AcDbEntity
  8
V0-OBRYS
  6
CONTINUOUS
 62
    90
100
AcDbLine
 10
977.552254
 20
0.0
 30
0.0
 11
977.552254
 21
-90.0
 31
0.0
  0
LINE
  5
B8E
100
AcDbEntity
  8
V0-OBRYS
  6
CONTINUOUS
 62
    90
100
AcDbLine
 10
937.552254
 20
0.0
 30
0.0
 11
937.552254
 21
-90.0
 31
0.0
  0
LINE
  5
B8F
100
AcDbEntity
  8
V0-OBRYS
  6
CONTINUOUS
 62
    90
100
AcDbLine
 10
922.552254
 20
-90.0
 30
0.0
 11
922.552254
 21
0.0
 31
0.0
  0
LINE
  5
B90
100
AcDbEntity
  8
V0-OBRYS
  6
CONTINUOUS
 62
    90
100
AcDbLine
 10
932.552254
 20
-95.0
 30
0.0
 11
927.552254
 21
-95.0
 31
0.0
  0
ARC
  5
B91
100
AcDbEntity
  8
V0-OBRYS
  6
CONTINUOUS
 62
    90
100
AcDbCircle
 10
932.552254
 20
-90.0
 30
0.0
 40
5.0
100
AcDbArc
 50
270.0
 51
0.0
  0
ARC
  5
B92
100
AcDbEntity
  8
V0-OBRYS
  6
CONTINUOUS
 62
    90
100
AcDbCircle
 10
927.552254
 20
-90.0
 30
0.0
 40
5.0
100
AcDbArc
 50
180.0
 51
270.0
  0
LINE
  5
B93
100
AcDbEntity
  8
V0-OBRYS
  6
CONTINUOUS
 62
    90
100
AcDbLine
 10
977.552254
 20
90.0
 30
0.0
 11
937.552254
 21
90.0
 31
0.0
  0
LINE
  5
B94
100
AcDbEntity
  8
V0-OBRYS
  6
CONTINUOUS
 62
    90
100
AcDbLine
 10
932.552254
 20
95.0
 30
0.0
 11
927.552254
 21
95.0
 31
0.0
  0
ARC
  5
B95
100
AcDbEntity
  8
V0-OBRYS
  6
CONTINUOUS
 62
    90
100
AcDbCircle
 10
932.552254
 20
90.0
 30
0.0
 40
5.0
100
AcDbArc
 50
0.0
 51
90.0
  0
ARC
  5
B96
100
AcDbEntity
  8
V0-OBRYS
  6
CONTINUOUS
 62
    90
100
AcDbCircle
 10
927.552254
 20
90.0
 30
0.0
 40
5.0
100
AcDbArc
 50
90.0
 51
180.0
  0
DIMENSION
  5
BA3
100
AcDbEntity
  8
DEFPOINTS
  6
CONTINUOUS
 62
    90
100
AcDbDimension
  2
*D3
 10
977.547962
 20
-180.224261
 30
0.0
 11
852.550108
 21
-158.722293
 31
0.0
 12
0.0
 22
-10.0
 32
0.0
 70
    32
  3
ED10
100
AcDbAlignedDimension
 13
727.552254
 23
-91.0
 33
0.0
 14
977.547962
 24
-91.0
 34
0.0
100
AcDbRotatedDimension
1001
ACAD
1000
DSTYLE
1002
{
1070
    40
1040
1.0
1002
}
  0
DIMENSION
  5
BFF
100
AcDbEntity
  8
DEFPOINTS
  6
CONTINUOUS
 62
    90
100
AcDbDimension
  2
*D4
 10
937.552254
 20
-138.183206
 30
0.0
 11
852.552254
 21
-116.683206
 31
0.0
 12
0.0
 22
-10.0
 32
0.0
 70
    32
  3
ED10
100
AcDbAlignedDimension
 13
767.552254
 23
-90.0
 33
0.0
 14
937.552254
 24
-90.0
 34
0.0
100
AcDbRotatedDimension
1001
ACAD
1000
DSTYLE
1002
{
1070
    40
1040
1.0
1002
}
  0
LINE
  5
C0A
100
AcDbEntity
  8
V0-OBRYS
  6
CONTINUOUS
 62
    90
100
AcDbLine
 10
922.552254
 20
-224.764677
 30
0.0
 11
922.552254
 21
-304.764677
 31
0.0
  0
LINE
  5
C0B
100
AcDbEntity
  8
V0-OBRYS
  6
CONTINUOUS
 62
    90
100
AcDbLine
 10
937.552254
 20
-304.764677
 30
0.0
 11
937.552254
 21
-224.764677
 31
0.0
  0
LINE
  5
C0C
100
AcDbEntity
  8
V0-OBRYS
  6
CONTINUOUS
 62
    90
100
AcDbLine
 10
977.552254
 20
-304.764677
 30
0.0
 11
977.552254
 21
-224.764677
 31
0.0
  0
LINE
  5
C0D
100
AcDbEntity
  8
V0-OBRYS
  6
CONTINUOUS
 62
    90
100
AcDbLine
 10
782.552254
 20
-224.764677
 30
0.0
 11
782.552254
 21
-314.764677
 31
0.0
  0
LINE
  5
C0E
100
AcDbEntity
  8
V0-OBRYS
  6
CONTINUOUS
 62
    90
100
AcDbLine
 10
767.552254
 20
-314.764677
 30
0.0
 11
767.552254
 21
-224.764677
 31
0.0
  0
LINE
  5
C0F
100
AcDbEntity
  8
V0-OBRYS
  6
CONTINUOUS
 62
    90
100
AcDbLine
 10
727.552254
 20
-314.764677
 30
0.0
 11
727.552254
 21
-224.764677
 31
0.0
  0
LINE
  5
C10
100
AcDbEntity
  8
V0-OBRYS
  6
CONTINUOUS
 62
    90
100
AcDbLine
 10
922.552254
 20
-404.764677
 30
0.0
 11
782.552254
 21
-404.764677
 31
0.0
  0
LINE
  5
C11
100
AcDbEntity
  8
V0-VYPLNE
  6
DASHDOT
 62
    63
100
AcDbLine
 10
727.552254
 20
-314.764677
 30
0.0
 11
987.552254
 21
-314.764677
 31
0.0
  0
ARC
  5
C12
100
AcDbEntity
  8
V0-OBRYS
  6
CONTINUOUS
 62
    90
100
AcDbCircle
 10
777.552254
 20
-404.764677
 30
0.0
 40
5.0
100
AcDbArc
 50
270.0
 51
0.0
  0
ARC
  5
C13
100
AcDbEntity
  8
V0-OBRYS
  6
CONTINUOUS
 62
    90
100
AcDbCircle
 10
772.552254
 20
-404.764677
 30
0.0
 40
5.0
100
AcDbArc
 50
180.0
 51
270.0
  0
LINE
  5
C14
100
AcDbEntity
  8
V0-OBRYS
  6
CONTINUOUS
 62
    90
100
AcDbLine
 10
772.552254
 20
-409.764677
 30
0.0
 11
777.552254
 21
-409.764677
 31
0.0
  0
LINE
  5
C15
100
AcDbEntity
  8
V0-OBRYS
  6
CONTINUOUS
 62
    90
100
AcDbLine
 10
767.552254
 20
-314.764677
 30
0.0
 11
767.552254
 21
-404.764677
 31
0.0
  0
LINE
  5
C16
100
AcDbEntity
  8
V0-OBRYS
  6
CONTINUOUS
 62
    90
100
AcDbLine
 10
782.552254
 20
-404.764677
 30
0.0
 11
782.552254
 21
-314.764677
 31
0.0
  0
LINE
  5
C17
100
AcDbEntity
  8
V0-OBRYS
  6
CONTINUOUS
 62
    90
100
AcDbLine
 10
727.552254
 20
-314.764677
 30
0.0
 11
727.552254
 21
-404.764677
 31
0.0
  0
LINE
  5
C18
100
AcDbEntity
  8
V0-OBRYS
  6
CONTINUOUS
 62
    90
100
AcDbLine
 10
727.552254
 20
-404.764677
 30
0.0
 11
767.552254
 21
-404.764677
 31
0.0
  0
POINT
  5
C19
100
AcDbEntity
  8
V0-VYPLNE
  6
CONTINUOUS
 62
     7
100
AcDbPoint
 10
768.79957
 20
-314.764677
 30
0.0
  0
ARC
  5
C1A
100
AcDbEntity
  8
V0-OBRYS
  6
CONTINUOUS
 62
    90
100
AcDbCircle
 10
927.552254
 20
-404.764677
 30
0.0
 40
5.0
100
AcDbArc
 50
180.0
 51
270.0
  0
ARC
  5
C1B
100
AcDbEntity
  8
V0-OBRYS
  6
CONTINUOUS
 62
    90
100
AcDbCircle
 10
932.552254
 20
-404.764677
 30
0.0
 40
5.0
100
AcDbArc
 50
270.0
 51
0.0
  0
LINE
  5
C1C
100
AcDbEntity
  8
V0-OBRYS
  6
CONTINUOUS
 62
    90
100
AcDbLine
 10
932.552254
 20
-409.764677
 30
0.0
 11
927.552254
 21
-409.764677
 31
0.0
  0
LINE
  5
C1D
100
AcDbEntity
  8
V0-OBRYS
  6
CONTINUOUS
 62
    90
100
AcDbLine
 10
977.552254
 20
-404.764677
 30
0.0
 11
937.552254
 21
-404.764677
 31
0.0
  0
POINT
  5
C1E
100
AcDbEntity
  8
V0-VYPLNE
  6
CONTINUOUS
 62
     7
100
AcDbPoint
 10
937.552254
 20
-314.764677
 30
0.0
  0
LINE
  5
C1F
100
AcDbEntity
  8
V0-OBRYS
  6
CONTINUOUS
 62
    90
100
AcDbLine
 10
922.552254
 20
-404.764677
 30
0.0
 11
922.552254
 21
-324.764677
 31
0.0
  0
LINE
  5
C20
100
AcDbEntity
  8
V0-OBRYS
  6
CONTINUOUS
 62
    90
100
AcDbLine
 10
937.552254
 20
-324.764677
 30
0.0
 11
937.552254
 21
-404.764677
 31
0.0
  0
LINE
  5
C21
100
AcDbEntity
  8
V0-OBRYS
  6
CONTINUOUS
 62
    90
100
AcDbLine
 10
977.552254
 20
-324.764677
 30
0.0
 11
977.552254
 21
-404.764677
 31
0.0
  0
LINE
  5
C22
100
AcDbEntity
  8
V0-OBRYS
  6
CONTINUOUS
 62
    90
100
AcDbLine
 10
922.552254
 20
-224.764677
 30
0.0
 11
782.552254
 21
-224.764677
 31
0.0
  0
LINE
  5
C23
100
AcDbEntity
  8
V0-OBRYS
  6
CONTINUOUS
 62
    90
100
AcDbLine
 10
727.552254
 20
-224.764677
 30
0.0
 11
767.552254
 21
-224.764677
 31
0.0
  0
ARC
  5
C24
100
AcDbEntity
  8
V0-OBRYS
  6
CONTINUOUS
 62
    90
100
AcDbCircle
 10
777.552254
 20
-224.764677
 30
0.0
 40
5.0
100
AcDbArc
 50
0.0
 51
90.0
  0
ARC
  5
C25
100
AcDbEntity
  8
V0-OBRYS
  6
CONTINUOUS
 62
    90
100
AcDbCircle
 10
772.552254
 20
-224.764677
 30
0.0
 40
5.0
100
AcDbArc
 50
90.0
 51
180.0
  0
LINE
  5
C26
100
AcDbEntity
  8
V0-OBRYS
  6
CONTINUOUS
 62
    90
100
AcDbLine
 10
772.552254
 20
-219.764677
 30
0.0
 11
777.552254
 21
-219.764677
 31
0.0
  0
LINE
  5
C27
100
AcDbEntity
  8
V0-OBRYS
  6
CONTINUOUS
 62
    90
100
AcDbLine
 10
977.552254
 20
-224.764677
 30
0.0
 11
937.552254
 21
-224.764677
 31
0.0
  0
ARC
  5
C28
100
AcDbEntity
  8
V0-OBRYS
  6
CONTINUOUS
 62
    90
100
AcDbCircle
 10
927.552254
 20
-224.764677
 30
0.0
 40
5.0
100
AcDbArc
 50
90.0
 51
180.0
  0
ARC
  5
C29
100
AcDbEntity
  8
V0-OBRYS
  6
CONTINUOUS
 62
    90
100
AcDbCircle
 10
932.552254
 20
-224.764677
 30
0.0
 40
5.0
100
AcDbArc
 50
0.0
 51
90.0
  0
LINE
  5
C2A
100
AcDbEntity
  8
V0-OBRYS
  6
CONTINUOUS
 62
    90
100
AcDbLine
 10
932.552254
 20
-219.764677
 30
0.0
 11
927.552254
 21
-219.764677
 31
0.0
  0
DIMENSION
  5
CDF
100
AcDbEntity
  8
V0-VYPLNE
  6
CONTINUOUS
 62
    41
100
AcDbDimension
  2
*D5
 10
987.552254
 20
166.623177
 30
0.0
 11
920.052254
 21
166.623177
 31
0.0
 12
0.0
 22
10.0
 32
0.0
 70
   160
  3
ED15
100
AcDbAlignedDimension
 13
852.552254
 23
132.0
 33
0.0
 14
987.552254
 24
135.0
 34
0.0
100
AcDbRotatedDimension
1001
ACAD
1000
DSTYLE
1002
{
1070
    40
1040
1.0
1070
   178
1070
    41
1070
   177
1070
    41
1070
   176
1070
    41
1002
}
  0
LINE
  5
CE0
100
AcDbEntity
  8
V0-OBRYS
  6
CONTINUOUS
 62
    90
100
AcDbLine
 10
884.773509
 20
-324.764677
 30
0.0
 11
982.552254
 21
-324.764677
 31
0.0
  0
LINE
  5
CE1
100
AcDbEntity
  8
V0-OBRYS
  6
CONTINUOUS
 62
    90
100
AcDbLine
 10
905.036142
 20
-304.764677
 30
0.0
 11
982.552254
 21
-304.764677
 31
0.0
  0
LINE
  5
CE2
100
AcDbEntity
  8
V0-OBRYS
  6
CONTINUOUS
 62
    90
100
AcDbLine
 10
933.936312
 20
132.33835
 30
0.0
 11
908.379874
 21
119.049002
 31
0.0
  0
LINE
  5
CE3
100
AcDbEntity
  8
V0-OBRYS
  6
CONTINUOUS
 62
    90
100
AcDbLine
 10
932.552254
 20
135.0
 30
0.0
 11
907.552254
 21
122.0
 31
0.0
  0
LINE
  5
CE4
100
AcDbEntity
  8
V0-VYPLNE
  6
DASHED
 62
    52
100
AcDbLine
 10
855.552254
 20
119.049002
 30
0.0
 11
855.865235
 21
-94.52964
 31
0.0
  0
LINE
  5
CE5
100
AcDbEntity
  8
V0-VYPLNE
  6
DASHED
 62
    52
100
AcDbLine
 10
849.552254
 20
119.049002
 30
0.0
 11
849.865235
 21
-94.52964
 31
0.0
  0
LINE
  5
CE6
100
AcDbEntity
  8
V0-OBRYS
  6
CONTINUOUS
 62
    90
100
AcDbLine
 10
852.552254
 20
133.0
 30
0.0
 11
852.865235
 21
-99.516903
 31
0.0
  0
ARC
  5
CE7
100
AcDbEntity
  8
V0-VYPLNE
  6
DASHDOT
 62
    63
100
AcDbCircle
 10
852.552254
 20
-314.764677
 30
0.0
 40
40.0
100
AcDbArc
 50
260.720854
 51
98.569564
  0
LINE
  5
CE8
100
AcDbEntity
  8
V0-OBRYS
  6
CONTINUOUS
 62
    90
100
AcDbLine
 10
837.552254
 20
-308.551473
 30
0.0
 11
837.552254
 21
-264.764677
 31
0.0
  0
LINE
  5
CE9
100
AcDbEntity
  8
V0-OBRYS
  6
CONTINUOUS
 62
    90
100
AcDbLine
 10
907.552254
 20
-264.764677
 30
0.0
 11
907.552254
 21
-304.764677
 31
0.0
  0
ARC
  5
CEA
100
AcDbEntity
  8
V0-OBRYS
  6
CONTINUOUS
 62
    90
100
AcDbCircle
 10
852.552254
 20
-314.764677
 30
0.0
 40
43.0
100
AcDbArc
 50
13.447727
 51
90.0
  0
ARC
  5
CEB
100
AcDbEntity
  8
V0-OBRYS
  6
CONTINUOUS
 62
    90
100
AcDbCircle
 10
852.552254
 20
-314.764677
 30
0.0
 40
37.0
100
AcDbArc
 50
15.68035
 51
90.0
  0
LINE
  5
CEC
100
AcDbEntity
  8
V0-OBRYS
  6
CONTINUOUS
 62
    90
100
AcDbLine
 10
907.552254
 20
-364.764677
 30
0.0
 11
837.552254
 21
-364.764677
 31
0.0
  0
LINE
  5
CED
100
AcDbEntity
  8
V0-OBRYS
  6
CONTINUOUS
 62
    90
100
AcDbLine
 10
837.552254
 20
-304.764677
 30
0.0
 11
900.430933
 21
-304.764677
 31
0.0
  0
ARC
  5
CEE
100
AcDbEntity
  8
V0-OBRYS
  6
CONTINUOUS
 62
    90
100
AcDbCircle
 10
852.552254
 20
-314.764677
 30
0.0
 40
43.0
100
AcDbArc
 50
270.0
 51
346.552273
  0
ARC
  5
CEF
100
AcDbEntity
  8
V0-OBRYS
  6
CONTINUOUS
 62
    90
100
AcDbCircle
 10
852.552254
 20
-314.764677
 30
0.0
 40
37.0
100
AcDbArc
 50
270.0
 51
344.31965
  0
LINE
  5
CF0
100
AcDbEntity
  8
V0-OBRYS
  6
CONTINUOUS
 62
    90
100
AcDbLine
 10
837.552254
 20
-324.764677
 30
0.0
 11
880.430933
 21
-324.764677
 31
0.0
  0
LINE
  5
CF1
100
AcDbEntity
  8
V0-OBRYS
  6
CONTINUOUS
 62
    90
100
AcDbLine
 10
837.552254
 20
-364.764677
 30
0.0
 11
837.552254
 21
-318.784259
 31
0.0
  0
ARC
  5
CF2
100
AcDbEntity
  8
V0-OBRYS
  6
CONTINUOUS
 62
    90
100
AcDbCircle
 10
852.552254
 20
-354.764677
 30
0.0
 40
3.0
100
AcDbArc
 50
90.0
 51
270.0
  0
LINE
  5
CF3
100
AcDbEntity
  8
V0-OBRYS
  6
CONTINUOUS
 62
    90
100
AcDbLine
 10
837.552254
 20
-313.764677
 30
0.0
 11
847.653274
 21
-313.764677
 31
0.0
  0
LINE
  5
CF4
100
AcDbEntity
  8
V0-OBRYS
  6
CONTINUOUS
 62
    90
100
AcDbLine
 10
837.552254
 20
-315.764677
 30
0.0
 11
847.653274
 21
-315.764677
 31
0.0
  0
LINE
  5
CF5
100
AcDbEntity
  8
V0-OBRYS
  6
CONTINUOUS
 62
    90
100
AcDbLine
 10
838.856343
 20
-327.736514
 30
0.0
 11
847.109577
 21
-327.736514
 31
0.0
  0
LINE
  5
CF6
100
AcDbEntity
  8
V0-OBRYS
  6
CONTINUOUS
 62
    90
100
AcDbLine
 10
838.856343
 20
-301.79284
 30
0.0
 11
847.109577
 21
-301.79284
 31
0.0
  0
LINE
  5
CF7
100
AcDbEntity
  8
V0-OBRYS
  6
CONTINUOUS
 62
    90
100
AcDbLine
 10
837.552254
 20
-313.764677
 30
0.0
 11
837.552254
 21
-304.764677
 31
0.0
  0
LINE
  5
CF8
100
AcDbEntity
  8
V0-OBRYS
  6
CONTINUOUS
 62
    90
100
AcDbLine
 10
837.552254
 20
-324.764677
 30
0.0
 11
837.552254
 21
-315.764677
 31
0.0
  0
LINE
  5
CF9
100
AcDbEntity
  8
V0-OBRYS
  6
CONTINUOUS
 62
    90
100
AcDbLine
 10
838.856343
 20
-324.641451
 30
0.0
 11
838.856343
 21
-327.736514
 31
0.0
  0
LINE
  5
CFA
100
AcDbEntity
  8
V0-OBRYS
  6
CONTINUOUS
 62
    90
100
AcDbLine
 10
840.746918
 20
-329.369653
 30
0.0
 11
840.746918
 21
-324.764677
 31
0.0
  0
LINE
  5
CFB
100
AcDbEntity
  8
V0-OBRYS
  6
CONTINUOUS
 62
    90
100
AcDbLine
 10
844.787925
 20
-329.369653
 30
0.0
 11
844.787925
 21
-324.764677
 31
0.0
  0
LINE
  5
CFC
100
AcDbEntity
  8
V0-OBRYS
  6
CONTINUOUS
 62
    90
100
AcDbLine
 10
840.746918
 20
-329.369653
 30
0.0
 11
844.787925
 21
-329.369653
 31
0.0
  0
LINE
  5
CFD
100
AcDbEntity
  8
V0-OBRYS
  6
CONTINUOUS
 62
    90
100
AcDbLine
 10
840.746918
 20
-315.764677
 30
0.0
 11
840.746918
 21
-313.764677
 31
0.0
  0
LINE
  5
CFE
100
AcDbEntity
  8
V0-OBRYS
  6
CONTINUOUS
 62
    90
100
AcDbLine
 10
844.787925
 20
-315.764677
 30
0.0
 11
844.787925
 21
-313.764677
 31
0.0
  0
LINE
  5
CFF
100
AcDbEntity
  8
V0-OBRYS
  6
CONTINUOUS
 62
    90
100
AcDbLine
 10
838.856343
 20
-304.887902
 30
0.0
 11
838.856343
 21
-301.79284
 31
0.0
  0
LINE
  5
D00
100
AcDbEntity
  8
V0-OBRYS
  6
CONTINUOUS
 62
    90
100
AcDbLine
 10
844.787925
 20
-301.880481
 30
0.0
 11
844.787925
 21
-304.803849
 31
0.0
  0
LINE
  5
D01
100
AcDbEntity
  8
V0-OBRYS
  6
CONTINUOUS
 62
    90
100
AcDbLine
 10
840.746918
 20
-301.793262
 30
0.0
 11
840.746918
 21
-304.802582
 31
0.0
  0
LINE
  5
D02
100
AcDbEntity
  8
V0-OBRYS
  6
CONTINUOUS
 62
    90
100
AcDbLine
 10
865.431184
 20
-304.777655
 30
0.0
 11
865.431184
 21
-324.665042
 31
0.0
  0
CIRCLE
  5
D03
100
AcDbEntity
  8
V0-OBRYS
  6
CONTINUOUS
 62
    90
100
AcDbCircle
 10
852.552254
 20
-314.764677
 30
0.0
 40
5.0
  0
LINE
  5
D04
100
AcDbEntity
  8
V0-OBRYS
  6
CONTINUOUS
 62
    90
100
AcDbLine
 10
847.109577
 20
-327.736514
 30
0.0
 11
847.109577
 21
-324.638918
 31
0.0
  0
LINE
  5
D05
100
AcDbEntity
  8
V0-OBRYS
  6
CONTINUOUS
 62
    90
100
AcDbLine
 10
847.109577
 20
-301.79284
 30
0.0
 11
847.109577
 21
-304.890435
 31
0.0
  0
LINE
  5
D06
100
AcDbEntity
  8
V0-OBRYS
100
AcDbLine
 10
907.552254
 20
-324.764677
 30
0.0
 11
907.552254
 21
-355.622541
 31
0.0
  0
LINE
  5
D07
100
AcDbEntity
  8
V0-OBRYS
100
AcDbLine
 10
907.552254
 20
-324.764677
 30
0.0
 11
907.552254
 21
-355.622541
 31
0.0
  0
LINE
  5
D08
100
AcDbEntity
  8
V0-OBRYS
  6
CONTINUOUS
 62
    90
100
AcDbLine
 10
907.552254
 20
-324.764677
 30
0.0
 11
907.552254
 21
-364.764677
 31
0.0
  0
CIRCLE
  5
D09
100
AcDbEntity
  8
V0-OBRYS
  6
CONTINUOUS
 62
    90
100
AcDbCircle
 10
892.552254
 20
-314.764677
 30
0.0
 40
6.0
  0
CIRCLE
  5
D0A
100
AcDbEntity
  8
V0-OBRYS
  6
CONTINUOUS
 62
    90
100
AcDbCircle
 10
892.552254
 20
-314.764677
 30
0.0
 40
3.0
  0
LINE
  5
D0B
100
AcDbEntity
  8
V0-OBRYS
  6
CONTINUOUS
 62
    90
100
AcDbLine
 10
877.349458
 20
-327.846152
 30
0.0
 11
887.392627
 21
-317.802983
 31
0.0
  0
LINE
  5
D0C
100
AcDbEntity
  8
V0-OBRYS
  6
CONTINUOUS
 62
    90
100
AcDbLine
 10
879.470778
 20
-329.967472
 30
0.0
 11
889.513947
 21
-319.924304
 31
0.0
  0
LINE
  5
D0D
100
AcDbEntity
  8
V0-OBRYS
  6
CONTINUOUS
 62
    90
100
AcDbLine
 10
877.349458
 20
-327.846152
 30
0.0
 11
879.470778
 21
-329.967472
 31
0.0
  0
LINE
  5
D0E
100
AcDbEntity
  8
V0-OBRYS
  6
CONTINUOUS
 62
    90
100
AcDbLine
 10
907.755049
 20
-301.683201
 30
0.0
 11
897.71188
 21
-311.72637
 31
0.0
  0
LINE
  5
D0F
100
AcDbEntity
  8
V0-OBRYS
  6
CONTINUOUS
 62
    90
100
AcDbLine
 10
905.633729
 20
-299.561881
 30
0.0
 11
895.59056
 21
-309.60505
 31
0.0
  0
LINE
  5
D10
100
AcDbEntity
  8
V0-OBRYS
  6
CONTINUOUS
 62
    90
100
AcDbLine
 10
905.633729
 20
-299.561881
 30
0.0
 11
907.755049
 21
-301.683201
 31
0.0
  0
LINE
  5
D11
100
AcDbEntity
  8
V0-OBRYS
  6
CONTINUOUS
 62
    90
100
AcDbLine
 10
837.552254
 20
-264.764677
 30
0.0
 11
907.552254
 21
-264.764677
 31
0.0
  0
ARC
  5
D12
100
AcDbEntity
  8
V0-OBRYS
  6
CONTINUOUS
 62
    90
100
AcDbCircle
 10
852.552254
 20
-274.764677
 30
0.0
 40
3.0
100
AcDbArc
 50
90.0
 51
270.0
  0
LWPOLYLINE
  5
D13
100
AcDbEntity
  8
V0-OBRYS
  6
CONTINUOUS
 62
    90
100
AcDbPolyline
 90
        4
 70
     1
 43
0.0
 10
844.466563
 20
-94.54388
 10
860.637944
 20
-94.54388
 10
860.637944
 20
-90.0
 10
844.466563
 20
-90.0
  0
LINE
  5
D14
100
AcDbEntity
  8
V0-OBRYS
  6
CONTINUOUS
 62
    90
100
AcDbLine
 10
855.865235
 20
-94.54388
 30
0.0
 11
855.865235
 21
-96.753824
 31
0.0
  0
LINE
  5
D15
100
AcDbEntity
  8
V0-OBRYS
  6
CONTINUOUS
 62
    90
100
AcDbLine
 10
849.865235
 20
-94.54388
 30
0.0
 11
849.865235
 21
-96.753824
 31
0.0
  0
LINE
  5
D16
100
AcDbEntity
  8
V0-OBRYS
  6
CONTINUOUS
 62
    90
100
AcDbLine
 10
849.865235
 20
-96.753824
 30
0.0
 11
855.865235
 21
-96.753824
 31
0.0
  0
LINE
  5
D17
100
AcDbEntity
  8
V0-VYPLNE
  6
DASHDOT
 62
    63
100
AcDbLine
 10
887.552254
 20
135.0
 30
0.0
 11
887.552254
 21
116.582585
 31
0.0
  0
ARC
  5
D18
100
AcDbEntity
  8
V0-OBRYS
  6
CONTINUOUS
 62
    90
100
AcDbCircle
 10
827.552254
 20
124.524501
 30
0.0
 40
5.475499
100
AcDbArc
 50
90.0
 51
270.0
  0
LINE
  5
D19
100
AcDbEntity
  8
V0-OBRYS
  6
CONTINUOUS
 62
    90
100
AcDbLine
 10
908.379874
 20
119.049002
 30
0.0
 11
852.024427
 21
119.049002
 31
0.0
  0
LINE
  5
D1A
100
AcDbEntity
  8
V0-VYPLNE
  6
DASHED
 62
    52
 48
0.5
100
AcDbLine
 10
844.296765
 20
90.0
 30
0.0
 11
852.552254
 21
90.0
 31
0.0
  0
LINE
  5
D1B
100
AcDbEntity
  8
V0-OBRYS
  6
CONTINUOUS
 62
    90
100
AcDbLine
 10
822.552254
 20
119.049002
 30
0.0
 11
853.08008
 21
119.049002
 31
0.0
  0
LINE
  5
D1C
100
AcDbEntity
  8
V0-OBRYS
  6
CONTINUOUS
 62
    90
100
AcDbLine
 10
822.552254
 20
119.049002
 30
0.0
 11
822.552254
 21
78.738635
 31
0.0
  0
LINE
  5
D1D
100
AcDbEntity
  8
V0-OBRYS
  6
CONTINUOUS
 62
    90
100
AcDbLine
 10
902.552254
 20
119.049002
 30
0.0
 11
902.552254
 21
78.738635
 31
0.0
  0
LINE
  5
D1E
100
AcDbEntity
  8
V0-OBRYS
  6
CONTINUOUS
 62
    90
100
AcDbLine
 10
907.646488
 20
122.049002
 30
0.0
 11
831.913067
 21
122.049002
 31
0.0
  0
LINE
  5
D1F
100
AcDbEntity
  8
V0-OBRYS
  6
CONTINUOUS
 62
    90
100
AcDbLine
 10
865.552254
 20
127.0
 30
0.0
 11
831.913067
 21
127.0
 31
0.0
  0
LINE
  5
D20
100
AcDbEntity
  8
V0-OBRYS
  6
CONTINUOUS
 62
    90
100
AcDbLine
 10
865.552254
 20
130.0
 30
0.0
 11
827.552254
 21
130.0
 31
0.0
  0
LINE
  5
D22
100
AcDbEntity
  8
V0-OBRYS
  6
CONTINUOUS
 62
    90
100
AcDbLine
 10
849.552254
 20
132.0
 30
0.0
 11
852.552254
 21
132.0
 31
0.0
  0
LINE
  5
D23
100
AcDbEntity
  8
V0-OBRYS
  6
CONTINUOUS
 62
    90
100
AcDbLine
 10
849.552254
 20
130.0
 30
0.0
 11
849.552254
 21
132.0
 31
0.0
  0
LINE
  5
D24
100
AcDbEntity
  8
V0-OBRYS
  6
CONTINUOUS
 62
    90
100
AcDbLine
 10
849.552254
 20
122.0
 30
0.0
 11
849.552254
 21
127.072606
 31
0.0
  0
LINE
  5
D25
100
AcDbEntity
  8
V0-OBRYS
  6
CONTINUOUS
 62
    90
100
AcDbLine
 10
855.552254
 20
122.0
 30
0.0
 11
855.552254
 21
127.072606
 31
0.0
  0
LINE
  5
D26
100
AcDbEntity
  8
V0-OBRYS
  6
CONTINUOUS
 62
    90
100
AcDbLine
 10
855.552254
 20
130.0
 30
0.0
 11
855.552254
 21
132.0
 31
0.0
  0
LINE
  5
D27
100
AcDbEntity
  8
V0-OBRYS
  6
CONTINUOUS
 62
    90
100
AcDbLine
 10
855.552254
 20
132.0
 30
0.0
 11
852.552254
 21
132.0
 31
0.0
  0
LINE
  5
D28
100
AcDbEntity
  8
V0-OBRYS
  6
CONTINUOUS
 62
    90
100
AcDbLine
 10
865.552254
 20
130.0
 30
0.0
 11
865.552254
 21
127.0
 31
0.0
  0
LINE
  5
D29
100
AcDbEntity
  8
V0-OBRYS
  6
CONTINUOUS
 62
    90
100
AcDbLine
 10
901.043319
 20
129.590211
 30
0.0
 11
891.587815
 21
122.049002
 31
0.0
  0
LINE
  5
D2A
100
AcDbEntity
  8
V0-OBRYS
  6
CONTINUOUS
 62
    90
100
AcDbLine
 10
889.912598
 20
126.023604
 30
0.0
 11
899.573223
 21
132.527417
 31
0.0
  0
LINE
  5
D2B
100
AcDbEntity
  8
V0-OBRYS
  6
CONTINUOUS
 62
    90
100
AcDbLine
 10
874.061188
 20
129.590211
 30
0.0
 11
883.516692
 21
122.049002
 31
0.0
  0
LINE
  5
D2C
100
AcDbEntity
  8
V0-OBRYS
  6
CONTINUOUS
 62
    90
100
AcDbLine
 10
885.191909
 20
126.023604
 30
0.0
 11
875.531284
 21
132.527417
 31
0.0
  0
LINE
  5
D2D
100
AcDbEntity
  8
V0-OBRYS
  6
CONTINUOUS
 62
    90
100
AcDbLine
 10
875.531284
 20
132.527417
 30
0.0
 11
874.061188
 21
129.590211
 31
0.0
  0
LINE
  5
D2E
100
AcDbEntity
  8
V0-OBRYS
  6
CONTINUOUS
 62
    90
100
AcDbLine
 10
887.502059
 20
126.023604
 30
0.0
 11
885.191909
 21
126.023604
 31
0.0
  0
LINE
  5
D2F
100
AcDbEntity
  8
V0-OBRYS
  6
CONTINUOUS
 62
    90
100
AcDbLine
 10
885.191909
 20
126.023604
 30
0.0
 11
883.511801
 21
122.037396
 31
0.0
  0
LINE
  5
D30
100
AcDbEntity
  8
V0-OBRYS
  6
CONTINUOUS
 62
    90
100
AcDbLine
 10
887.602448
 20
126.023604
 30
0.0
 11
889.912598
 21
126.023604
 31
0.0
  0
LINE
  5
D31
100
AcDbEntity
  8
V0-OBRYS
  6
CONTINUOUS
 62
    90
100
AcDbLine
 10
889.912598
 20
126.023604
 30
0.0
 11
891.592706
 21
122.037396
 31
0.0
  0
LINE
  5
D32
100
AcDbEntity
  8
V0-OBRYS
  6
CONTINUOUS
 62
    90
100
AcDbLine
 10
899.573223
 20
132.527417
 30
0.0
 11
901.043319
 21
129.590211
 31
0.0
  0
LINE
  5
D33
100
AcDbEntity
  8
V0-VYPLNE
  6
DASHDOT
 62
    63
100
AcDbLine
 10
1199.042507
 20
123.75
 30
0.0
 11
1199.042507
 21
-97.598052
 31
0.0
  0
LINE
  5
D34
100
AcDbEntity
  8
V0-OBRYS
  6
CONTINUOUS
 62
    90
100
AcDbLine
 10
1195.667507
 20
89.75529
 30
0.0
 11
1196.019612
 21
-97.598052
 31
0.0
  0
LINE
  5
D35
100
AcDbEntity
  8
V0-OBRYS
  6
CONTINUOUS
 62
    90
100
AcDbLine
 10
1202.417507
 20
89.981379
 30
0.0
 11
1202.769612
 21
-97.598052
 31
0.0
  0
LINE
  5
D36
100
AcDbEntity
  8
V0-OBRYS
  6
CONTINUOUS
 62
    90
100
AcDbLine
 10
982.552254
 20
-304.764677
 30
0.0
 11
987.552254
 21
-309.764677
 31
0.0
  0
LINE
  5
D37
100
AcDbEntity
  8
V0-OBRYS
  6
CONTINUOUS
 62
    90
100
AcDbLine
 10
987.552254
 20
-319.764677
 30
0.0
 11
982.552254
 21
-324.764677
 31
0.0
  0
LINE
  5
D38
100
AcDbEntity
  8
V0-OBRYS
  6
CONTINUOUS
 62
    90
100
AcDbLine
 10
987.552254
 20
-319.764677
 30
0.0
 11
987.552254
 21
-309.764677
 31
0.0
  0
LINE
  5
D3A
100
AcDbEntity
  8
V0-OBRYS
  6
CONTINUOUS
 62
    90
100
AcDbLine
 10
1196.019612
 20
-97.598052
 30
0.0
 11
1202.769612
 21
-97.598052
 31
0.0
  0
DIMENSION
  5
D3B
100
AcDbEntity
  8
V0-VYPLNE
  6
CONTINUOUS
 62
    41
100
AcDbDimension
  2
*D6
 10
1003.883946
 20
90.0
 30
0.0
 11
994.883946
 21
102.5
 31
0.0
 12
0.0
 22
10.0
 32
0.0
 70
    32
  3
ED15
100
AcDbAlignedDimension
 13
987.552254
 23
135.0
 33
0.0
 14
952.552254
 24
90.0
 34
0.0
 50
90.0
100
AcDbRotatedDimension
1001
ACAD
1000
DSTYLE
1002
{
1070
    40
1040
1.0
1070
   178
1070
    41
1070
   177
1070
    41
1070
   176
1070
    41
1002
}
  0
LINE
  5
D3C
100
AcDbEntity
  8
V0-OBRYS
  6
CONTINUOUS
 62
    90
100
AcDbLine
 10
987.552254
 20
132.0
 30
0.0
 11
932.552254
 21
132.0
 31
0.0
  0
LINE
  5
D3D
100
AcDbEntity
  8
V0-OBRYS
  6
CONTINUOUS
 62
    90
100
AcDbLine
 10
987.552254
 20
135.0
 30
0.0
 11
932.552254
 21
135.0
 31
0.0
  0
LINE
  5
D3F
100
AcDbEntity
  8
V0-OBRYS
  6
CONTINUOUS
 62
    90
100
AcDbLine
 10
1187.458992
 20
137.676475
 30
0.0
 11
1197.959208
 21
137.676475
 31
0.0
  0
LINE
  5
D40
100
AcDbEntity
  8
V0-OBRYS
  6
CONTINUOUS
 62
    90
100
AcDbLine
 10
1197.959208
 20
124.931646
 30
0.0
 11
1187.381551
 21
124.931646
 31
0.0
  0
LINE
  5
D41
100
AcDbEntity
  8
V0-OBRYS
  6
CONTINUOUS
 62
    90
100
AcDbLine
 10
1142.792507
 20
123.75
 30
0.0
 11
1255.292507
 21
123.75
 31
0.0
  0
LINE
  5
D43
100
AcDbEntity
  8
V0-OBRYS
  6
CONTINUOUS
 62
    90
100
AcDbLine
 10
1187.458992
 20
127.18292
 30
0.0
 11
1187.458992
 21
123.75
 31
0.0
  0
LINE
  5
D44
100
AcDbEntity
  8
V0-OBRYS
  6
CONTINUOUS
 62
    90
100
AcDbLine
 10
1187.458992
 20
123.75
 30
0.0
 11
1187.458992
 21
137.676475
 31
0.0
  0
LINE
  5
D45
100
AcDbEntity
  8
V0-OBRYS
  6
CONTINUOUS
 62
    90
100
AcDbLine
 10
1142.792507
 20
123.75
 30
0.0
 11
1142.792507
 21
77.330965
 31
0.0
  0
LINE
  5
D46
100
AcDbEntity
  8
V0-OBRYS
  6
CONTINUOUS
 62
    90
100
AcDbLine
 10
1184.03871
 20
128.525643
 30
0.0
 11
1187.424195
 21
128.525643
 31
0.0
  0
LINE
  5
D47
100
AcDbEntity
  8
V0-OBRYS
  6
CONTINUOUS
 62
    90
100
AcDbLine
 10
1187.458992
 20
126.398747
 30
0.0
 11
1184.038235
 21
126.398747
 31
0.0
  0
LINE
  5
D48
100
AcDbEntity
  8
V0-OBRYS
  6
CONTINUOUS
 62
    90
100
AcDbLine
 10
1184.038235
 20
135.683635
 30
0.0
 11
1187.523029
 21
135.683635
 31
0.0
  0
LINE
  5
D49
100
AcDbEntity
  8
V0-OBRYS
  6
CONTINUOUS
 62
    90
100
AcDbLine
 10
1184.136831
 20
133.071777
 30
0.0
 11
1187.42562
 21
133.071777
 31
0.0
  0
LINE
  5
D4A
100
AcDbEntity
  8
V0-OBRYS
  6
CONTINUOUS
 62
    90
100
AcDbLine
 10
1184.038235
 20
126.398747
 30
0.0
 11
1184.038235
 21
135.683635
 31
0.0
  0
LINE
  5
D4B
100
AcDbEntity
  8
V0-OBRYS
  6
CONTINUOUS
 62
    90
100
AcDbLine
 10
1210.000645
 20
127.18292
 30
0.0
 11
1210.000645
 21
123.75
 31
0.0
  0
LINE
  5
D4C
100
AcDbEntity
  8
V0-OBRYS
  6
CONTINUOUS
 62
    90
100
AcDbLine
 10
1210.000645
 20
123.75
 30
0.0
 11
1210.000645
 21
137.676475
 31
0.0
  0
LINE
  5
D4D
100
AcDbEntity
  8
V0-OBRYS
  6
CONTINUOUS
 62
    90
100
AcDbLine
 10
1197.959208
 20
124.931646
 30
0.0
 11
1197.959208
 21
137.676475
 31
0.0
  0
LINE
  5
D4E
100
AcDbEntity
  8
V0-OBRYS
  6
CONTINUOUS
 62
    90
100
AcDbLine
 10
1200.209208
 20
124.931646
 30
0.0
 11
1200.209208
 21
137.676475
 31
0.0
  0
LINE
  5
D4F
100
AcDbEntity
  8
V0-VYPLNE
  6
DASHED
 62
    52
100
AcDbLine
 10
1195.667507
 20
123.75
 30
0.0
 11
1195.667507
 21
90.659643
 31
0.0
  0
LINE
  5
D50
100
AcDbEntity
  8
V0-VYPLNE
  6
DASHED
 62
    52
100
AcDbLine
 10
1202.417507
 20
123.75
 30
0.0
 11
1202.417507
 21
91.111819
 31
0.0
  0
LINE
  5
D51
100
AcDbEntity
  8
V0-OBRYS
  6
CONTINUOUS
 62
    90
100
AcDbLine
 10
1209.881551
 20
124.931646
 30
0.0
 11
1200.209208
 21
124.931646
 31
0.0
  0
LINE
  5
D52
100
AcDbEntity
  8
V0-OBRYS
  6
CONTINUOUS
 62
    90
100
AcDbLine
 10
1255.292507
 20
123.75
 30
0.0
 11
1255.292507
 21
77.330965
 31
0.0
  0
LINE
  5
D53
100
AcDbEntity
  8
V0-OBRYS
  6
CONTINUOUS
 62
    90
100
AcDbLine
 10
1200.209208
 20
137.676475
 30
0.0
 11
1210.000645
 21
137.676475
 31
0.0
  0
LINE
  5
D54
100
AcDbEntity
  8
V0-OBRYS
  6
CONTINUOUS
 62
    90
100
AcDbLine
 10
1200.209208
 20
128.582171
 30
0.0
 11
1197.959208
 21
128.582171
 31
0.0
  0
LINE
  5
D55
100
AcDbEntity
  8
V0-OBRYS
  6
CONTINUOUS
 62
    90
100
AcDbLine
 10
1200.209208
 20
133.128305
 30
0.0
 11
1197.959208
 21
133.128305
 31
0.0
  0
LINE
  5
D56
100
AcDbEntity
  8
V0-OBRYS
  6
CONTINUOUS
 62
    90
100
AcDbLine
 10
1210.000645
 20
126.398747
 30
0.0
 11
1213.224868
 21
126.398747
 31
0.0
  0
LINE
  5
D57
100
AcDbEntity
  8
V0-OBRYS
  6
CONTINUOUS
 62
    90
100
AcDbLine
 10
1213.224868
 20
135.683635
 30
0.0
 11
1210.000645
 21
135.683635
 31
0.0
  0
LINE
  5
D58
100
AcDbEntity
  8
V0-OBRYS
  6
CONTINUOUS
 62
    90
100
AcDbLine
 10
1215.06215
 20
128.525643
 30
0.0
 11
1210.000645
 21
128.525643
 31
0.0
  0
LINE
  5
D59
100
AcDbEntity
  8
V0-OBRYS
  6
CONTINUOUS
 62
    90
100
AcDbLine
 10
1215.06215
 20
133.071777
 30
0.0
 11
1210.000645
 21
133.071777
 31
0.0
  0
LINE
  5
D5A
100
AcDbEntity
  8
V0-OBRYS
  6
CONTINUOUS
 62
    90
100
AcDbLine
 10
1215.06215
 20
128.525643
 30
0.0
 11
1215.06215
 21
133.071777
 31
0.0
  0
LINE
  5
D5B
100
AcDbEntity
  8
V0-OBRYS
  6
CONTINUOUS
 62
    90
100
AcDbLine
 10
1213.224868
 20
126.398747
 30
0.0
 11
1213.224868
 21
135.683635
 31
0.0
  0
MTEXT
  5
D5E
100
AcDbEntity
  8
V0-NAZVY
100
AcDbMText
 10
1186.995011
 20
-248.441501
 30
0.0
 40
30.0
 41
246.7686
 71
     5
 72
     5
  1
MSK-180
  7
ED10
  0
MTEXT
  5
D5F
100
AcDbEntity
  8
V0-ZBYTEK
 62
    51
100
AcDbMText
 10
1194.694402
 20
-292.41612
 30
0.0
 40
16.8
 41
475.91088
 71
     5
 72
     5
  1
KLAPKA SKRTICI
  7
ED10
  0
MTEXT
  5
D60
100
AcDbEntity
  8
V0-ZBYTEK
100
AcDbMText
 10
1192.781706
 20
-328.781376
 30
0.0
 40
12.0
 41
188.5146
 71
     5
 72
     5
  1
S RUCNIM OVLADANIM KOVOVYM
  7
ED10
  0
CIRCLE
  5
DA8
100
AcDbEntity
  8
V0-OBRYS
  6
CONTINUOUS
 62
    90
100
AcDbCircle
 10
1199.042507
 20
0.0
 30
0.0
 40
90.0
  0
CIRCLE
  5
DA9
100
AcDbEntity
  8
V0-OBRYS
  6
CONTINUOUS
 62
    90
100
AcDbCircle
 10
1199.042507
 20
0.0
 30
0.0
 40
95.625
  0
LINE
  5
DAA
100
AcDbEntity
  8
V0-OBRYS
  6
CONTINUOUS
 62
    90
100
AcDbLine
 10
1190.616787
 20
86.832293
 30
0.0
 11
1208.179217
 21
86.832293
 31
0.0
  0
LINE
  5
DAB
100
AcDbEntity
  8
V0-OBRYS
  6
CONTINUOUS
 62
    90
100
AcDbLine
 10
1208.179217
 20
86.832293
 30
0.0
 11
1208.179217
 21
89.535024
 31
0.0
  0
LINE
  5
DAD
100
AcDbEntity
  8
V0-OBRYS
  6
CONTINUOUS
 62
    90
100
AcDbLine
 10
1190.616787
 20
89.604728
 30
0.0
 11
1190.616787
 21
86.832293
 31
0.0
  0
LINE
  5
DB0
100
AcDbEntity
  8
V0-OBRYS
  6
CONTINUOUS
 62
    90
100
AcDbLine
 10
1207.61952
 20
-88.388461
 30
0.0
 11
1190.05709
 21
-88.388461
 31
0.0
  0
ELLIPSE
  5
DB2
100
AcDbEntity
  8
V0-OBRYS
  6
CONTINUOUS
 62
    90
100
AcDbEllipse
 10
1198.943272
 20
-1.010718
 30
0.0
 11
0.1049668982348635
 21
87.37774334287271
 31
0.0
210
0.0
220
0.0
230
1.0
 40
0.665028
 41
0.0
 42
6.283185307179586
  0
LINE
  5
DB3
100
AcDbEntity
  8
V0-OBRYS
  6
CONTINUOUS
 62
    90
100
AcDbLine
 10
902.552254
 20
78.738635
 30
0.0
 11
821.143165
 21
78.738635
 31
0.0
  0
LINE
  5
DB4
100
AcDbEntity
  8
V0-OBRYS
  6
CONTINUOUS
 62
    90
100
AcDbLine
 10
822.552254
 20
90.0
 30
0.0
 11
782.552254
 21
90.0
 31
0.0
  0
LINE
  5
DB5
100
AcDbEntity
  8
V0-VYPLNE
  6
DASHED
 62
    52
 48
0.5
100
AcDbLine
 10
844.466563
 20
90.0
 30
0.0
 11
860.637944
 21
90.0
 31
0.0
  0
LINE
  5
DB6
100
AcDbEntity
  8
V0-VYPLNE
  6
DASHED
 62
    52
 48
0.5
100
AcDbLine
 10
860.637944
 20
90.0
 30
0.0
 11
860.637944
 21
94.54388
 31
0.0
  0
LINE
  5
DB7
100
AcDbEntity
  8
V0-VYPLNE
  6
DASHED
 62
    52
 48
0.5
100
AcDbLine
 10
860.637944
 20
94.54388
 30
0.0
 11
844.466563
 21
94.54388
 31
0.0
  0
LINE
  5
DB8
100
AcDbEntity
  8
V0-VYPLNE
  6
DASHED
 62
    52
 48
0.5
100
AcDbLine
 10
844.466563
 20
94.54388
 30
0.0
 11
844.466563
 21
90.0
 31
0.0
  0
LINE
  5
DB9
100
AcDbEntity
  8
V0-VYPLNE
  6
DASHED
 62
    52
100
AcDbLine
 10
822.552254
 20
90.0
 30
0.0
 11
902.552254
 21
90.0
 31
0.0
  0
LWPOLYLINE
  5
DBA
100
AcDbEntity
  8
V0-OBRYS
  6
CONTINUOUS
 62
    90
100
AcDbPolyline
 90
        6
 70
     1
 43
0.0
 10
823.19144
 20
122.006784
 10
827.552254
 20
119.489067
 10
831.913067
 20
122.006784
 10
831.913067
 20
127.042218
 10
827.552254
 20
129.559935
 10
823.19144
 20
127.042218
  0
CIRCLE
  5
DBB
100
AcDbEntity
  8
V0-OBRYS
  6
CONTINUOUS
 62
    90
100
AcDbCircle
 10
827.552254
 20
124.524501
 30
0.0
 40
2.084952
  0
CIRCLE
  5
DBC
100
AcDbEntity
  8
V0-OBRYS
  6
CONTINUOUS
 62
    90
100
AcDbCircle
 10
827.552254
 20
124.524501
 30
0.0
 40
4.360814
  0
LINE
  5
DBD
100
AcDbEntity
  8
V0-VYPLNE
  6
DASHDOT
 62
    63
100
AcDbLine
 10
1085.591537
 20
0.0
 30
0.0
 11
1307.946531
 21
0.0
 31
0.0
  0
LINE
  5
DC4
100
AcDbEntity
  8
V0-VYPLNE
  6
DASHED
 62
    52
100
AcDbLine
 10
801.590067
 20
-393.313921
 30
0.0
 11
905.825311
 21
-231.07912
 31
0.0
  0
POINT
  5
DCA
100
AcDbEntity
  8
V0-VYPLNE
  6
CONTINUOUS
 62
     7
100
AcDbPoint
 10
1199.042507
 20
0.0
 30
0.0
  0
ELLIPSE
  5
DCB
100
AcDbEntity
  8
V0-VYPLNE
  6
DASHED
 62
    52
100
AcDbEllipse
 10
853.707688
 20
-0.422916
 30
0.0
 11
0.0
 21
74.29228486251054
 31
0.0
210
0.0
220
0.0
230
1.0
 40
0.623932
 41
0.0
 42
6.283185307179586
  0
MTEXT
  5
FB3
100
AcDbEntity
  8
V0-NAZVY
100
AcDbMText
 10
1200.075979
 20
-139.0021
 30
0.0
 40
21.0
 41
172.73802
 71
     5
 72
     5
  1
MSK-180
  7
ED10
  0
MTEXT
  5
FB5
100
AcDbEntity
  8
V0-NAZVY
100
AcDbMText
 10
848.994079
 20
-35.319899
 30
0.0
 40
21.0
 41
172.73802
 71
     5
 72
     5
  1
MSK-180
  7
ED10
  0
MTEXT
  5
FB6
100
AcDbEntity
  8
V0-NAZVY
100
AcDbMText
 10
860.365154
 20
-251.206124
 30
0.0
 40
21.0
 41
172.73802
 71
     5
 72
     5
  1
MSK-180
  7
ED10
  0
VIEWPORT
  5
22
100
AcDbEntity
 67
     1
  8
0
100
AcDbViewport
 10
261.517699
 20
148.5
 30
0.0
 40
523.035398
 41
297.0
 68
    -1
 69
     1
1001
ACAD
1000
MVIEW
1002
{
1070
    16
1010
0.0
1020
0.0
1030
0.0
1010
0.0
1020
0.0
1030
1.0
1040
0.0
1040
297.0
1040
261.517699
1040
148.5
1040
50.0
1040
0.0
1040
0.0
1070
     0
1070
   100
1070
     1
1070
     1
1070
     0
1070
     0
1070
     0
1070
     0
1040
0.0
1040
0.0
1040
0.0
1040
1.0
1040
1.0
1040
10.0
1040
10.0
1070
     0
1002
{
1002
}
1002
}
  0
ENDSEC
  0
SECTION
  2
OBJECTS
  0
DICTIONARY
  5
C
100
AcDbDictionary
  3
ACAD_GROUP
350
D
  3
ACAD_MLINESTYLE
350
E
  3
ACDBVARIABLEDICTIONARY
350
5D
  0
DICTIONARY
  5
D
102
{ACAD_REACTORS
330
C
102
}
100
AcDbDictionary
  0
DICTIONARY
  5
E
102
{ACAD_REACTORS
330
C
102
}
100
AcDbDictionary
  3
STANDARD
350
13
  0
DICTIONARY
  5
5D
102
{ACAD_REACTORS
330
C
102
}
100
AcDbDictionary
  3
DIMADEC
350
5E
  3
SORTENTS
350
3D8
  0
MLINESTYLE
  5
13
102
{ACAD_REACTORS
330
E
102
}
100
AcDbMlineStyle
  2
STANDARD
 70
     0
  3

 62
     0
 51
90.0
 52
90.0
 71
     2
 49
0.5
 62
   256
  6
BYLAYER
 49
-0.5
 62
   256
  6
BYLAYER
  0
DICTIONARYVAR
  5
5E
102
{ACAD_REACTORS
330
5D
102
}
100
DictionaryVariables
280
     0
  1
0
  0
DICTIONARYVAR
  5
3D8
102
{ACAD_REACTORS
330
5D
102
}
100
DictionaryVariables
280
     0
  1
96
  0
ENDSEC
  0
EOF
