  0
SECTION
  2
HEADER
  9
$ACADVER
  1
AC1014
  9
$ACADMAINTVER
 70
     0
  9
$DWGCODEPAGE
  3
ANSI_1250
  9
$INSBASE
 10
0.0
 20
0.0
 30
0.0
  9
$EXTMIN
 10
-63.738222
 20
-298.968208
 30
0.0
  9
$EXTMAX
 10
1279.185884
 20
334.991173
 30
0.0
  9
$LIMMIN
 10
0.0
 20
0.0
  9
$LIMMAX
 10
420.0
 20
297.0
  9
$ORTHOMODE
 70
     1
  9
$REGENMODE
 70
     1
  9
$FILLMODE
 70
     1
  9
$QTEXTMODE
 70
     0
  9
$MIRRTEXT
 70
     1
  9
$DRAGMODE
 70
     2
  9
$LTSCALE
 40
1.0
  9
$OSMODE
 70
    15
  9
$ATTMODE
 70
     1
  9
$TEXTSIZE
 40
2.5
  9
$TRACEWID
 40
1.0
  9
$TEXTSTYLE
  7
ED
  9
$CLAYER
  8
0
  9
$CELTYPE
  6
BYLAYER
  9
$CECOLOR
 62
   256
  9
$CELTSCALE
 40
1.0
  9
$DELOBJ
 70
     1
  9
$DISPSILH
 70
     0
  9
$DIMSCALE
 40
0.0
  9
$DIMASZ
 40
15.0
  9
$DIMEXO
 40
0.625
  9
$DIMDLI
 40
3.75
  9
$DIMRND
 40
0.0
  9
$DIMDLE
 40
0.0
  9
$DIMEXE
 40
1.25
  9
$DIMTP
 40
0.0
  9
$DIMTM
 40
0.0
  9
$DIMTXT
 40
15.0
  9
$DIMCEN
 40
2.5
  9
$DIMTSZ
 40
0.0
  9
$DIMTOL
 70
     0
  9
$DIMLIM
 70
     0
  9
$DIMTIH
 70
     0
  9
$DIMTOH
 70
     0
  9
$DIMSE1
 70
     0
  9
$DIMSE2
 70
     0
  9
$DIMTAD
 70
     1
  9
$DIMZIN
 70
     8
  9
$DIMBLK
  1

  9
$DIMASO
 70
     1
  9
$DIMSHO
 70
     1
  9
$DIMPOST
  1

  9
$DIMAPOST
  1

  9
$DIMALT
 70
     0
  9
$DIMALTD
 70
     4
  9
$DIMALTF
 40
0.0394
  9
$DIMLFAC
 40
1.0
  9
$DIMTOFL
 70
     1
  9
$DIMTVP
 40
0.0
  9
$DIMTIX
 70
     0
  9
$DIMSOXD
 70
     0
  9
$DIMSAH
 70
     1
  9
$DIMBLK1
  1
_OPEN
  9
$DIMBLK2
  1
_OPEN
  9
$DIMSTYLE
  2
ED
  9
$DIMCLRD
 70
     0
  9
$DIMCLRE
 70
     0
  9
$DIMCLRT
 70
     0
  9
$DIMTFAC
 40
1.0
  9
$DIMGAP
 40
3.0
  9
$DIMJUST
 70
     0
  9
$DIMSD1
 70
     0
  9
$DIMSD2
 70
     0
  9
$DIMTOLJ
 70
     1
  9
$DIMTZIN
 70
     8
  9
$DIMALTZ
 70
     0
  9
$DIMALTTZ
 70
     0
  9
$DIMFIT
 70
     3
  9
$DIMUPT
 70
     0
  9
$DIMUNIT
 70
     2
  9
$DIMDEC
 70
     0
  9
$DIMTDEC
 70
     1
  9
$DIMALTU
 70
     8
  9
$DIMALTTD
 70
     4
  9
$DIMTXSTY
  7
ED
  9
$DIMAUNIT
 70
     0
  9
$LUNITS
 70
     2
  9
$LUPREC
 70
     4
  9
$SKETCHINC
 40
1.0
  9
$FILLETRAD
 40
10.0
  9
$AUNITS
 70
     0
  9
$AUPREC
 70
     0
  9
$MENU
  1
.
  9
$ELEVATION
 40
0.0
  9
$PELEVATION
 40
0.0
  9
$THICKNESS
 40
0.0
  9
$LIMCHECK
 70
     0
  9
$BLIPMODE
 70
     0
  9
$CHAMFERA
 40
10.0
  9
$CHAMFERB
 40
10.0
  9
$CHAMFERC
 40
20.0
  9
$CHAMFERD
 40
0.0
  9
$SKPOLY
 70
     1
  9
$TDCREATE
 40
2451196.643769328
  9
$TDUPDATE
 40
2453315.430891227
  9
$TDINDWG
 40
0.1093022338
  9
$TDUSRTIMER
 40
0.1093022338
  9
$USRTIMER
 70
     1
  9
$ANGBASE
 50
0.0
  9
$ANGDIR
 70
     0
  9
$PDMODE
 70
     3
  9
$PDSIZE
 40
15.0
  9
$PLINEWID
 40
0.0
  9
$COORDS
 70
     1
  9
$SPLFRAME
 70
     0
  9
$SPLINETYPE
 70
     6
  9
$SPLINESEGS
 70
     8
  9
$ATTDIA
 70
     0
  9
$ATTREQ
 70
     1
  9
$HANDLING
 70
     1
  9
$HANDSEED
  5
88A
  9
$SURFTAB1
 70
     6
  9
$SURFTAB2
 70
     6
  9
$SURFTYPE
 70
     6
  9
$SURFU
 70
     6
  9
$SURFV
 70
     6
  9
$UCSNAME
  2

  9
$UCSORG
 10
0.0
 20
0.0
 30
0.0
  9
$UCSXDIR
 10
1.0
 20
0.0
 30
0.0
  9
$UCSYDIR
 10
0.0
 20
1.0
 30
0.0
  9
$PUCSNAME
  2

  9
$PUCSORG
 10
0.0
 20
0.0
 30
0.0
  9
$PUCSXDIR
 10
1.0
 20
0.0
 30
0.0
  9
$PUCSYDIR
 10
0.0
 20
1.0
 30
0.0
  9
$USERI1
 70
     0
  9
$USERI2
 70
     0
  9
$USERI3
 70
     0
  9
$USERI4
 70
     0
  9
$USERI5
 70
     0
  9
$USERR1
 40
0.0
  9
$USERR2
 40
0.0
  9
$USERR3
 40
0.0
  9
$USERR4
 40
0.0
  9
$USERR5
 40
0.0
  9
$WORLDVIEW
 70
     1
  9
$SHADEDGE
 70
     3
  9
$SHADEDIF
 70
    70
  9
$TILEMODE
 70
     1
  9
$MAXACTVP
 70
    48
  9
$PINSBASE
 10
0.0
 20
0.0
 30
0.0
  9
$PLIMCHECK
 70
     0
  9
$PEXTMIN
 10
1.000000E+20
 20
1.000000E+20
 30
1.000000E+20
  9
$PEXTMAX
 10
-1.000000E+20
 20
-1.000000E+20
 30
-1.000000E+20
  9
$PLIMMIN
 10
0.0
 20
0.0
  9
$PLIMMAX
 10
420.0
 20
297.0
  9
$UNITMODE
 70
     0
  9
$VISRETAIN
 70
     1
  9
$PLINEGEN
 70
     0
  9
$PSLTSCALE
 70
     1
  9
$TREEDEPTH
 70
  3020
  9
$PICKSTYLE
 70
     1
  9
$CMLSTYLE
  2
STANDARD
  9
$CMLJUST
 70
     0
  9
$CMLSCALE
 40
1.0
  9
$PROXYGRAPHICS
 70
     1
  9
$MEASUREMENT
 70
     1
  0
ENDSEC
  0
SECTION
  2
CLASSES
  0
CLASS
  1
DICTIONARYVAR
  2
AcDbDictionaryVar
  3
"AutoCAD"
 90
        0
280
     0
281
     0
  0
CLASS
  1
LWPOLYLINE
  2
AcDbPolyline
  3
"AutoCAD"
 90
        0
280
     0
281
     1
  0
CLASS
  1
HATCH
  2
AcDbHatch
  3
"ACAD_SEDONA"
 90
        0
280
     0
281
     1
  0
ENDSEC
  0
SECTION
  2
TABLES
  0
TABLE
  2
VPORT
  5
8
100
AcDbSymbolTable
 70
     2
  0
VPORT
  5
889
100
AcDbSymbolTableRecord
100
AcDbViewportTableRecord
  2
*ACTIVE
 70
     0
 10
0.0
 20
0.0
 11
1.0
 21
1.0
 12
605.580778
 22
38.123315
 13
0.0
 23
0.0
 14
10.0
 24
10.0
 15
10.0
 25
10.0
 16
0.0
 26
0.0
 36
1.0
 17
0.0
 27
0.0
 37
0.0
 40
928.392007
 41
1.523346
 42
50.0
 43
0.0
 44
0.0
 50
0.0
 51
0.0
 71
     0
 72
   100
 73
     1
 74
     1
 75
     0
 76
     0
 77
     0
 78
     0
  0
ENDTAB
  0
TABLE
  2
LTYPE
  5
5
100
AcDbSymbolTable
 70
     4
  0
LTYPE
  5
14
100
AcDbSymbolTableRecord
100
AcDbLinetypeTableRecord
  2
BYBLOCK
 70
     0
  3

 72
    65
 73
     0
 40
0.0
  0
LTYPE
  5
15
100
AcDbSymbolTableRecord
100
AcDbLinetypeTableRecord
  2
BYLAYER
 70
     0
  3

 72
    65
 73
     0
 40
0.0
  0
LTYPE
  5
16
100
AcDbSymbolTableRecord
100
AcDbLinetypeTableRecord
  2
CONTINUOUS
 70
     0
  3
Solid line
 72
    65
 73
     0
 40
0.0
  0
LTYPE
  5
7F
100
AcDbSymbolTableRecord
100
AcDbLinetypeTableRecord
  2
DASHDOT
 70
     0
  3
Dash dot __ . __ . __ . __ . __ . __ . __ . __
 72
    65
 73
     4
 40
25.4
 49
12.7
 74
     0
 49
-6.35
 74
     0
 49
0.0
 74
     0
 49
-6.35
 74
     0
  0
LTYPE
  5
80
100
AcDbSymbolTableRecord
100
AcDbLinetypeTableRecord
  2
DASHED
 70
     0
  3
Dashed __ __ __ __ __ __ __ __ __ __ __ __ __ _
 72
    65
 73
     2
 40
19.05
 49
12.7
 74
     0
 49
-6.35
 74
     0
  0
LTYPE
  5
5AA
100
AcDbSymbolTableRecord
100
AcDbLinetypeTableRecord
  2
DOT
 70
     0
  3
Dot . . . . . . . . . . . . . . . . . . . . . .
 72
    65
 73
     2
 40
6.35
 49
0.0
 74
     0
 49
-6.35
 74
     0
  0
ENDTAB
  0
TABLE
  2
LAYER
  5
2
100
AcDbSymbolTable
 70
     6
  0
LAYER
  5
F
100
AcDbSymbolTableRecord
100
AcDbLayerTableRecord
  2
0
 70
     0
 62
     7
  6
CONTINUOUS
  0
LAYER
  5
9E
100
AcDbSymbolTableRecord
100
AcDbLayerTableRecord
  2
DEFPOINTS
 70
     0
 62
     7
  6
CONTINUOUS
  0
LAYER
  5
377
100
AcDbSymbolTableRecord
100
AcDbLayerTableRecord
  2
V0-OBRYS
 70
     0
 62
    90
  6
CONTINUOUS
  0
LAYER
  5
378
100
AcDbSymbolTableRecord
100
AcDbLayerTableRecord
  2
V0-VYPLNE
 70
     0
 62
    52
  6
CONTINUOUS
  0
LAYER
  5
37A
100
AcDbSymbolTableRecord
100
AcDbLayerTableRecord
  2
V0-NAZVY
 70
     0
 62
   210
  6
CONTINUOUS
  0
LAYER
  5
559
100
AcDbSymbolTableRecord
100
AcDbLayerTableRecord
  2
V0-ZBYTEK
 70
     0
 62
    51
  6
CONTINUOUS
  0
ENDTAB
  0
TABLE
  2
STYLE
  5
3
100
AcDbSymbolTable
 70
     5
  0
STYLE
  5
10
100
AcDbSymbolTableRecord
100
AcDbTextStyleTableRecord
  2
STANDARD
 70
     0
 40
0.0
 41
1.0
 50
0.0
 71
     0
 42
2.5
  3
ISOCP
  4

  0
STYLE
  5
331
100
AcDbSymbolTableRecord
100
AcDbTextStyleTableRecord
  2
ED
 70
     0
 40
20.0
 41
1.0
 50
0.0
 71
     0
 42
2.5
  3
ISOCP.shx
  4

  0
STYLE
  5
5B3
100
AcDbSymbolTableRecord
100
AcDbTextStyleTableRecord
  2
EDVENT
 70
     0
 40
10.0
 41
1.0
 50
0.0
 71
     0
 42
2.5
  3
ISOCP.shx
  4

  0
STYLE
  5
5B4
100
AcDbSymbolTableRecord
100
AcDbTextStyleTableRecord
  2
E
 70
     0
 40
25.0
 41
1.0
 50
0.0
 71
     0
 42
2.5
  3
ISOCP.shx
  4

  0
STYLE
  5
5B5
100
AcDbSymbolTableRecord
100
AcDbTextStyleTableRecord
  2
ED-VENT
 70
     0
 40
25.0
 41
1.0
 50
0.0
 71
     0
 42
2.5
  3
ISOCP.shx
  4

  0
ENDTAB
  0
TABLE
  2
VIEW
  5
6
100
AcDbSymbolTable
 70
     0
  0
ENDTAB
  0
TABLE
  2
UCS
  5
7
100
AcDbSymbolTable
 70
     0
  0
ENDTAB
  0
TABLE
  2
APPID
  5
9
100
AcDbSymbolTable
 70
     1
  0
APPID
  5
11
100
AcDbSymbolTableRecord
100
AcDbRegAppTableRecord
  2
ACAD
 70
     0
  0
ENDTAB
  0
TABLE
  2
DIMSTYLE
  5
A
100
AcDbSymbolTable
 70
     2
  0
DIMSTYLE
105
1D
100
AcDbSymbolTableRecord
100
AcDbDimStyleTableRecord
  2
STANDARD
 70
     0
  3

  4

  5

  6
_OPEN
  7
_OPEN
 40
0.0
 41
15.0
 42
0.625
 43
3.75
 44
1.25
 45
0.0
 46
0.0
 47
0.0
 48
0.0
140
15.0
141
2.5
142
0.0
143
0.0394
144
1.0
145
0.0
146
1.0
147
3.0
 71
     0
 72
     0
 73
     0
 74
     0
 75
     0
 76
     0
 77
     1
 78
     8
170
     0
171
     4
172
     1
173
     1
174
     0
175
     0
176
     0
177
     0
178
     0
270
     2
271
     0
272
     1
273
     8
274
     4
340
331
275
     0
280
     0
281
     0
282
     0
283
     1
284
     8
285
     0
286
     0
287
     3
288
     0
  0
DIMSTYLE
105
397
100
AcDbSymbolTableRecord
100
AcDbDimStyleTableRecord
  2
ED
 70
     0
  3

  4

  5

  6
_OPEN
  7
_OPEN
 40
0.0
 41
15.0
 42
0.625
 43
3.75
 44
1.25
 45
0.0
 46
0.0
 47
0.0
 48
0.0
140
15.0
141
2.5
142
0.0
143
0.0394
144
1.0
145
0.0
146
1.0
147
3.0
 71
     0
 72
     0
 73
     0
 74
     0
 75
     0
 76
     0
 77
     1
 78
     8
170
     0
171
     4
172
     1
173
     1
174
     0
175
     0
176
     0
177
     0
178
     0
270
     2
271
     0
272
     1
273
     8
274
     4
340
331
275
     0
280
     0
281
     0
282
     0
283
     1
284
     8
285
     0
286
     0
287
     3
288
     0
  0
ENDTAB
  0
TABLE
  2
BLOCK_RECORD
  5
1
100
AcDbSymbolTable
 70
    16
  0
BLOCK_RECORD
  5
1A
100
AcDbSymbolTableRecord
100
AcDbBlockTableRecord
  2
*MODEL_SPACE
  0
BLOCK_RECORD
  5
17
100
AcDbSymbolTableRecord
100
AcDbBlockTableRecord
  2
*PAPER_SPACE
  0
BLOCK_RECORD
  5
90
100
AcDbSymbolTableRecord
100
AcDbBlockTableRecord
  2
_OPEN
  0
BLOCK_RECORD
  5
7D4
100
AcDbSymbolTableRecord
100
AcDbBlockTableRecord
  2
*D11
  0
BLOCK_RECORD
  5
7E0
100
AcDbSymbolTableRecord
100
AcDbBlockTableRecord
  2
*D12
  0
BLOCK_RECORD
  5
7EC
100
AcDbSymbolTableRecord
100
AcDbBlockTableRecord
  2
*D13
  0
BLOCK_RECORD
  5
7FA
100
AcDbSymbolTableRecord
100
AcDbBlockTableRecord
  2
*D14
  0
BLOCK_RECORD
  5
806
100
AcDbSymbolTableRecord
100
AcDbBlockTableRecord
  2
*D15
  0
ENDTAB
  0
ENDSEC
  0
SECTION
  2
BLOCKS
  0
BLOCK
  5
1B
100
AcDbEntity
  8
0
100
AcDbBlockBegin
  2
*MODEL_SPACE
 70
     0
 10
0.0
 20
0.0
 30
0.0
  3
*MODEL_SPACE
  1

  0
ENDBLK
  5
1C
100
AcDbEntity
  8
0
100
AcDbBlockEnd
  0
BLOCK
  5
18
100
AcDbEntity
 67
     1
  8
0
100
AcDbBlockBegin
  2
*PAPER_SPACE
 70
     0
 10
0.0
 20
0.0
 30
0.0
  3
*PAPER_SPACE
  1

  0
ENDBLK
  5
19
100
AcDbEntity
 67
     1
  8
0
100
AcDbBlockEnd
  0
BLOCK
  5
91
100
AcDbEntity
  8
0
100
AcDbBlockBegin
  2
_OPEN
 70
     0
 10
0.0
 20
0.0
 30
0.0
  3
_OPEN
  1

  0
LINE
  5
92
100
AcDbEntity
  8
0
  6
BYBLOCK
 62
     0
100
AcDbLine
 10
-1.0
 20
0.166667
 30
0.0
 11
0.0
 21
0.0
 31
0.0
  0
LINE
  5
93
100
AcDbEntity
  8
0
  6
BYBLOCK
 62
     0
100
AcDbLine
 10
0.0
 20
0.0
 30
0.0
 11
-1.0
 21
-0.166667
 31
0.0
  0
LINE
  5
94
100
AcDbEntity
  8
0
  6
BYBLOCK
 62
     0
100
AcDbLine
 10
0.0
 20
0.0
 30
0.0
 11
-1.0
 21
0.0
 31
0.0
  0
ENDBLK
  5
95
100
AcDbEntity
  8
0
100
AcDbBlockEnd
  0
BLOCK
  5
861
100
AcDbEntity
  8
0
100
AcDbBlockBegin
  2
*D11
 70
     1
 10
0.0
 20
0.0
 30
0.0
  3
*D11
  1

  0
LINE
  5
862
100
AcDbEntity
  8
0
  6
BYBLOCK
 62
     0
100
AcDbLine
 10
-33.738222
 20
198.254378
 30
0.0
 11
-33.738222
 21
314.223632
 31
0.0
  0
LINE
  5
863
100
AcDbEntity
  8
0
  6
BYBLOCK
 62
     0
100
AcDbLine
 10
866.261778
 20
198.254378
 30
0.0
 11
866.261778
 21
314.223632
 31
0.0
  0
LINE
  5
864
100
AcDbEntity
  8
0
  6
BYBLOCK
 62
     0
100
AcDbLine
 10
-18.738222
 20
312.973632
 30
0.0
 11
851.261778
 21
312.973632
 31
0.0
  0
INSERT
  5
865
100
AcDbEntity
  8
0
  6
BYBLOCK
 62
     0
100
AcDbBlockReference
  2
_OPEN
 10
-33.738222
 20
312.973632
 30
0.0
 41
15.0
 42
15.0
 43
15.0
 50
180.0
  0
INSERT
  5
866
100
AcDbEntity
  8
0
  6
BYBLOCK
 62
     0
100
AcDbBlockReference
  2
_OPEN
 10
866.261778
 20
312.973632
 30
0.0
 41
15.0
 42
15.0
 43
15.0
  0
MTEXT
  5
867
100
AcDbEntity
  8
0
  6
BYBLOCK
 62
     0
100
AcDbMText
 10
416.261778
 20
325.973632
 30
0.0
 40
20.0
 41
0.0
 71
     5
 72
     1
  1
\A1;900
  7
ED
  0
POINT
  5
868
100
AcDbEntity
  8
DEFPOINTS
  6
BYBLOCK
 62
     0
100
AcDbPoint
 10
-33.738222
 20
197.629378
 30
0.0
  0
POINT
  5
869
100
AcDbEntity
  8
DEFPOINTS
  6
BYBLOCK
 62
     0
100
AcDbPoint
 10
866.261778
 20
197.629378
 30
0.0
  0
POINT
  5
86A
100
AcDbEntity
  8
DEFPOINTS
  6
BYBLOCK
 62
     0
100
AcDbPoint
 10
866.261778
 20
312.973632
 30
0.0
  0
ENDBLK
  5
86B
100
AcDbEntity
  8
0
100
AcDbBlockEnd
  0
BLOCK
  5
86C
100
AcDbEntity
  8
0
100
AcDbBlockBegin
  2
*D12
 70
     1
 10
0.0
 20
0.0
 30
0.0
  3
*D12
  1

  0
LINE
  5
86D
100
AcDbEntity
  8
0
  6
BYBLOCK
 62
     0
100
AcDbLine
 10
-8.738222
 20
247.754378
 30
0.0
 11
-8.738222
 21
276.436823
 31
0.0
  0
LINE
  5
86E
100
AcDbEntity
  8
0
  6
BYBLOCK
 62
     0
100
AcDbLine
 10
841.261778
 20
247.754378
 30
0.0
 11
841.261778
 21
276.436823
 31
0.0
  0
LINE
  5
86F
100
AcDbEntity
  8
0
  6
BYBLOCK
 62
     0
100
AcDbLine
 10
6.261778
 20
275.186823
 30
0.0
 11
826.261778
 21
275.186823
 31
0.0
  0
INSERT
  5
870
100
AcDbEntity
  8
0
  6
BYBLOCK
 62
     0
100
AcDbBlockReference
  2
_OPEN
 10
-8.738222
 20
275.186823
 30
0.0
 41
15.0
 42
15.0
 43
15.0
 50
180.0
  0
INSERT
  5
871
100
AcDbEntity
  8
0
  6
BYBLOCK
 62
     0
100
AcDbBlockReference
  2
_OPEN
 10
841.261778
 20
275.186823
 30
0.0
 41
15.0
 42
15.0
 43
15.0
  0
MTEXT
  5
872
100
AcDbEntity
  8
0
  6
BYBLOCK
 62
     0
100
AcDbMText
 10
416.261778
 20
288.186823
 30
0.0
 40
20.0
 41
0.0
 71
     5
 72
     1
  1
\A1;850
  7
ED
  0
POINT
  5
873
100
AcDbEntity
  8
DEFPOINTS
  6
BYBLOCK
 62
     0
100
AcDbPoint
 10
-8.738222
 20
247.129378
 30
0.0
  0
POINT
  5
874
100
AcDbEntity
  8
DEFPOINTS
  6
BYBLOCK
 62
     0
100
AcDbPoint
 10
841.261778
 20
247.129378
 30
0.0
  0
POINT
  5
875
100
AcDbEntity
  8
DEFPOINTS
  6
BYBLOCK
 62
     0
100
AcDbPoint
 10
841.261778
 20
275.186823
 30
0.0
  0
ENDBLK
  5
876
100
AcDbEntity
  8
0
100
AcDbBlockEnd
  0
BLOCK
  5
877
100
AcDbEntity
  8
0
100
AcDbBlockBegin
  2
*D13
 70
     1
 10
0.0
 20
0.0
 30
0.0
  3
*D13
  1

  0
LINE
  5
878
100
AcDbEntity
  8
0
  6
BYBLOCK
 62
     0
100
AcDbLine
 10
-33.738222
 20
72.004378
 30
0.0
 11
-33.738222
 21
-19.593427
 31
0.0
  0
LINE
  5
879
100
AcDbEntity
  8
0
  6
BYBLOCK
 62
     0
100
AcDbLine
 10
-8.738222
 20
22.504378
 30
0.0
 11
-8.738222
 21
-19.593427
 31
0.0
  0
LINE
  5
87A
100
AcDbEntity
  8
0
  6
BYBLOCK
 62
     0
100
AcDbLine
 10
-48.738222
 20
-18.343427
 30
0.0
 11
-63.738222
 21
-18.343427
 31
0.0
  0
LINE
  5
87B
100
AcDbEntity
  8
0
  6
BYBLOCK
 62
     0
100
AcDbLine
 10
6.261778
 20
-18.343427
 30
0.0
 11
53.515116
 21
-18.343427
 31
0.0
  0
LINE
  5
87C
100
AcDbEntity
  8
0
  6
BYBLOCK
 62
     0
100
AcDbLine
 10
-33.738222
 20
-18.343427
 30
0.0
 11
-8.738222
 21
-18.343427
 31
0.0
  0
INSERT
  5
87D
100
AcDbEntity
  8
0
  6
BYBLOCK
 62
     0
100
AcDbBlockReference
  2
_OPEN
 10
-33.738222
 20
-18.343427
 30
0.0
 41
15.0
 42
15.0
 43
15.0
  0
INSERT
  5
87E
100
AcDbEntity
  8
0
  6
BYBLOCK
 62
     0
100
AcDbBlockReference
  2
_OPEN
 10
-8.738222
 20
-18.343427
 30
0.0
 41
15.0
 42
15.0
 43
15.0
 50
180.0
  0
MTEXT
  5
87F
100
AcDbEntity
  8
0
  6
BYBLOCK
 62
     0
100
AcDbMText
 10
38.846966
 20
-5.341458
 30
0.0
 40
20.0
 41
0.0
 71
     5
 72
     1
  1
\A1;25
  7
ED
  0
POINT
  5
880
100
AcDbEntity
  8
DEFPOINTS
  6
BYBLOCK
 62
     0
100
AcDbPoint
 10
-33.738222
 20
72.629378
 30
0.0
  0
POINT
  5
881
100
AcDbEntity
  8
DEFPOINTS
  6
BYBLOCK
 62
     0
100
AcDbPoint
 10
-8.738222
 20
23.129378
 30
0.0
  0
POINT
  5
882
100
AcDbEntity
  8
DEFPOINTS
  6
BYBLOCK
 62
     0
100
AcDbPoint
 10
-8.738222
 20
-18.343427
 30
0.0
  0
ENDBLK
  5
883
100
AcDbEntity
  8
0
100
AcDbBlockEnd
  0
BLOCK
  5
856
100
AcDbEntity
  8
0
100
AcDbBlockBegin
  2
*D14
 70
     1
 10
0.0
 20
0.0
 30
0.0
  3
*D14
  1

  0
LINE
  5
857
100
AcDbEntity
  8
0
  6
BYBLOCK
 62
     0
100
AcDbLine
 10
866.886778
 20
197.629378
 30
0.0
 11
900.974577
 21
197.629378
 31
0.0
  0
LINE
  5
858
100
AcDbEntity
  8
0
  6
BYBLOCK
 62
     0
100
AcDbLine
 10
866.886778
 20
72.629378
 30
0.0
 11
900.974577
 21
72.629378
 31
0.0
  0
LINE
  5
859
100
AcDbEntity
  8
0
  6
BYBLOCK
 62
     0
100
AcDbLine
 10
899.724577
 20
182.629378
 30
0.0
 11
899.724577
 21
87.629378
 31
0.0
  0
INSERT
  5
85A
100
AcDbEntity
  8
0
  6
BYBLOCK
 62
     0
100
AcDbBlockReference
  2
_OPEN
 10
899.724577
 20
197.629378
 30
0.0
 41
15.0
 42
15.0
 43
15.0
 50
90.0
  0
INSERT
  5
85B
100
AcDbEntity
  8
0
  6
BYBLOCK
 62
     0
100
AcDbBlockReference
  2
_OPEN
 10
899.724577
 20
72.629378
 30
0.0
 41
15.0
 42
15.0
 43
15.0
 50
270.0
  0
MTEXT
  5
85C
100
AcDbEntity
  8
0
  6
BYBLOCK
 62
     0
100
AcDbMText
 10
886.722609
 20
135.129378
 30
0.0
 40
20.0
 41
0.0
 71
     5
 72
     1
  1
\A1;\U+2205125
  7
ED
 11
0.0
 21
1.0
 31
0.0
  0
POINT
  5
85D
100
AcDbEntity
  8
DEFPOINTS
  6
BYBLOCK
 62
     0
100
AcDbPoint
 10
866.261778
 20
197.629378
 30
0.0
  0
POINT
  5
85E
100
AcDbEntity
  8
DEFPOINTS
  6
BYBLOCK
 62
     0
100
AcDbPoint
 10
866.261778
 20
72.629378
 30
0.0
  0
POINT
  5
85F
100
AcDbEntity
  8
DEFPOINTS
  6
BYBLOCK
 62
     0
100
AcDbPoint
 10
899.724577
 20
72.629378
 30
0.0
  0
ENDBLK
  5
860
100
AcDbEntity
  8
0
100
AcDbBlockEnd
  0
BLOCK
  5
84B
100
AcDbEntity
  8
0
100
AcDbBlockBegin
  2
*D15
 70
     1
 10
0.0
 20
0.0
 30
0.0
  3
*D15
  1

  0
LINE
  5
84C
100
AcDbEntity
  8
0
  6
BYBLOCK
 62
     0
100
AcDbLine
 10
841.886778
 20
247.129378
 30
0.0
 11
938.798801
 21
247.129378
 31
0.0
  0
LINE
  5
84D
100
AcDbEntity
  8
0
  6
BYBLOCK
 62
     0
100
AcDbLine
 10
841.886778
 20
23.129378
 30
0.0
 11
938.798801
 21
23.129378
 31
0.0
  0
LINE
  5
84E
100
AcDbEntity
  8
0
  6
BYBLOCK
 62
     0
100
AcDbLine
 10
937.548801
 20
232.129378
 30
0.0
 11
937.548801
 21
38.129378
 31
0.0
  0
INSERT
  5
84F
100
AcDbEntity
  8
0
  6
BYBLOCK
 62
     0
100
AcDbBlockReference
  2
_OPEN
 10
937.548801
 20
247.129378
 30
0.0
 41
15.0
 42
15.0
 43
15.0
 50
90.0
  0
INSERT
  5
850
100
AcDbEntity
  8
0
  6
BYBLOCK
 62
     0
100
AcDbBlockReference
  2
_OPEN
 10
937.548801
 20
23.129378
 30
0.0
 41
15.0
 42
15.0
 43
15.0
 50
270.0
  0
MTEXT
  5
851
100
AcDbEntity
  8
0
  6
BYBLOCK
 62
     0
100
AcDbMText
 10
924.546832
 20
135.129378
 30
0.0
 40
20.0
 41
0.0
 71
     5
 72
     1
  1
\A1;\U+2205224
  7
ED
 11
0.0
 21
1.0
 31
0.0
  0
POINT
  5
852
100
AcDbEntity
  8
DEFPOINTS
  6
BYBLOCK
 62
     0
100
AcDbPoint
 10
841.261778
 20
247.129378
 30
0.0
  0
POINT
  5
853
100
AcDbEntity
  8
DEFPOINTS
  6
BYBLOCK
 62
     0
100
AcDbPoint
 10
841.261778
 20
23.129378
 30
0.0
  0
POINT
  5
854
100
AcDbEntity
  8
DEFPOINTS
  6
BYBLOCK
 62
     0
100
AcDbPoint
 10
937.548801
 20
23.129378
 30
0.0
  0
ENDBLK
  5
855
100
AcDbEntity
  8
0
100
AcDbBlockEnd
  0
ENDSEC
  0
SECTION
  2
ENTITIES
  0
LINE
  5
782
100
AcDbEntity
  8
V0-VYPLNE
  6
DASHDOT
 62
    63
 48
3.0
100
AcDbLine
 10
-49.393942
 20
135.129378
 30
0.0
 11
846.839905
 21
135.129378
 31
0.0
  0
LINE
  5
783
100
AcDbEntity
  8
V0-OBRYS
 62
    90
100
AcDbLine
 10
-8.738222
 20
135.129378
 30
0.0
 11
-8.738222
 21
247.129378
 31
0.0
  0
LINE
  5
784
100
AcDbEntity
  8
V0-OBRYS
 62
    90
100
AcDbLine
 10
-8.738222
 20
247.129378
 30
0.0
 11
566.261778
 21
247.129378
 31
0.0
  0
LINE
  5
785
100
AcDbEntity
  8
V0-OBRYS
 62
    90
100
AcDbLine
 10
-33.738222
 20
135.129378
 30
0.0
 11
-33.738222
 21
197.629378
 31
0.0
  0
LINE
  5
786
100
AcDbEntity
  8
V0-OBRYS
 62
    90
100
AcDbLine
 10
-33.738222
 20
197.629378
 30
0.0
 11
-8.738222
 21
197.629378
 31
0.0
  0
LINE
  5
787
100
AcDbEntity
  8
V0-OBRYS
 62
    90
100
AcDbLine
 10
-28.734802
 20
135.129378
 30
0.0
 11
-28.734802
 21
200.44091
 31
0.0
  0
LINE
  5
788
100
AcDbEntity
  8
V0-OBRYS
 62
    90
100
AcDbLine
 10
-28.734802
 20
200.44091
 30
0.0
 11
-26.568912
 21
200.44091
 31
0.0
  0
LINE
  5
789
100
AcDbEntity
  8
V0-OBRYS
 62
    90
100
AcDbLine
 10
-26.568912
 20
200.44091
 30
0.0
 11
-26.568912
 21
135.129378
 31
0.0
  0
LINE
  5
78A
100
AcDbEntity
  8
V0-OBRYS
 62
    90
100
AcDbLine
 10
-8.738222
 20
23.129378
 30
0.0
 11
566.261778
 21
23.129378
 31
0.0
  0
LINE
  5
78B
100
AcDbEntity
  8
V0-OBRYS
 62
    90
100
AcDbLine
 10
-8.738222
 20
135.129378
 30
0.0
 11
-8.738222
 21
23.129378
 31
0.0
  0
LINE
  5
78C
100
AcDbEntity
  8
V0-OBRYS
 62
    90
100
AcDbLine
 10
-33.738222
 20
72.629378
 30
0.0
 11
-8.738222
 21
72.629378
 31
0.0
  0
LINE
  5
78D
100
AcDbEntity
  8
V0-OBRYS
 62
    90
100
AcDbLine
 10
-26.568912
 20
69.817846
 30
0.0
 11
-26.568912
 21
135.129378
 31
0.0
  0
LINE
  5
78E
100
AcDbEntity
  8
V0-OBRYS
 62
    90
100
AcDbLine
 10
-28.734802
 20
135.129378
 30
0.0
 11
-28.734802
 21
69.817846
 31
0.0
  0
LINE
  5
78F
100
AcDbEntity
  8
V0-OBRYS
 62
    90
100
AcDbLine
 10
-33.738222
 20
135.129378
 30
0.0
 11
-33.738222
 21
72.629378
 31
0.0
  0
LINE
  5
790
100
AcDbEntity
  8
V0-OBRYS
 62
    90
100
AcDbLine
 10
-28.734802
 20
69.817846
 30
0.0
 11
-26.568912
 21
69.817846
 31
0.0
  0
LINE
  5
791
100
AcDbEntity
  8
V0-OBRYS
 62
    90
100
AcDbLine
 10
841.261778
 20
23.129378
 30
0.0
 11
566.261778
 21
23.129378
 31
0.0
  0
LINE
  5
792
100
AcDbEntity
  8
V0-OBRYS
 62
    90
100
AcDbLine
 10
841.261778
 20
247.129378
 30
0.0
 11
566.261778
 21
247.129378
 31
0.0
  0
LINE
  5
793
100
AcDbEntity
  8
V0-OBRYS
 62
    90
100
AcDbLine
 10
866.261778
 20
135.129378
 30
0.0
 11
866.261778
 21
72.629378
 31
0.0
  0
LINE
  5
794
100
AcDbEntity
  8
V0-OBRYS
 62
    90
100
AcDbLine
 10
861.258357
 20
135.129378
 30
0.0
 11
861.258357
 21
69.817846
 31
0.0
  0
LINE
  5
795
100
AcDbEntity
  8
V0-OBRYS
 62
    90
100
AcDbLine
 10
859.092467
 20
69.817846
 30
0.0
 11
859.092467
 21
135.129378
 31
0.0
  0
LINE
  5
796
100
AcDbEntity
  8
V0-OBRYS
 62
    90
100
AcDbLine
 10
841.261778
 20
135.129378
 30
0.0
 11
841.261778
 21
23.129378
 31
0.0
  0
LINE
  5
797
100
AcDbEntity
  8
V0-OBRYS
 62
    90
100
AcDbLine
 10
866.261778
 20
72.629378
 30
0.0
 11
841.261778
 21
72.629378
 31
0.0
  0
LINE
  5
798
100
AcDbEntity
  8
V0-OBRYS
 62
    90
100
AcDbLine
 10
861.258357
 20
69.817846
 30
0.0
 11
859.092467
 21
69.817846
 31
0.0
  0
LINE
  5
799
100
AcDbEntity
  8
V0-OBRYS
 62
    90
100
AcDbLine
 10
841.261778
 20
135.129378
 30
0.0
 11
841.261778
 21
247.129378
 31
0.0
  0
LINE
  5
79A
100
AcDbEntity
  8
V0-OBRYS
 62
    90
100
AcDbLine
 10
866.261778
 20
197.629378
 30
0.0
 11
841.261778
 21
197.629378
 31
0.0
  0
LINE
  5
79B
100
AcDbEntity
  8
V0-OBRYS
 62
    90
100
AcDbLine
 10
859.092467
 20
200.44091
 30
0.0
 11
859.092467
 21
135.129378
 31
0.0
  0
LINE
  5
79C
100
AcDbEntity
  8
V0-OBRYS
 62
    90
100
AcDbLine
 10
861.258357
 20
135.129378
 30
0.0
 11
861.258357
 21
200.44091
 31
0.0
  0
LINE
  5
79D
100
AcDbEntity
  8
V0-OBRYS
 62
    90
100
AcDbLine
 10
866.261778
 20
135.129378
 30
0.0
 11
866.261778
 21
197.629378
 31
0.0
  0
LINE
  5
79E
100
AcDbEntity
  8
V0-OBRYS
 62
    90
100
AcDbLine
 10
861.258357
 20
200.44091
 30
0.0
 11
859.092467
 21
200.44091
 31
0.0
  0
DIMENSION
  5
79F
100
AcDbEntity
  8
V0-VYPLNE
 62
    41
100
AcDbDimension
  2
*D11
 10
866.261778
 20
312.973632
 30
0.0
 11
416.261778
 21
325.973632
 31
0.0
 70
    32
  3
ED
100
AcDbAlignedDimension
 13
-33.738222
 23
197.629378
 33
0.0
 14
866.261778
 24
197.629378
 34
0.0
100
AcDbRotatedDimension
1001
ACAD
1000
DSTYLE
1002
{
1070
    40
1040
1.0
1002
}
  0
DIMENSION
  5
7A0
100
AcDbEntity
  8
V0-VYPLNE
 62
    41
100
AcDbDimension
  2
*D12
 10
841.261778
 20
275.186823
 30
0.0
 11
416.261778
 21
288.186823
 31
0.0
 70
    32
  3
ED
100
AcDbAlignedDimension
 13
-8.738222
 23
247.129378
 33
0.0
 14
841.261778
 24
247.129378
 34
0.0
100
AcDbRotatedDimension
1001
ACAD
1000
DSTYLE
1002
{
1070
    40
1040
1.0
1002
}
  0
DIMENSION
  5
7A1
100
AcDbEntity
  8
V0-VYPLNE
 62
    41
100
AcDbDimension
  2
*D13
 10
-8.738222
 20
-18.343427
 30
0.0
 11
38.846966
 21
-18.343427
 31
0.0
 70
   160
  3
ED
100
AcDbAlignedDimension
 13
-33.738222
 23
72.629378
 33
0.0
 14
-8.738222
 24
23.129378
 34
0.0
100
AcDbRotatedDimension
1001
ACAD
1000
DSTYLE
1002
{
1070
    40
1040
1.0
1002
}
  0
DIMENSION
  5
7A2
100
AcDbEntity
  8
V0-VYPLNE
 62
    41
100
AcDbDimension
  2
*D14
 10
899.724577
 20
72.629378
 30
0.0
 11
886.722609
 21
135.129378
 31
0.0
 70
    32
  1
%%c<>
  3
ED
100
AcDbAlignedDimension
 13
866.261778
 23
197.629378
 33
0.0
 14
866.261778
 24
72.629378
 34
0.0
 50
90.0
100
AcDbRotatedDimension
1001
ACAD
1000
DSTYLE
1002
{
1070
    40
1040
1.0
1002
}
  0
DIMENSION
  5
7A3
100
AcDbEntity
  8
V0-VYPLNE
 62
    41
100
AcDbDimension
  2
*D15
 10
937.548801
 20
23.129378
 30
0.0
 11
924.546832
 21
135.129378
 31
0.0
 70
    32
  1
%%c<>
  3
ED
100
AcDbAlignedDimension
 13
841.261778
 23
247.129378
 33
0.0
 14
841.261778
 24
23.129378
 34
0.0
 50
90.0
100
AcDbRotatedDimension
1001
ACAD
1000
DSTYLE
1002
{
1070
    40
1040
1.0
1002
}
  0
LINE
  5
7A4
100
AcDbEntity
  8
V0-VYPLNE
  6
DASHDOT
 62
    63
 48
3.0
100
AcDbLine
 10
1032.725283
 20
135.129378
 30
0.0
 11
1266.776184
 21
135.129378
 31
0.0
  0
LINE
  5
7A5
100
AcDbEntity
  8
V0-VYPLNE
  6
DASHDOT
 62
    63
 48
3.0
100
AcDbLine
 10
1141.261778
 20
23.129378
 30
0.0
 11
1141.261778
 21
254.845653
 31
0.0
  0
TEXT
  5
7A6
100
AcDbEntity
  8
V0-ZBYTEK
 62
   130
100
AcDbText
 10
995.525249
 20
-210.052373
 30
0.0
 40
30.0
  1
TLUMIC HLUKU
 72
     1
 11
1123.100249
 21
-210.052373
 31
0.0
100
AcDbText
  0
TEXT
  5
7A7
100
AcDbEntity
  8
V0-ZBYTEK
  6
CONTINUOUS
 62
    51
 48
2.0
100
AcDbText
 10
980.700112
 20
-269.546045
 30
0.0
 40
20.0
  1
PRO KRUHOVA POTRUBI
 72
     1
 11
1121.750112
 21
-269.546045
 31
0.0
100
AcDbText
  0
TEXT
  5
7A8
100
AcDbEntity
  8
V0-NAZVY
 62
   210
100
AcDbText
 10
961.014614
 20
-148.052373
 30
0.0
 40
40.0
  1
MAA-125-900
 72
     1
 11
1123.100249
 21
-148.052373
 31
0.0
100
AcDbText
  0
POINT
  5
7A9
100
AcDbEntity
  8
V0-VYPLNE
 62
    52
100
AcDbPoint
 10
-8.738222
 20
135.129378
 30
0.0
  0
POINT
  5
7AA
100
AcDbEntity
  8
V0-VYPLNE
 62
    52
100
AcDbPoint
 10
1141.261778
 20
135.129378
 30
0.0
  0
LINE
  5
7AB
100
AcDbEntity
  8
V0-OBRYS
 62
    90
100
AcDbLine
 10
841.261778
 20
-298.968208
 30
0.0
 11
566.261778
 21
-298.968208
 31
0.0
  0
LINE
  5
7AC
100
AcDbEntity
  8
V0-OBRYS
 62
    90
100
AcDbLine
 10
841.261778
 20
-74.968208
 30
0.0
 11
566.261778
 21
-74.968208
 31
0.0
  0
LINE
  5
7AD
100
AcDbEntity
  8
V0-VYPLNE
  6
DASHDOT
 62
    63
 48
3.0
100
AcDbLine
 10
-49.687189
 20
-186.968208
 30
0.0
 11
877.205931
 21
-186.968208
 31
0.0
  0
LINE
  5
7AE
100
AcDbEntity
  8
V0-OBRYS
 62
    90
100
AcDbLine
 10
-9.031469
 20
-186.968208
 30
0.0
 11
-9.031469
 21
-298.968208
 31
0.0
  0
LINE
  5
7AF
100
AcDbEntity
  8
V0-OBRYS
 62
    90
100
AcDbLine
 10
-9.031469
 20
-298.968208
 30
0.0
 11
566.261778
 21
-298.968208
 31
0.0
  0
LINE
  5
7B0
100
AcDbEntity
  8
V0-OBRYS
 62
    90
100
AcDbLine
 10
-9.031469
 20
-74.968208
 30
0.0
 11
566.261778
 21
-74.968208
 31
0.0
  0
LINE
  5
7B1
100
AcDbEntity
  8
V0-OBRYS
 62
    90
100
AcDbLine
 10
-34.031469
 20
-186.968208
 30
0.0
 11
-34.031469
 21
-124.468208
 31
0.0
  0
LINE
  5
7B2
100
AcDbEntity
  8
V0-OBRYS
 62
    90
100
AcDbLine
 10
-29.028048
 20
-186.968208
 30
0.0
 11
-29.028048
 21
-121.656676
 31
0.0
  0
LINE
  5
7B3
100
AcDbEntity
  8
V0-OBRYS
 62
    90
100
AcDbLine
 10
-26.862159
 20
-121.656676
 30
0.0
 11
-26.862159
 21
-186.968208
 31
0.0
  0
LINE
  5
7B4
100
AcDbEntity
  8
V0-OBRYS
 62
    90
100
AcDbLine
 10
-9.031469
 20
-186.968208
 30
0.0
 11
-9.031469
 21
-74.968208
 31
0.0
  0
LINE
  5
7B5
100
AcDbEntity
  8
V0-OBRYS
 62
    90
100
AcDbLine
 10
-26.862159
 20
-252.27974
 30
0.0
 11
-26.862159
 21
-186.968208
 31
0.0
  0
LINE
  5
7B6
100
AcDbEntity
  8
V0-OBRYS
 62
    90
100
AcDbLine
 10
-29.028048
 20
-186.968208
 30
0.0
 11
-29.028048
 21
-252.27974
 31
0.0
  0
LINE
  5
7B7
100
AcDbEntity
  8
V0-OBRYS
 62
    90
100
AcDbLine
 10
-34.031469
 20
-186.968208
 30
0.0
 11
-34.031469
 21
-249.468208
 31
0.0
  0
LINE
  5
7B8
100
AcDbEntity
  8
V0-OBRYS
 62
    90
100
AcDbLine
 10
-34.031469
 20
-249.468208
 30
0.0
 11
-9.031469
 21
-249.468208
 31
0.0
  0
LINE
  5
7B9
100
AcDbEntity
  8
V0-OBRYS
 62
    90
100
AcDbLine
 10
-29.028048
 20
-252.27974
 30
0.0
 11
-26.862159
 21
-252.27974
 31
0.0
  0
POINT
  5
7BA
100
AcDbEntity
  8
V0-VYPLNE
 62
    52
100
AcDbPoint
 10
-9.031469
 20
-186.968208
 30
0.0
  0
LINE
  5
7BB
100
AcDbEntity
  8
V0-OBRYS
 62
    90
100
AcDbLine
 10
-34.031469
 20
-124.468208
 30
0.0
 11
-9.031469
 21
-124.468208
 31
0.0
  0
LINE
  5
7BC
100
AcDbEntity
  8
V0-OBRYS
 62
    90
100
AcDbLine
 10
-29.028048
 20
-121.656676
 30
0.0
 11
-26.862159
 21
-121.656676
 31
0.0
  0
LINE
  5
7BD
100
AcDbEntity
  8
V0-OBRYS
 62
    90
100
AcDbLine
 10
841.261778
 20
-186.968208
 30
0.0
 11
841.261778
 21
-298.968208
 31
0.0
  0
LINE
  5
7BE
100
AcDbEntity
  8
V0-OBRYS
 62
    90
100
AcDbLine
 10
859.092467
 20
-121.656676
 30
0.0
 11
859.092467
 21
-186.968208
 31
0.0
  0
LINE
  5
7BF
100
AcDbEntity
  8
V0-OBRYS
 62
    90
100
AcDbLine
 10
861.258357
 20
-186.968208
 30
0.0
 11
861.258357
 21
-121.656676
 31
0.0
  0
LINE
  5
7C0
100
AcDbEntity
  8
V0-OBRYS
 62
    90
100
AcDbLine
 10
866.261778
 20
-186.968208
 30
0.0
 11
866.261778
 21
-124.468208
 31
0.0
  0
LINE
  5
7C1
100
AcDbEntity
  8
V0-OBRYS
 62
    90
100
AcDbLine
 10
841.261778
 20
-186.968208
 30
0.0
 11
841.261778
 21
-74.968208
 31
0.0
  0
LINE
  5
7C2
100
AcDbEntity
  8
V0-OBRYS
 62
    90
100
AcDbLine
 10
866.261778
 20
-186.968208
 30
0.0
 11
866.261778
 21
-249.468208
 31
0.0
  0
LINE
  5
7C3
100
AcDbEntity
  8
V0-OBRYS
 62
    90
100
AcDbLine
 10
861.258357
 20
-186.968208
 30
0.0
 11
861.258357
 21
-252.27974
 31
0.0
  0
LINE
  5
7C4
100
AcDbEntity
  8
V0-OBRYS
 62
    90
100
AcDbLine
 10
859.092467
 20
-252.27974
 30
0.0
 11
859.092467
 21
-186.968208
 31
0.0
  0
LINE
  5
7C5
100
AcDbEntity
  8
V0-OBRYS
 62
    90
100
AcDbLine
 10
866.261778
 20
-249.468208
 30
0.0
 11
841.261778
 21
-249.468208
 31
0.0
  0
LINE
  5
7C6
100
AcDbEntity
  8
V0-OBRYS
 62
    90
100
AcDbLine
 10
861.258357
 20
-252.27974
 30
0.0
 11
859.092467
 21
-252.27974
 31
0.0
  0
LINE
  5
7C7
100
AcDbEntity
  8
V0-OBRYS
 62
    90
100
AcDbLine
 10
866.261778
 20
-124.468208
 30
0.0
 11
841.261778
 21
-124.468208
 31
0.0
  0
LINE
  5
7C8
100
AcDbEntity
  8
V0-OBRYS
 62
    90
100
AcDbLine
 10
861.258357
 20
-121.656676
 30
0.0
 11
859.092467
 21
-121.656676
 31
0.0
  0
CIRCLE
  5
7C9
100
AcDbEntity
  8
V0-OBRYS
 62
    90
100
AcDbCircle
 10
1141.261778
 20
135.129378
 30
0.0
 40
62.5
  0
CIRCLE
  5
7CA
100
AcDbEntity
  8
V0-OBRYS
 62
    90
100
AcDbCircle
 10
1141.261778
 20
135.129378
 30
0.0
 40
112.0
  0
CIRCLE
  5
7CB
100
AcDbEntity
  8
V0-OBRYS
 62
    90
100
AcDbCircle
 10
1141.261778
 20
135.129378
 30
0.0
 40
66.544791
  0
TEXT
  5
7CC
100
AcDbEntity
  8
V0-NAZVY
 62
   210
100
AcDbText
 10
961.014614
 20
-148.052373
 30
0.0
 40
40.0
  1
MAA-125-900
 72
     1
 11
1123.100249
 21
-148.052373
 31
0.0
100
AcDbText
  0
TEXT
  5
7CD
100
AcDbEntity
  8
V0-NAZVY
 62
   210
100
AcDbText
 10
309.458754
 20
-158.706646
 30
0.0
 40
30.0
  1
MAA-125-900
 72
     1
 11
431.02298
 21
-158.706646
 31
0.0
100
AcDbText
  0
TEXT
  5
7CE
100
AcDbEntity
  8
V0-NAZVY
 62
   210
100
AcDbText
 10
291.449817
 20
175.437582
 30
0.0
 40
30.0
  1
MAA-125-900
 72
     1
 11
413.014043
 21
175.437582
 31
0.0
100
AcDbText
  0
TEXT
  5
7CF
100
AcDbEntity
  8
V0-NAZVY
 62
   210
100
AcDbText
 10
1012.921077
 20
262.882752
 30
0.0
 40
30.0
  1
MAA-125-900
 72
     1
 11
1134.485303
 21
262.882752
 31
0.0
100
AcDbText
  0
LINE
  5
7D0
100
AcDbEntity
  8
V0-VYPLNE
  6
DASHED
 62
    56
 48
3.0
100
AcDbLine
 10
-8.500499
 20
214.177357
 30
0.0
 11
840.114135
 21
214.177357
 31
0.0
  0
LINE
  5
7D1
100
AcDbEntity
  8
V0-VYPLNE
  6
DASHED
 62
    56
 48
3.0
100
AcDbLine
 10
-8.500499
 20
56.081399
 30
0.0
 11
840.114135
 21
56.081399
 31
0.0
  0
LINE
  5
7D2
100
AcDbEntity
  8
V0-VYPLNE
  6
DASHED
 62
    56
 48
3.0
100
AcDbLine
 10
-8.793746
 20
-107.920229
 30
0.0
 11
839.820889
 21
-107.920229
 31
0.0
  0
LINE
  5
7D3
100
AcDbEntity
  8
V0-VYPLNE
  6
DASHED
 62
    56
 48
3.0
100
AcDbLine
 10
-8.793746
 20
-266.016187
 30
0.0
 11
839.820889
 21
-266.016187
 31
0.0
  0
VIEWPORT
  5
22
100
AcDbEntity
 67
     1
  8
0
100
AcDbViewport
 10
261.517699
 20
148.5
 30
0.0
 40
523.035398
 41
297.0
 68
    -1
 69
     1
1001
ACAD
1000
MVIEW
1002
{
1070
    16
1010
0.0
1020
0.0
1030
0.0
1010
0.0
1020
0.0
1030
1.0
1040
0.0
1040
297.0
1040
261.517699
1040
148.5
1040
50.0
1040
0.0
1040
0.0
1070
     0
1070
   100
1070
     1
1070
     1
1070
     0
1070
     0
1070
     0
1070
     0
1040
0.0
1040
0.0
1040
0.0
1040
1.0
1040
1.0
1040
10.0
1040
10.0
1070
     0
1002
{
1002
}
1002
}
  0
ENDSEC
  0
SECTION
  2
OBJECTS
  0
DICTIONARY
  5
C
100
AcDbDictionary
  3
ACAD_GROUP
350
D
  3
ACAD_MLINESTYLE
350
E
  3
ACDBVARIABLEDICTIONARY
350
5D
  0
DICTIONARY
  5
D
102
{ACAD_REACTORS
330
C
102
}
100
AcDbDictionary
  0
DICTIONARY
  5
E
102
{ACAD_REACTORS
330
C
102
}
100
AcDbDictionary
  3
STANDARD
350
13
  0
DICTIONARY
  5
5D
102
{ACAD_REACTORS
330
C
102
}
100
AcDbDictionary
  3
DIMADEC
350
5E
  3
SORTENTS
350
3D8
  0
MLINESTYLE
  5
13
102
{ACAD_REACTORS
330
E
102
}
100
AcDbMlineStyle
  2
STANDARD
 70
     0
  3

 62
     0
 51
90.0
 52
90.0
 71
     2
 49
0.5
 62
   256
  6
BYLAYER
 49
-0.5
 62
   256
  6
BYLAYER
  0
DICTIONARYVAR
  5
5E
102
{ACAD_REACTORS
330
5D
102
}
100
DictionaryVariables
280
     0
  1
0
  0
DICTIONARYVAR
  5
3D8
102
{ACAD_REACTORS
330
5D
102
}
100
DictionaryVariables
280
     0
  1
96
  0
ENDSEC
  0
EOF
