  0
SECTION
  2
HEADER
  9
$ACADVER
  1
AC1014
  9
$ACADMAINTVER
 70
     0
  9
$DWGCODEPAGE
  3
ANSI_1250
  9
$INSBASE
 10
0.0
 20
0.0
 30
0.0
  9
$EXTMIN
 10
75.0
 20
-397.019352
 30
0.0
  9
$EXTMAX
 10
1060.303204
 20
186.366891
 30
0.0
  9
$LIMMIN
 10
0.0
 20
0.0
  9
$LIMMAX
 10
420.0
 20
297.0
  9
$ORTHOMODE
 70
     1
  9
$REGENMODE
 70
     1
  9
$FILLMODE
 70
     1
  9
$QTEXTMODE
 70
     0
  9
$MIRRTEXT
 70
     1
  9
$DRAGMODE
 70
     2
  9
$LTSCALE
 40
1.0
  9
$OSMODE
 70
    15
  9
$ATTMODE
 70
     1
  9
$TEXTSIZE
 40
2.5
  9
$TRACEWID
 40
1.0
  9
$TEXTSTYLE
  7
ED
  9
$CLAYER
  8
0
  9
$CELTYPE
  6
BYLAYER
  9
$CECOLOR
 62
   256
  9
$CELTSCALE
 40
1.0
  9
$DELOBJ
 70
     1
  9
$DISPSILH
 70
     0
  9
$DIMSCALE
 40
1.0
  9
$DIMASZ
 40
15.0
  9
$DIMEXO
 40
0.625
  9
$DIMDLI
 40
3.75
  9
$DIMRND
 40
0.0
  9
$DIMDLE
 40
0.0
  9
$DIMEXE
 40
1.25
  9
$DIMTP
 40
0.0
  9
$DIMTM
 40
0.0
  9
$DIMTXT
 40
15.0
  9
$DIMCEN
 40
2.5
  9
$DIMTSZ
 40
0.0
  9
$DIMTOL
 70
     0
  9
$DIMLIM
 70
     0
  9
$DIMTIH
 70
     0
  9
$DIMTOH
 70
     0
  9
$DIMSE1
 70
     0
  9
$DIMSE2
 70
     0
  9
$DIMTAD
 70
     1
  9
$DIMZIN
 70
     8
  9
$DIMBLK
  1

  9
$DIMASO
 70
     1
  9
$DIMSHO
 70
     1
  9
$DIMPOST
  1

  9
$DIMAPOST
  1

  9
$DIMALT
 70
     0
  9
$DIMALTD
 70
     4
  9
$DIMALTF
 40
0.0394
  9
$DIMLFAC
 40
1.0
  9
$DIMTOFL
 70
     1
  9
$DIMTVP
 40
0.0
  9
$DIMTIX
 70
     0
  9
$DIMSOXD
 70
     0
  9
$DIMSAH
 70
     1
  9
$DIMBLK1
  1
_OPEN
  9
$DIMBLK2
  1
_OPEN
  9
$DIMSTYLE
  2
STANDARD
  9
$DIMCLRD
 70
     0
  9
$DIMCLRE
 70
     0
  9
$DIMCLRT
 70
     0
  9
$DIMTFAC
 40
1.0
  9
$DIMGAP
 40
0.625
  9
$DIMJUST
 70
     0
  9
$DIMSD1
 70
     0
  9
$DIMSD2
 70
     0
  9
$DIMTOLJ
 70
     1
  9
$DIMTZIN
 70
     0
  9
$DIMALTZ
 70
     0
  9
$DIMALTTZ
 70
     0
  9
$DIMFIT
 70
     3
  9
$DIMUPT
 70
     0
  9
$DIMUNIT
 70
     8
  9
$DIMDEC
 70
     4
  9
$DIMTDEC
 70
     4
  9
$DIMALTU
 70
     8
  9
$DIMALTTD
 70
     4
  9
$DIMTXSTY
  7
ED
  9
$DIMAUNIT
 70
     0
  9
$LUNITS
 70
     2
  9
$LUPREC
 70
     4
  9
$SKETCHINC
 40
1.0
  9
$FILLETRAD
 40
10.0
  9
$AUNITS
 70
     0
  9
$AUPREC
 70
     0
  9
$MENU
  1
.
  9
$ELEVATION
 40
0.0
  9
$PELEVATION
 40
0.0
  9
$THICKNESS
 40
0.0
  9
$LIMCHECK
 70
     0
  9
$BLIPMODE
 70
     0
  9
$CHAMFERA
 40
10.0
  9
$CHAMFERB
 40
10.0
  9
$CHAMFERC
 40
20.0
  9
$CHAMFERD
 40
0.0
  9
$SKPOLY
 70
     1
  9
$TDCREATE
 40
2451196.643769328
  9
$TDUPDATE
 40
2453315.431379432
  9
$TDINDWG
 40
0.0757968287
  9
$TDUSRTIMER
 40
0.0757968287
  9
$USRTIMER
 70
     1
  9
$ANGBASE
 50
0.0
  9
$ANGDIR
 70
     0
  9
$PDMODE
 70
     3
  9
$PDSIZE
 40
15.0
  9
$PLINEWID
 40
0.0
  9
$COORDS
 70
     1
  9
$SPLFRAME
 70
     0
  9
$SPLINETYPE
 70
     6
  9
$SPLINESEGS
 70
     8
  9
$ATTDIA
 70
     0
  9
$ATTREQ
 70
     1
  9
$HANDLING
 70
     1
  9
$HANDSEED
  5
4A2
  9
$SURFTAB1
 70
     6
  9
$SURFTAB2
 70
     6
  9
$SURFTYPE
 70
     6
  9
$SURFU
 70
     6
  9
$SURFV
 70
     6
  9
$UCSNAME
  2

  9
$UCSORG
 10
150.0
 20
0.0
 30
0.0
  9
$UCSXDIR
 10
1.0
 20
0.0
 30
0.0
  9
$UCSYDIR
 10
0.0
 20
1.0
 30
0.0
  9
$PUCSNAME
  2

  9
$PUCSORG
 10
0.0
 20
0.0
 30
0.0
  9
$PUCSXDIR
 10
1.0
 20
0.0
 30
0.0
  9
$PUCSYDIR
 10
0.0
 20
1.0
 30
0.0
  9
$USERI1
 70
     0
  9
$USERI2
 70
     0
  9
$USERI3
 70
     0
  9
$USERI4
 70
     0
  9
$USERI5
 70
     0
  9
$USERR1
 40
0.0
  9
$USERR2
 40
0.0
  9
$USERR3
 40
0.0
  9
$USERR4
 40
0.0
  9
$USERR5
 40
0.0
  9
$WORLDVIEW
 70
     1
  9
$SHADEDGE
 70
     3
  9
$SHADEDIF
 70
    70
  9
$TILEMODE
 70
     1
  9
$MAXACTVP
 70
    48
  9
$PINSBASE
 10
0.0
 20
0.0
 30
0.0
  9
$PLIMCHECK
 70
     0
  9
$PEXTMIN
 10
1.000000E+20
 20
1.000000E+20
 30
1.000000E+20
  9
$PEXTMAX
 10
-1.000000E+20
 20
-1.000000E+20
 30
-1.000000E+20
  9
$PLIMMIN
 10
0.0
 20
0.0
  9
$PLIMMAX
 10
420.0
 20
297.0
  9
$UNITMODE
 70
     0
  9
$VISRETAIN
 70
     1
  9
$PLINEGEN
 70
     0
  9
$PSLTSCALE
 70
     1
  9
$TREEDEPTH
 70
  3020
  9
$PICKSTYLE
 70
     1
  9
$CMLSTYLE
  2
STANDARD
  9
$CMLJUST
 70
     0
  9
$CMLSCALE
 40
1.0
  9
$PROXYGRAPHICS
 70
     1
  9
$MEASUREMENT
 70
     1
  0
ENDSEC
  0
SECTION
  2
CLASSES
  0
CLASS
  1
DICTIONARYVAR
  2
AcDbDictionaryVar
  3
"AutoCAD"
 90
        0
280
     0
281
     0
  0
ENDSEC
  0
SECTION
  2
TABLES
  0
TABLE
  2
VPORT
  5
8
100
AcDbSymbolTable
 70
     2
  0
VPORT
  5
4A1
100
AcDbSymbolTableRecord
100
AcDbViewportTableRecord
  2
*ACTIVE
 70
     0
 10
0.0
 20
0.0
 11
1.0
 21
1.0
 12
582.830936
 22
-78.55749
 13
0.0
 23
0.0
 14
10.0
 24
10.0
 15
10.0
 25
10.0
 16
0.0
 26
0.0
 36
1.0
 17
0.0
 27
0.0
 37
0.0
 40
748.671813
 41
1.523346
 42
50.0
 43
0.0
 44
0.0
 50
0.0
 51
0.0
 71
     0
 72
   100
 73
     1
 74
     1
 75
     0
 76
     0
 77
     0
 78
     0
  0
ENDTAB
  0
TABLE
  2
LTYPE
  5
5
100
AcDbSymbolTable
 70
     3
  0
LTYPE
  5
14
100
AcDbSymbolTableRecord
100
AcDbLinetypeTableRecord
  2
BYBLOCK
 70
     0
  3

 72
    65
 73
     0
 40
0.0
  0
LTYPE
  5
15
100
AcDbSymbolTableRecord
100
AcDbLinetypeTableRecord
  2
BYLAYER
 70
     0
  3

 72
    65
 73
     0
 40
0.0
  0
LTYPE
  5
16
100
AcDbSymbolTableRecord
100
AcDbLinetypeTableRecord
  2
CONTINUOUS
 70
     0
  3
Solid line
 72
    65
 73
     0
 40
0.0
  0
LTYPE
  5
7F
100
AcDbSymbolTableRecord
100
AcDbLinetypeTableRecord
  2
DASHDOT
 70
     0
  3
Dash dot __ . __ . __ . __ . __ . __ . __ . __
 72
    65
 73
     4
 40
25.4
 49
12.7
 74
     0
 49
-6.35
 74
     0
 49
0.0
 74
     0
 49
-6.35
 74
     0
  0
LTYPE
  5
80
100
AcDbSymbolTableRecord
100
AcDbLinetypeTableRecord
  2
DASHED
 70
     0
  3
Dashed __ __ __ __ __ __ __ __ __ __ __ __ __ _
 72
    65
 73
     2
 40
19.05
 49
12.7
 74
     0
 49
-6.35
 74
     0
  0
ENDTAB
  0
TABLE
  2
LAYER
  5
2
100
AcDbSymbolTable
 70
     6
  0
LAYER
  5
F
100
AcDbSymbolTableRecord
100
AcDbLayerTableRecord
  2
0
 70
     0
 62
     7
  6
CONTINUOUS
  0
LAYER
  5
9E
100
AcDbSymbolTableRecord
100
AcDbLayerTableRecord
  2
DEFPOINTS
 70
     0
 62
     7
  6
CONTINUOUS
  0
LAYER
  5
377
100
AcDbSymbolTableRecord
100
AcDbLayerTableRecord
  2
V0-OBRYS
 70
     0
 62
    90
  6
CONTINUOUS
  0
LAYER
  5
378
100
AcDbSymbolTableRecord
100
AcDbLayerTableRecord
  2
V0-VYPLNE
 70
     0
 62
    52
  6
CONTINUOUS
  0
LAYER
  5
379
100
AcDbSymbolTableRecord
100
AcDbLayerTableRecord
  2
V0-ZBYTEK
 70
     0
 62
    51
  6
CONTINUOUS
  0
LAYER
  5
37A
100
AcDbSymbolTableRecord
100
AcDbLayerTableRecord
  2
V0-NAZVY
 70
     0
 62
   210
  6
CONTINUOUS
  0
ENDTAB
  0
TABLE
  2
STYLE
  5
3
100
AcDbSymbolTable
 70
     2
  0
STYLE
  5
10
100
AcDbSymbolTableRecord
100
AcDbTextStyleTableRecord
  2
STANDARD
 70
     0
 40
0.0
 41
1.0
 50
0.0
 71
     0
 42
2.5
  3
ISOCP
  4

  0
STYLE
  5
331
100
AcDbSymbolTableRecord
100
AcDbTextStyleTableRecord
  2
ED
 70
     0
 40
20.0
 41
1.0
 50
0.0
 71
     0
 42
2.5
  3
ISOCP.shx
  4

  0
ENDTAB
  0
TABLE
  2
VIEW
  5
6
100
AcDbSymbolTable
 70
     0
  0
ENDTAB
  0
TABLE
  2
UCS
  5
7
100
AcDbSymbolTable
 70
     0
  0
ENDTAB
  0
TABLE
  2
APPID
  5
9
100
AcDbSymbolTable
 70
     1
  0
APPID
  5
11
100
AcDbSymbolTableRecord
100
AcDbRegAppTableRecord
  2
ACAD
 70
     0
  0
ENDTAB
  0
TABLE
  2
DIMSTYLE
  5
A
100
AcDbSymbolTable
 70
     1
  0
DIMSTYLE
105
1D
102
{ACAD_REACTORS
330
F2
330
FF
330
10E
330
128
330
11B
102
}
100
AcDbSymbolTableRecord
100
AcDbDimStyleTableRecord
  2
STANDARD
 70
     0
  3

  4

  5

  6
_OPEN
  7
_OPEN
 40
1.0
 41
25.0
 42
0.625
 43
3.75
 44
1.25
 45
0.0
 46
0.0
 47
0.0
 48
0.0
140
25.0
141
2.5
142
0.0
143
0.0394
144
1.0
145
0.0
146
1.0
147
0.625
 71
     0
 72
     0
 73
     0
 74
     0
 75
     0
 76
     0
 77
     1
 78
     8
170
     0
171
     4
172
     1
173
     1
174
     0
175
     0
176
     0
177
     0
178
     0
270
     8
271
     4
272
     4
273
     8
274
     4
340
10
275
     0
280
     0
281
     0
282
     0
283
     1
284
     0
285
     0
286
     0
287
     3
288
     0
  0
ENDTAB
  0
TABLE
  2
BLOCK_RECORD
  5
1
100
AcDbSymbolTable
 70
     6
  0
BLOCK_RECORD
  5
1A
100
AcDbSymbolTableRecord
100
AcDbBlockTableRecord
  2
*MODEL_SPACE
  0
BLOCK_RECORD
  5
17
100
AcDbSymbolTableRecord
100
AcDbBlockTableRecord
  2
*PAPER_SPACE
  0
BLOCK_RECORD
  5
90
100
AcDbSymbolTableRecord
100
AcDbBlockTableRecord
  2
_OPEN
  0
BLOCK_RECORD
  5
429
100
AcDbSymbolTableRecord
100
AcDbBlockTableRecord
  2
*D1
  0
BLOCK_RECORD
  5
435
100
AcDbSymbolTableRecord
100
AcDbBlockTableRecord
  2
*D2
  0
BLOCK_RECORD
  5
441
100
AcDbSymbolTableRecord
100
AcDbBlockTableRecord
  2
*D3
  0
BLOCK_RECORD
  5
44F
100
AcDbSymbolTableRecord
100
AcDbBlockTableRecord
  2
*D4
  0
BLOCK_RECORD
  5
45B
100
AcDbSymbolTableRecord
100
AcDbBlockTableRecord
  2
*D5
  0
ENDTAB
  0
ENDSEC
  0
SECTION
  2
BLOCKS
  0
BLOCK
  5
1B
100
AcDbEntity
  8
0
100
AcDbBlockBegin
  2
*MODEL_SPACE
 70
     0
 10
0.0
 20
0.0
 30
0.0
  3
*MODEL_SPACE
  1

  0
ENDBLK
  5
1C
100
AcDbEntity
  8
0
100
AcDbBlockEnd
  0
BLOCK
  5
18
100
AcDbEntity
 67
     1
  8
0
100
AcDbBlockBegin
  2
*PAPER_SPACE
 70
     0
 10
0.0
 20
0.0
 30
0.0
  3
*PAPER_SPACE
  1

  0
ENDBLK
  5
19
100
AcDbEntity
 67
     1
  8
0
100
AcDbBlockEnd
  0
BLOCK
  5
91
100
AcDbEntity
  8
0
100
AcDbBlockBegin
  2
_OPEN
 70
     0
 10
0.0
 20
0.0
 30
0.0
  3
_OPEN
  1

  0
LINE
  5
92
100
AcDbEntity
  8
0
  6
BYBLOCK
 62
     0
100
AcDbLine
 10
-1.0
 20
0.166667
 30
0.0
 11
0.0
 21
0.0
 31
0.0
  0
LINE
  5
93
100
AcDbEntity
  8
0
  6
BYBLOCK
 62
     0
100
AcDbLine
 10
0.0
 20
0.0
 30
0.0
 11
-1.0
 21
-0.166667
 31
0.0
  0
LINE
  5
94
100
AcDbEntity
  8
0
  6
BYBLOCK
 62
     0
100
AcDbLine
 10
0.0
 20
0.0
 30
0.0
 11
-1.0
 21
0.0
 31
0.0
  0
ENDBLK
  5
95
100
AcDbEntity
  8
0
100
AcDbBlockEnd
  0
BLOCK
  5
42A
100
AcDbEntity
  8
0
100
AcDbBlockBegin
  2
*D1
 70
     1
 10
0.0
 20
0.0
 30
0.0
  3
*D1
  1

  0
LINE
  5
42B
100
AcDbEntity
  8
0
  6
BYBLOCK
 62
     0
100
AcDbLine
 10
125.0
 20
50.625
 30
0.0
 11
125.0
 21
167.094253
 31
0.0
  0
LINE
  5
42C
100
AcDbEntity
  8
0
  6
BYBLOCK
 62
     0
100
AcDbLine
 10
725.0
 20
50.625
 30
0.0
 11
725.0
 21
167.094253
 31
0.0
  0
LINE
  5
42D
100
AcDbEntity
  8
0
  6
BYBLOCK
 62
     0
100
AcDbLine
 10
140.0
 20
165.844253
 30
0.0
 11
710.0
 21
165.844253
 31
0.0
  0
INSERT
  5
42E
100
AcDbEntity
  8
0
  6
BYBLOCK
 62
     0
100
AcDbBlockReference
  2
_OPEN
 10
125.0
 20
165.844253
 30
0.0
 41
15.0
 42
15.0
 43
15.0
 50
180.0
  0
INSERT
  5
42F
100
AcDbEntity
  8
0
  6
BYBLOCK
 62
     0
100
AcDbBlockReference
  2
_OPEN
 10
725.0
 20
165.844253
 30
0.0
 41
15.0
 42
15.0
 43
15.0
  0
MTEXT
  5
430
100
AcDbEntity
  8
0
  6
BYBLOCK
 62
     0
100
AcDbMText
 10
425.0
 20
176.469253
 30
0.0
 40
20.0
 41
0.0
 71
     5
 72
     1
  1
\A1;600
  7
ED
  0
POINT
  5
431
100
AcDbEntity
  8
DEFPOINTS
  6
BYBLOCK
 62
     0
100
AcDbPoint
 10
125.0
 20
50.0
 30
0.0
  0
POINT
  5
432
100
AcDbEntity
  8
DEFPOINTS
  6
BYBLOCK
 62
     0
100
AcDbPoint
 10
725.0
 20
50.0
 30
0.0
  0
POINT
  5
433
100
AcDbEntity
  8
DEFPOINTS
  6
BYBLOCK
 62
     0
100
AcDbPoint
 10
725.0
 20
165.844253
 30
0.0
  0
ENDBLK
  5
434
100
AcDbEntity
  8
0
100
AcDbBlockEnd
  0
BLOCK
  5
436
100
AcDbEntity
  8
0
100
AcDbBlockBegin
  2
*D2
 70
     1
 10
0.0
 20
0.0
 30
0.0
  3
*D2
  1

  0
LINE
  5
437
100
AcDbEntity
  8
0
  6
BYBLOCK
 62
     0
100
AcDbLine
 10
150.0
 20
100.625
 30
0.0
 11
150.0
 21
129.307445
 31
0.0
  0
LINE
  5
438
100
AcDbEntity
  8
0
  6
BYBLOCK
 62
     0
100
AcDbLine
 10
700.0
 20
100.625
 30
0.0
 11
700.0
 21
129.307445
 31
0.0
  0
LINE
  5
439
100
AcDbEntity
  8
0
  6
BYBLOCK
 62
     0
100
AcDbLine
 10
165.0
 20
128.057445
 30
0.0
 11
685.0
 21
128.057445
 31
0.0
  0
INSERT
  5
43A
100
AcDbEntity
  8
0
  6
BYBLOCK
 62
     0
100
AcDbBlockReference
  2
_OPEN
 10
150.0
 20
128.057445
 30
0.0
 41
15.0
 42
15.0
 43
15.0
 50
180.0
  0
INSERT
  5
43B
100
AcDbEntity
  8
0
  6
BYBLOCK
 62
     0
100
AcDbBlockReference
  2
_OPEN
 10
700.0
 20
128.057445
 30
0.0
 41
15.0
 42
15.0
 43
15.0
  0
MTEXT
  5
43C
100
AcDbEntity
  8
0
  6
BYBLOCK
 62
     0
100
AcDbMText
 10
425.0
 20
138.682445
 30
0.0
 40
20.0
 41
0.0
 71
     5
 72
     1
  1
\A1;550
  7
ED
  0
POINT
  5
43D
100
AcDbEntity
  8
DEFPOINTS
  6
BYBLOCK
 62
     0
100
AcDbPoint
 10
150.0
 20
100.0
 30
0.0
  0
POINT
  5
43E
100
AcDbEntity
  8
DEFPOINTS
  6
BYBLOCK
 62
     0
100
AcDbPoint
 10
700.0
 20
100.0
 30
0.0
  0
POINT
  5
43F
100
AcDbEntity
  8
DEFPOINTS
  6
BYBLOCK
 62
     0
100
AcDbPoint
 10
700.0
 20
128.057445
 30
0.0
  0
ENDBLK
  5
440
100
AcDbEntity
  8
0
100
AcDbBlockEnd
  0
BLOCK
  5
442
100
AcDbEntity
  8
0
100
AcDbBlockBegin
  2
*D3
 70
     1
 10
0.0
 20
0.0
 30
0.0
  3
*D3
  1

  0
LINE
  5
443
100
AcDbEntity
  8
0
  6
BYBLOCK
 62
     0
100
AcDbLine
 10
125.0
 20
-50.625
 30
0.0
 11
125.0
 21
-144.697774
 31
0.0
  0
LINE
  5
444
100
AcDbEntity
  8
0
  6
BYBLOCK
 62
     0
100
AcDbLine
 10
150.0
 20
-100.625
 30
0.0
 11
150.0
 21
-144.697774
 31
0.0
  0
LINE
  5
445
100
AcDbEntity
  8
0
  6
BYBLOCK
 62
     0
100
AcDbLine
 10
100.0
 20
-143.447774
 30
0.0
 11
75.0
 21
-143.447774
 31
0.0
  0
LINE
  5
446
100
AcDbEntity
  8
0
  6
BYBLOCK
 62
     0
100
AcDbLine
 10
175.0
 20
-143.447774
 30
0.0
 11
230.420376
 21
-143.447774
 31
0.0
  0
LINE
  5
447
100
AcDbEntity
  8
0
  6
BYBLOCK
 62
     0
100
AcDbLine
 10
125.0
 20
-143.447774
 30
0.0
 11
150.0
 21
-143.447774
 31
0.0
  0
INSERT
  5
448
100
AcDbEntity
  8
0
  6
BYBLOCK
 62
     0
100
AcDbBlockReference
  2
_OPEN
 10
125.0
 20
-143.447774
 30
0.0
 41
25.0
 42
25.0
 43
25.0
  0
INSERT
  5
449
100
AcDbEntity
  8
0
  6
BYBLOCK
 62
     0
100
AcDbBlockReference
  2
_OPEN
 10
150.0
 20
-143.447774
 30
0.0
 41
25.0
 42
25.0
 43
25.0
 50
180.0
  0
MTEXT
  5
44A
100
AcDbEntity
  8
0
  6
BYBLOCK
 62
     0
100
AcDbMText
 10
215.210188
 20
-130.320314
 30
0.0
 40
25.0
 41
0.0
 71
     5
 72
     1
  1
\A1;25
  0
POINT
  5
44B
100
AcDbEntity
  8
DEFPOINTS
  6
BYBLOCK
 62
     0
100
AcDbPoint
 10
125.0
 20
-50.0
 30
0.0
  0
POINT
  5
44C
100
AcDbEntity
  8
DEFPOINTS
  6
BYBLOCK
 62
     0
100
AcDbPoint
 10
150.0
 20
-100.0
 30
0.0
  0
POINT
  5
44D
100
AcDbEntity
  8
DEFPOINTS
  6
BYBLOCK
 62
     0
100
AcDbPoint
 10
150.0
 20
-143.447774
 30
0.0
  0
ENDBLK
  5
44E
100
AcDbEntity
  8
0
100
AcDbBlockEnd
  0
BLOCK
  5
450
100
AcDbEntity
  8
0
100
AcDbBlockBegin
  2
*D4
 70
     1
 10
0.0
 20
0.0
 30
0.0
  3
*D4
  1

  0
LINE
  5
451
100
AcDbEntity
  8
0
  6
BYBLOCK
 62
     0
100
AcDbLine
 10
700.625
 20
100.0
 30
0.0
 11
797.537023
 21
100.0
 31
0.0
  0
LINE
  5
452
100
AcDbEntity
  8
0
  6
BYBLOCK
 62
     0
100
AcDbLine
 10
700.625
 20
-100.0
 30
0.0
 11
797.537023
 21
-100.0
 31
0.0
  0
LINE
  5
453
100
AcDbEntity
  8
0
  6
BYBLOCK
 62
     0
100
AcDbLine
 10
796.287023
 20
85.0
 30
0.0
 11
796.287023
 21
-85.0
 31
0.0
  0
INSERT
  5
454
100
AcDbEntity
  8
0
  6
BYBLOCK
 62
     0
100
AcDbBlockReference
  2
_OPEN
 10
796.287023
 20
100.0
 30
0.0
 41
15.0
 42
15.0
 43
15.0
 50
90.0
  0
INSERT
  5
455
100
AcDbEntity
  8
0
  6
BYBLOCK
 62
     0
100
AcDbBlockReference
  2
_OPEN
 10
796.287023
 20
-100.0
 30
0.0
 41
15.0
 42
15.0
 43
15.0
 50
270.0
  0
MTEXT
  5
456
100
AcDbEntity
  8
0
  6
BYBLOCK
 62
     0
100
AcDbMText
 10
785.660055
 20
0.0
 30
0.0
 40
20.0
 41
0.0
 71
     5
 72
     1
  1
\A1;\U+2205200
  7
ED
 11
0.0
 21
1.0
 31
0.0
  0
POINT
  5
457
100
AcDbEntity
  8
DEFPOINTS
  6
BYBLOCK
 62
     0
100
AcDbPoint
 10
700.0
 20
100.0
 30
0.0
  0
POINT
  5
458
100
AcDbEntity
  8
DEFPOINTS
  6
BYBLOCK
 62
     0
100
AcDbPoint
 10
700.0
 20
-100.0
 30
0.0
  0
POINT
  5
459
100
AcDbEntity
  8
DEFPOINTS
  6
BYBLOCK
 62
     0
100
AcDbPoint
 10
796.287023
 20
-100.0
 30
0.0
  0
ENDBLK
  5
45A
100
AcDbEntity
  8
0
100
AcDbBlockEnd
  0
BLOCK
  5
45C
100
AcDbEntity
  8
0
100
AcDbBlockBegin
  2
*D5
 70
     1
 10
0.0
 20
0.0
 30
0.0
  3
*D5
  1

  0
LINE
  5
45D
100
AcDbEntity
  8
0
  6
BYBLOCK
 62
     0
100
AcDbLine
 10
725.625
 20
50.0
 30
0.0
 11
759.7128
 21
50.0
 31
0.0
  0
LINE
  5
45E
100
AcDbEntity
  8
0
  6
BYBLOCK
 62
     0
100
AcDbLine
 10
725.625
 20
-50.0
 30
0.0
 11
759.7128
 21
-50.0
 31
0.0
  0
LINE
  5
45F
100
AcDbEntity
  8
0
  6
BYBLOCK
 62
     0
100
AcDbLine
 10
758.4628
 20
35.0
 30
0.0
 11
758.4628
 21
-35.0
 31
0.0
  0
INSERT
  5
460
100
AcDbEntity
  8
0
  6
BYBLOCK
 62
     0
100
AcDbBlockReference
  2
_OPEN
 10
758.4628
 20
50.0
 30
0.0
 41
15.0
 42
15.0
 43
15.0
 50
90.0
  0
INSERT
  5
461
100
AcDbEntity
  8
0
  6
BYBLOCK
 62
     0
100
AcDbBlockReference
  2
_OPEN
 10
758.4628
 20
-50.0
 30
0.0
 41
15.0
 42
15.0
 43
15.0
 50
270.0
  0
MTEXT
  5
462
100
AcDbEntity
  8
0
  6
BYBLOCK
 62
     0
100
AcDbMText
 10
747.8378
 20
0.0
 30
0.0
 40
20.0
 41
0.0
 71
     5
 72
     1
  1
\A1;\U+2205100
  7
ED
 11
0.0
 21
1.0
 31
0.0
  0
POINT
  5
463
100
AcDbEntity
  8
DEFPOINTS
  6
BYBLOCK
 62
     0
100
AcDbPoint
 10
725.0
 20
50.0
 30
0.0
  0
POINT
  5
464
100
AcDbEntity
  8
DEFPOINTS
  6
BYBLOCK
 62
     0
100
AcDbPoint
 10
725.0
 20
-50.0
 30
0.0
  0
POINT
  5
465
100
AcDbEntity
  8
DEFPOINTS
  6
BYBLOCK
 62
     0
100
AcDbPoint
 10
758.4628
 20
-50.0
 30
0.0
  0
ENDBLK
  5
466
100
AcDbEntity
  8
0
100
AcDbBlockEnd
  0
ENDSEC
  0
SECTION
  2
ENTITIES
  0
LINE
  5
C4
100
AcDbEntity
  8
V0-VYPLNE
  6
DASHDOT
 48
3.0
100
AcDbLine
 10
109.34428
 20
0.0
 30
0.0
 11
732.326511
 21
0.0
 31
0.0
  0
LINE
  5
C6
100
AcDbEntity
  8
V0-OBRYS
100
AcDbLine
 10
150.0
 20
0.0
 30
0.0
 11
150.0
 21
100.0
 31
0.0
  0
LINE
  5
C7
100
AcDbEntity
  8
V0-OBRYS
100
AcDbLine
 10
150.0
 20
100.0
 30
0.0
 11
425.0
 21
100.0
 31
0.0
  0
LINE
  5
C9
100
AcDbEntity
  8
V0-OBRYS
100
AcDbLine
 10
125.0
 20
0.0
 30
0.0
 11
125.0
 21
50.0
 31
0.0
  0
LINE
  5
CA
100
AcDbEntity
  8
V0-OBRYS
100
AcDbLine
 10
125.0
 20
50.0
 30
0.0
 11
150.0
 21
50.0
 31
0.0
  0
LINE
  5
CE
100
AcDbEntity
  8
V0-OBRYS
100
AcDbLine
 10
130.003421
 20
0.0
 30
0.0
 11
130.003421
 21
52.811532
 31
0.0
  0
LINE
  5
CF
100
AcDbEntity
  8
V0-OBRYS
100
AcDbLine
 10
130.003421
 20
52.811532
 30
0.0
 11
132.16931
 21
52.811532
 31
0.0
  0
LINE
  5
D0
100
AcDbEntity
  8
V0-OBRYS
100
AcDbLine
 10
132.16931
 20
52.811532
 30
0.0
 11
132.16931
 21
0.0
 31
0.0
  0
LINE
  5
D1
100
AcDbEntity
  8
V0-OBRYS
100
AcDbLine
 10
150.0
 20
-100.0
 30
0.0
 11
425.0
 21
-100.0
 31
0.0
  0
LINE
  5
D2
100
AcDbEntity
  8
V0-OBRYS
100
AcDbLine
 10
150.0
 20
0.0
 30
0.0
 11
150.0
 21
-100.0
 31
0.0
  0
LINE
  5
D3
100
AcDbEntity
  8
V0-OBRYS
100
AcDbLine
 10
125.0
 20
-50.0
 30
0.0
 11
150.0
 21
-50.0
 31
0.0
  0
LINE
  5
D4
100
AcDbEntity
  8
V0-OBRYS
100
AcDbLine
 10
132.16931
 20
-52.811532
 30
0.0
 11
132.16931
 21
0.0
 31
0.0
  0
LINE
  5
D5
100
AcDbEntity
  8
V0-OBRYS
100
AcDbLine
 10
130.003421
 20
0.0
 30
0.0
 11
130.003421
 21
-52.811532
 31
0.0
  0
LINE
  5
D6
100
AcDbEntity
  8
V0-OBRYS
100
AcDbLine
 10
125.0
 20
0.0
 30
0.0
 11
125.0
 21
-50.0
 31
0.0
  0
LINE
  5
D7
100
AcDbEntity
  8
V0-OBRYS
100
AcDbLine
 10
130.003421
 20
-52.811532
 30
0.0
 11
132.16931
 21
-52.811532
 31
0.0
  0
LINE
  5
D8
100
AcDbEntity
  8
V0-OBRYS
100
AcDbLine
 10
700.0
 20
-100.0
 30
0.0
 11
425.0
 21
-100.0
 31
0.0
  0
LINE
  5
D9
100
AcDbEntity
  8
V0-OBRYS
100
AcDbLine
 10
700.0
 20
100.0
 30
0.0
 11
425.0
 21
100.0
 31
0.0
  0
LINE
  5
DA
100
AcDbEntity
  8
V0-OBRYS
100
AcDbLine
 10
725.0
 20
0.0
 30
0.0
 11
725.0
 21
-50.0
 31
0.0
  0
LINE
  5
DB
100
AcDbEntity
  8
V0-OBRYS
100
AcDbLine
 10
719.996579
 20
0.0
 30
0.0
 11
719.996579
 21
-52.811532
 31
0.0
  0
LINE
  5
DC
100
AcDbEntity
  8
V0-OBRYS
100
AcDbLine
 10
717.83069
 20
-52.811532
 30
0.0
 11
717.83069
 21
0.0
 31
0.0
  0
LINE
  5
DD
100
AcDbEntity
  8
V0-OBRYS
100
AcDbLine
 10
700.0
 20
0.0
 30
0.0
 11
700.0
 21
-100.0
 31
0.0
  0
LINE
  5
DE
100
AcDbEntity
  8
V0-OBRYS
100
AcDbLine
 10
725.0
 20
-50.0
 30
0.0
 11
700.0
 21
-50.0
 31
0.0
  0
LINE
  5
DF
100
AcDbEntity
  8
V0-OBRYS
100
AcDbLine
 10
719.996579
 20
-52.811532
 30
0.0
 11
717.83069
 21
-52.811532
 31
0.0
  0
LINE
  5
E0
100
AcDbEntity
  8
V0-OBRYS
100
AcDbLine
 10
700.0
 20
0.0
 30
0.0
 11
700.0
 21
100.0
 31
0.0
  0
LINE
  5
E1
100
AcDbEntity
  8
V0-OBRYS
100
AcDbLine
 10
725.0
 20
50.0
 30
0.0
 11
700.0
 21
50.0
 31
0.0
  0
LINE
  5
E2
100
AcDbEntity
  8
V0-OBRYS
100
AcDbLine
 10
717.83069
 20
52.811532
 30
0.0
 11
717.83069
 21
0.0
 31
0.0
  0
LINE
  5
E3
100
AcDbEntity
  8
V0-OBRYS
100
AcDbLine
 10
719.996579
 20
0.0
 30
0.0
 11
719.996579
 21
52.811532
 31
0.0
  0
LINE
  5
E4
100
AcDbEntity
  8
V0-OBRYS
100
AcDbLine
 10
725.0
 20
0.0
 30
0.0
 11
725.0
 21
50.0
 31
0.0
  0
LINE
  5
E5
100
AcDbEntity
  8
V0-OBRYS
100
AcDbLine
 10
719.996579
 20
52.811532
 30
0.0
 11
717.83069
 21
52.811532
 31
0.0
  0
DIMENSION
  5
F2
100
AcDbEntity
  8
V0-VYPLNE
 62
    41
100
AcDbDimension
  2
*D1
 10
725.0
 20
165.844253
 30
0.0
 11
425.0
 21
176.469253
 31
0.0
 70
    32
  3
STANDARD
100
AcDbAlignedDimension
 13
125.0
 23
50.0
 33
0.0
 14
725.0
 24
50.0
 34
0.0
100
AcDbRotatedDimension
1001
ACAD
1000
DSTYLE
1002
{
1070
   140
1040
15.0
1070
   340
1005
331
1070
    41
1040
15.0
1002
}
  0
DIMENSION
  5
FF
100
AcDbEntity
  8
V0-VYPLNE
 62
    41
100
AcDbDimension
  2
*D2
 10
700.0
 20
128.057445
 30
0.0
 11
425.0
 21
138.682445
 31
0.0
 70
    32
  3
STANDARD
100
AcDbAlignedDimension
 13
150.0
 23
100.0
 33
0.0
 14
700.0
 24
100.0
 34
0.0
100
AcDbRotatedDimension
1001
ACAD
1000
DSTYLE
1002
{
1070
   140
1040
15.0
1070
   340
1005
331
1070
    41
1040
15.0
1002
}
  0
DIMENSION
  5
10E
100
AcDbEntity
  8
V0-VYPLNE
 62
    41
100
AcDbDimension
  2
*D3
 10
150.0
 20
-143.447774
 30
0.0
 11
215.210188
 21
-143.447774
 31
0.0
 70
   160
  3
STANDARD
100
AcDbAlignedDimension
 13
125.0
 23
-50.0
 33
0.0
 14
150.0
 24
-100.0
 34
0.0
100
AcDbRotatedDimension
1001
ACAD
1000
DSTYLE
1002
{
1070
   140
1040
25.0
1070
   173
1070
     1
1070
     7
1000
_OPEN
1070
     6
1000
_OPEN
1070
    41
1040
25.0
1002
}
  0
DIMENSION
  5
11B
100
AcDbEntity
  8
V0-VYPLNE
 62
    41
100
AcDbDimension
  2
*D5
 10
758.4628
 20
-50.0
 30
0.0
 11
747.8378
 21
0.0
 31
0.0
 70
    32
  1
%%c<>
  3
STANDARD
100
AcDbAlignedDimension
 13
725.0
 23
50.0
 33
0.0
 14
725.0
 24
-50.0
 34
0.0
 50
90.0
100
AcDbRotatedDimension
1001
ACAD
1000
DSTYLE
1002
{
1070
   140
1040
15.0
1070
   340
1005
331
1070
    41
1040
15.0
1002
}
  0
DIMENSION
  5
128
100
AcDbEntity
  8
V0-VYPLNE
 62
    41
100
AcDbDimension
  2
*D4
 10
796.287023
 20
-100.0
 30
0.0
 11
785.660055
 21
0.0
 31
0.0
 70
    32
  1
%%c<>
  3
STANDARD
100
AcDbAlignedDimension
 13
700.0
 23
100.0
 33
0.0
 14
700.0
 24
-100.0
 34
0.0
 50
90.0
100
AcDbRotatedDimension
1001
ACAD
1000
DSTYLE
1002
{
1070
   140
1040
15.0
1070
   340
1005
331
1070
    41
1040
15.0
1002
}
  0
CIRCLE
  5
16F
100
AcDbEntity
  8
V0-OBRYS
100
AcDbCircle
 10
934.788797
 20
1.97345
 30
0.0
 40
100.0
  0
LINE
  5
267
100
AcDbEntity
  8
V0-VYPLNE
  6
DASHDOT
 48
3.0
100
AcDbLine
 10
826.252303
 20
1.97345
 30
0.0
 11
1060.303204
 21
1.97345
 31
0.0
  0
LINE
  5
268
100
AcDbEntity
  8
V0-VYPLNE
  6
DASHDOT
 48
3.0
100
AcDbLine
 10
934.788797
 20
-98.02655
 30
0.0
 11
934.788797
 21
109.844571
 31
0.0
  0
CIRCLE
  5
272
100
AcDbEntity
  8
V0-OBRYS
100
AcDbCircle
 10
934.788797
 20
1.97345
 30
0.0
 40
50.0
  0
CIRCLE
  5
273
100
AcDbEntity
  8
V0-OBRYS
100
AcDbCircle
 10
934.788797
 20
1.97345
 30
0.0
 40
53.457092
  0
LINE
  5
274
100
AcDbEntity
  8
V0-VYPLNE
  6
DASHDOT
 48
3.0
100
AcDbLine
 10
109.34428
 20
-297.019352
 30
0.0
 11
735.944153
 21
-297.019352
 31
0.0
  0
LINE
  5
275
100
AcDbEntity
  8
V0-OBRYS
100
AcDbLine
 10
150.0
 20
-397.019352
 30
0.0
 11
425.0
 21
-397.019352
 31
0.0
  0
LINE
  5
276
100
AcDbEntity
  8
V0-OBRYS
100
AcDbLine
 10
150.0
 20
-197.019352
 30
0.0
 11
425.0
 21
-197.019352
 31
0.0
  0
LINE
  5
277
100
AcDbEntity
  8
V0-OBRYS
100
AcDbLine
 10
125.0
 20
-297.019352
 30
0.0
 11
125.0
 21
-347.019352
 31
0.0
  0
LINE
  5
278
100
AcDbEntity
  8
V0-OBRYS
100
AcDbLine
 10
130.003421
 20
-297.019352
 30
0.0
 11
130.003421
 21
-349.830884
 31
0.0
  0
LINE
  5
279
100
AcDbEntity
  8
V0-OBRYS
100
AcDbLine
 10
132.16931
 20
-349.830884
 30
0.0
 11
132.16931
 21
-297.019352
 31
0.0
  0
LINE
  5
27A
100
AcDbEntity
  8
V0-OBRYS
100
AcDbLine
 10
150.0
 20
-297.019352
 30
0.0
 11
150.0
 21
-397.019352
 31
0.0
  0
LINE
  5
27B
100
AcDbEntity
  8
V0-OBRYS
100
AcDbLine
 10
125.0
 20
-347.019352
 30
0.0
 11
150.0
 21
-347.019352
 31
0.0
  0
LINE
  5
27C
100
AcDbEntity
  8
V0-OBRYS
100
AcDbLine
 10
130.003421
 20
-349.830884
 30
0.0
 11
132.16931
 21
-349.830884
 31
0.0
  0
LINE
  5
27D
100
AcDbEntity
  8
V0-OBRYS
100
AcDbLine
 10
150.0
 20
-297.019352
 30
0.0
 11
150.0
 21
-197.019352
 31
0.0
  0
LINE
  5
27E
100
AcDbEntity
  8
V0-OBRYS
100
AcDbLine
 10
125.0
 20
-247.019352
 30
0.0
 11
150.0
 21
-247.019352
 31
0.0
  0
LINE
  5
27F
100
AcDbEntity
  8
V0-OBRYS
100
AcDbLine
 10
132.16931
 20
-244.20782
 30
0.0
 11
132.16931
 21
-297.019352
 31
0.0
  0
LINE
  5
280
100
AcDbEntity
  8
V0-OBRYS
100
AcDbLine
 10
130.003421
 20
-297.019352
 30
0.0
 11
130.003421
 21
-244.20782
 31
0.0
  0
LINE
  5
281
100
AcDbEntity
  8
V0-OBRYS
100
AcDbLine
 10
125.0
 20
-297.019352
 30
0.0
 11
125.0
 21
-247.019352
 31
0.0
  0
LINE
  5
282
100
AcDbEntity
  8
V0-OBRYS
100
AcDbLine
 10
130.003421
 20
-244.20782
 30
0.0
 11
132.16931
 21
-244.20782
 31
0.0
  0
LINE
  5
283
100
AcDbEntity
  8
V0-OBRYS
100
AcDbLine
 10
700.0
 20
-197.019352
 30
0.0
 11
425.0
 21
-197.019352
 31
0.0
  0
LINE
  5
284
100
AcDbEntity
  8
V0-OBRYS
100
AcDbLine
 10
700.0
 20
-397.019352
 30
0.0
 11
425.0
 21
-397.019352
 31
0.0
  0
LINE
  5
285
100
AcDbEntity
  8
V0-OBRYS
100
AcDbLine
 10
700.0
 20
-297.019352
 30
0.0
 11
700.0
 21
-397.019352
 31
0.0
  0
LINE
  5
286
100
AcDbEntity
  8
V0-OBRYS
100
AcDbLine
 10
717.83069
 20
-349.830884
 30
0.0
 11
717.83069
 21
-297.019352
 31
0.0
  0
LINE
  5
287
100
AcDbEntity
  8
V0-OBRYS
100
AcDbLine
 10
719.996579
 20
-297.019352
 30
0.0
 11
719.996579
 21
-349.830884
 31
0.0
  0
LINE
  5
288
100
AcDbEntity
  8
V0-OBRYS
100
AcDbLine
 10
725.0
 20
-297.019352
 30
0.0
 11
725.0
 21
-347.019352
 31
0.0
  0
LINE
  5
289
100
AcDbEntity
  8
V0-OBRYS
100
AcDbLine
 10
725.0
 20
-347.019352
 30
0.0
 11
700.0
 21
-347.019352
 31
0.0
  0
LINE
  5
28A
100
AcDbEntity
  8
V0-OBRYS
100
AcDbLine
 10
719.996579
 20
-349.830884
 30
0.0
 11
717.83069
 21
-349.830884
 31
0.0
  0
LINE
  5
28B
100
AcDbEntity
  8
V0-OBRYS
100
AcDbLine
 10
700.0
 20
-297.019352
 30
0.0
 11
700.0
 21
-197.019352
 31
0.0
  0
LINE
  5
28C
100
AcDbEntity
  8
V0-OBRYS
100
AcDbLine
 10
725.0
 20
-297.019352
 30
0.0
 11
725.0
 21
-247.019352
 31
0.0
  0
LINE
  5
28D
100
AcDbEntity
  8
V0-OBRYS
100
AcDbLine
 10
719.996579
 20
-297.019352
 30
0.0
 11
719.996579
 21
-244.20782
 31
0.0
  0
LINE
  5
28E
100
AcDbEntity
  8
V0-OBRYS
100
AcDbLine
 10
717.83069
 20
-244.20782
 30
0.0
 11
717.83069
 21
-297.019352
 31
0.0
  0
LINE
  5
28F
100
AcDbEntity
  8
V0-OBRYS
100
AcDbLine
 10
725.0
 20
-247.019352
 30
0.0
 11
700.0
 21
-247.019352
 31
0.0
  0
LINE
  5
290
100
AcDbEntity
  8
V0-OBRYS
100
AcDbLine
 10
719.996579
 20
-244.20782
 30
0.0
 11
717.83069
 21
-244.20782
 31
0.0
  0
TEXT
  5
29B
100
AcDbEntity
  8
V0-ZBYTEK
 62
   130
 48
2.0
100
AcDbText
 10
798.770485
 20
-267.911272
 30
0.0
 40
27.0
  1
TLUMIC HLUKU
 72
     1
 11
913.587985
 21
-267.911272
 31
0.0
100
AcDbText
  0
TEXT
  5
29C
100
AcDbEntity
  8
V0-ZBYTEK
 62
    51
 48
2.0
100
AcDbText
 10
785.427863
 20
-321.455576
 30
0.0
 40
18.0
  1
PRO KRUHOVA POTRUBI
 72
     1
 11
912.372863
 21
-321.455576
 31
0.0
100
AcDbText
  0
TEXT
  5
29D
100
AcDbEntity
  8
V0-NAZVY
 48
2.0
100
AcDbText
 10
818.173812
 20
-212.111272
 30
0.0
 40
36.0
  1
MAA-100
 72
     1
 11
913.587985
 21
-212.111272
 31
0.0
100
AcDbText
  0
TEXT
  5
29E
100
AcDbEntity
  8
V0-NAZVY
 48
2.0
100
AcDbText
 10
358.367916
 20
-271.938658
 30
0.0
 40
30.0
  1
MAA-100
 72
     1
 11
437.879727
 21
-271.938658
 31
0.0
100
AcDbText
  0
TEXT
  5
29F
100
AcDbEntity
  8
V0-NAZVY
 48
2.0
100
AcDbText
 10
856.169562
 20
117.135013
 30
0.0
 40
30.0
  1
MAA-100
 72
     1
 11
935.681373
 21
117.135013
 31
0.0
100
AcDbText
  0
TEXT
  5
2A0
100
AcDbEntity
  8
V0-NAZVY
 48
2.0
100
AcDbText
 10
358.367916
 20
17.714193
 30
0.0
 40
30.0
  1
MAA-100
 72
     1
 11
437.879727
 21
17.714193
 31
0.0
100
AcDbText
  0
LINE
  5
369
100
AcDbEntity
  8
V0-VYPLNE
  6
DASHED
 48
3.0
100
AcDbLine
 10
150.96785
 20
66.210343
 30
0.0
 11
700.192219
 21
66.210343
 31
0.0
  0
LINE
  5
36A
100
AcDbEntity
  8
V0-VYPLNE
  6
DASHED
 48
3.0
100
AcDbLine
 10
150.96785
 20
-66.210343
 30
0.0
 11
700.192219
 21
-66.210343
 31
0.0
  0
LINE
  5
36B
100
AcDbEntity
  8
V0-VYPLNE
  6
DASHED
 48
3.0
100
AcDbLine
 10
150.96785
 20
-230.809009
 30
0.0
 11
700.192219
 21
-230.809009
 31
0.0
  0
LINE
  5
36C
100
AcDbEntity
  8
V0-VYPLNE
  6
DASHED
 48
3.0
100
AcDbLine
 10
150.96785
 20
-363.229695
 30
0.0
 11
700.192219
 21
-363.229695
 31
0.0
  0
POINT
  5
37D
100
AcDbEntity
  8
V0-VYPLNE
  6
CONTINUOUS
 62
    52
100
AcDbPoint
 10
150.0
 20
0.0
 30
0.0
  0
POINT
  5
37E
100
AcDbEntity
  8
V0-VYPLNE
  6
CONTINUOUS
 62
    52
100
AcDbPoint
 10
150.0
 20
-297.019352
 30
0.0
  0
POINT
  5
37F
100
AcDbEntity
  8
V0-VYPLNE
  6
CONTINUOUS
 62
    52
100
AcDbPoint
 10
934.788797
 20
1.97345
 30
0.0
  0
VIEWPORT
  5
22
100
AcDbEntity
 67
     1
  8
0
100
AcDbViewport
 10
261.517699
 20
148.5
 30
0.0
 40
523.035398
 41
297.0
 68
    -1
 69
     1
1001
ACAD
1000
MVIEW
1002
{
1070
    16
1010
0.0
1020
0.0
1030
0.0
1010
0.0
1020
0.0
1030
1.0
1040
0.0
1040
297.0
1040
261.517699
1040
148.5
1040
50.0
1040
0.0
1040
0.0
1070
     0
1070
   100
1070
     1
1070
     1
1070
     0
1070
     0
1070
     0
1070
     0
1040
0.0
1040
0.0
1040
0.0
1040
1.0
1040
1.0
1040
10.0
1040
10.0
1070
     0
1002
{
1002
}
1002
}
  0
ENDSEC
  0
SECTION
  2
OBJECTS
  0
DICTIONARY
  5
C
100
AcDbDictionary
  3
ACAD_GROUP
350
D
  3
ACAD_MLINESTYLE
350
E
  3
ACDBVARIABLEDICTIONARY
350
5D
  0
DICTIONARY
  5
D
102
{ACAD_REACTORS
330
C
102
}
100
AcDbDictionary
  0
DICTIONARY
  5
E
102
{ACAD_REACTORS
330
C
102
}
100
AcDbDictionary
  3
STANDARD
350
13
  0
DICTIONARY
  5
5D
102
{ACAD_REACTORS
330
C
102
}
100
AcDbDictionary
  3
DIMADEC
350
5E
  0
MLINESTYLE
  5
13
102
{ACAD_REACTORS
330
E
102
}
100
AcDbMlineStyle
  2
STANDARD
 70
     0
  3

 62
     0
 51
90.0
 52
90.0
 71
     2
 49
0.5
 62
   256
  6
BYLAYER
 49
-0.5
 62
   256
  6
BYLAYER
  0
DICTIONARYVAR
  5
5E
102
{ACAD_REACTORS
330
5D
102
}
100
DictionaryVariables
280
     0
  1
0
  0
ENDSEC
  0
EOF
