  0
SECTION
  2
HEADER
  9
$ACADVER
  1
AC1014
  9
$ACADMAINTVER
 70
     0
  9
$DWGCODEPAGE
  3
ANSI_1250
  9
$INSBASE
 10
0.0
 20
0.0
 30
0.0
  9
$EXTMIN
 10
166.726786
 20
-434.024457
 30
0.0
  9
$EXTMAX
 10
1239.311391
 20
200.81502
 30
0.0
  9
$LIMMIN
 10
0.0
 20
0.0
  9
$LIMMAX
 10
420.0
 20
297.0
  9
$ORTHOMODE
 70
     1
  9
$REGENMODE
 70
     1
  9
$FILLMODE
 70
     1
  9
$QTEXTMODE
 70
     0
  9
$MIRRTEXT
 70
     1
  9
$DRAGMODE
 70
     2
  9
$LTSCALE
 40
1.0
  9
$OSMODE
 70
    15
  9
$ATTMODE
 70
     1
  9
$TEXTSIZE
 40
2.5
  9
$TRACEWID
 40
1.0
  9
$TEXTSTYLE
  7
ED
  9
$CLAYER
  8
0
  9
$CELTYPE
  6
BYLAYER
  9
$CECOLOR
 62
   256
  9
$CELTSCALE
 40
1.0
  9
$DELOBJ
 70
     1
  9
$DISPSILH
 70
     0
  9
$DIMSCALE
 40
0.0
  9
$DIMASZ
 40
15.0
  9
$DIMEXO
 40
0.625
  9
$DIMDLI
 40
3.75
  9
$DIMRND
 40
0.0
  9
$DIMDLE
 40
0.0
  9
$DIMEXE
 40
1.25
  9
$DIMTP
 40
0.0
  9
$DIMTM
 40
0.0
  9
$DIMTXT
 40
15.0
  9
$DIMCEN
 40
2.5
  9
$DIMTSZ
 40
0.0
  9
$DIMTOL
 70
     0
  9
$DIMLIM
 70
     0
  9
$DIMTIH
 70
     0
  9
$DIMTOH
 70
     0
  9
$DIMSE1
 70
     0
  9
$DIMSE2
 70
     0
  9
$DIMTAD
 70
     1
  9
$DIMZIN
 70
     8
  9
$DIMBLK
  1

  9
$DIMASO
 70
     1
  9
$DIMSHO
 70
     1
  9
$DIMPOST
  1

  9
$DIMAPOST
  1

  9
$DIMALT
 70
     0
  9
$DIMALTD
 70
     4
  9
$DIMALTF
 40
0.0394
  9
$DIMLFAC
 40
1.0
  9
$DIMTOFL
 70
     1
  9
$DIMTVP
 40
0.0
  9
$DIMTIX
 70
     0
  9
$DIMSOXD
 70
     0
  9
$DIMSAH
 70
     1
  9
$DIMBLK1
  1
_OPEN
  9
$DIMBLK2
  1
_OPEN
  9
$DIMSTYLE
  2
ED
  9
$DIMCLRD
 70
     0
  9
$DIMCLRE
 70
     0
  9
$DIMCLRT
 70
     0
  9
$DIMTFAC
 40
1.0
  9
$DIMGAP
 40
3.0
  9
$DIMJUST
 70
     0
  9
$DIMSD1
 70
     0
  9
$DIMSD2
 70
     0
  9
$DIMTOLJ
 70
     1
  9
$DIMTZIN
 70
     8
  9
$DIMALTZ
 70
     0
  9
$DIMALTTZ
 70
     0
  9
$DIMFIT
 70
     3
  9
$DIMUPT
 70
     0
  9
$DIMUNIT
 70
     2
  9
$DIMDEC
 70
     0
  9
$DIMTDEC
 70
     1
  9
$DIMALTU
 70
     8
  9
$DIMALTTD
 70
     4
  9
$DIMTXSTY
  7
ED
  9
$DIMAUNIT
 70
     0
  9
$LUNITS
 70
     2
  9
$LUPREC
 70
     4
  9
$SKETCHINC
 40
1.0
  9
$FILLETRAD
 40
10.0
  9
$AUNITS
 70
     0
  9
$AUPREC
 70
     0
  9
$MENU
  1
.
  9
$ELEVATION
 40
0.0
  9
$PELEVATION
 40
0.0
  9
$THICKNESS
 40
0.0
  9
$LIMCHECK
 70
     0
  9
$BLIPMODE
 70
     0
  9
$CHAMFERA
 40
10.0
  9
$CHAMFERB
 40
10.0
  9
$CHAMFERC
 40
20.0
  9
$CHAMFERD
 40
0.0
  9
$SKPOLY
 70
     1
  9
$TDCREATE
 40
2451196.643769328
  9
$TDUPDATE
 40
2453315.431772361
  9
$TDINDWG
 40
0.0906132986
  9
$TDUSRTIMER
 40
0.0906132986
  9
$USRTIMER
 70
     1
  9
$ANGBASE
 50
0.0
  9
$ANGDIR
 70
     0
  9
$PDMODE
 70
     3
  9
$PDSIZE
 40
15.0
  9
$PLINEWID
 40
0.0
  9
$COORDS
 70
     1
  9
$SPLFRAME
 70
     0
  9
$SPLINETYPE
 70
     6
  9
$SPLINESEGS
 70
     8
  9
$ATTDIA
 70
     0
  9
$ATTREQ
 70
     1
  9
$HANDLING
 70
     1
  9
$HANDSEED
  5
571
  9
$SURFTAB1
 70
     6
  9
$SURFTAB2
 70
     6
  9
$SURFTYPE
 70
     6
  9
$SURFU
 70
     6
  9
$SURFV
 70
     6
  9
$UCSNAME
  2

  9
$UCSORG
 10
150.0
 20
0.0
 30
0.0
  9
$UCSXDIR
 10
1.0
 20
0.0
 30
0.0
  9
$UCSYDIR
 10
0.0
 20
1.0
 30
0.0
  9
$PUCSNAME
  2

  9
$PUCSORG
 10
0.0
 20
0.0
 30
0.0
  9
$PUCSXDIR
 10
1.0
 20
0.0
 30
0.0
  9
$PUCSYDIR
 10
0.0
 20
1.0
 30
0.0
  9
$USERI1
 70
     0
  9
$USERI2
 70
     0
  9
$USERI3
 70
     0
  9
$USERI4
 70
     0
  9
$USERI5
 70
     0
  9
$USERR1
 40
0.0
  9
$USERR2
 40
0.0
  9
$USERR3
 40
0.0
  9
$USERR4
 40
0.0
  9
$USERR5
 40
0.0
  9
$WORLDVIEW
 70
     1
  9
$SHADEDGE
 70
     3
  9
$SHADEDIF
 70
    70
  9
$TILEMODE
 70
     1
  9
$MAXACTVP
 70
    48
  9
$PINSBASE
 10
0.0
 20
0.0
 30
0.0
  9
$PLIMCHECK
 70
     0
  9
$PEXTMIN
 10
1.000000E+20
 20
1.000000E+20
 30
1.000000E+20
  9
$PEXTMAX
 10
-1.000000E+20
 20
-1.000000E+20
 30
-1.000000E+20
  9
$PLIMMIN
 10
0.0
 20
0.0
  9
$PLIMMAX
 10
420.0
 20
297.0
  9
$UNITMODE
 70
     0
  9
$VISRETAIN
 70
     1
  9
$PLINEGEN
 70
     0
  9
$PSLTSCALE
 70
     1
  9
$TREEDEPTH
 70
  3020
  9
$PICKSTYLE
 70
     1
  9
$CMLSTYLE
  2
STANDARD
  9
$CMLJUST
 70
     0
  9
$CMLSCALE
 40
1.0
  9
$PROXYGRAPHICS
 70
     1
  9
$MEASUREMENT
 70
     1
  0
ENDSEC
  0
SECTION
  2
CLASSES
  0
CLASS
  1
DICTIONARYVAR
  2
AcDbDictionaryVar
  3
"AutoCAD"
 90
        0
280
     0
281
     0
  0
CLASS
  1
LWPOLYLINE
  2
AcDbPolyline
  3
"AutoCAD"
 90
        0
280
     0
281
     1
  0
CLASS
  1
HATCH
  2
AcDbHatch
  3
"ACAD_SEDONA"
 90
        0
280
     0
281
     1
  0
ENDSEC
  0
SECTION
  2
TABLES
  0
TABLE
  2
VPORT
  5
8
100
AcDbSymbolTable
 70
     2
  0
VPORT
  5
570
100
AcDbSymbolTableRecord
100
AcDbViewportTableRecord
  2
*ACTIVE
 70
     0
 10
0.0
 20
0.0
 11
1.0
 21
1.0
 12
711.4477
 22
-101.690389
 13
0.0
 23
0.0
 14
10.0
 24
10.0
 15
10.0
 25
10.0
 16
0.0
 26
0.0
 36
1.0
 17
0.0
 27
0.0
 37
0.0
 40
717.287874
 41
1.523346
 42
50.0
 43
0.0
 44
0.0
 50
0.0
 51
0.0
 71
     0
 72
   100
 73
     1
 74
     1
 75
     0
 76
     0
 77
     0
 78
     0
  0
ENDTAB
  0
TABLE
  2
LTYPE
  5
5
100
AcDbSymbolTable
 70
     3
  0
LTYPE
  5
14
100
AcDbSymbolTableRecord
100
AcDbLinetypeTableRecord
  2
BYBLOCK
 70
     0
  3

 72
    65
 73
     0
 40
0.0
  0
LTYPE
  5
15
100
AcDbSymbolTableRecord
100
AcDbLinetypeTableRecord
  2
BYLAYER
 70
     0
  3

 72
    65
 73
     0
 40
0.0
  0
LTYPE
  5
16
100
AcDbSymbolTableRecord
100
AcDbLinetypeTableRecord
  2
CONTINUOUS
 70
     0
  3
Solid line
 72
    65
 73
     0
 40
0.0
  0
LTYPE
  5
7F
100
AcDbSymbolTableRecord
100
AcDbLinetypeTableRecord
  2
DASHDOT
 70
     0
  3
Dash dot __ . __ . __ . __ . __ . __ . __ . __
 72
    65
 73
     4
 40
25.4
 49
12.7
 74
     0
 49
-6.35
 74
     0
 49
0.0
 74
     0
 49
-6.35
 74
     0
  0
LTYPE
  5
80
100
AcDbSymbolTableRecord
100
AcDbLinetypeTableRecord
  2
DASHED
 70
     0
  3
Dashed __ __ __ __ __ __ __ __ __ __ __ __ __ _
 72
    65
 73
     2
 40
19.05
 49
12.7
 74
     0
 49
-6.35
 74
     0
  0
ENDTAB
  0
TABLE
  2
LAYER
  5
2
100
AcDbSymbolTable
 70
     6
  0
LAYER
  5
F
100
AcDbSymbolTableRecord
100
AcDbLayerTableRecord
  2
0
 70
     0
 62
     7
  6
CONTINUOUS
  0
LAYER
  5
9E
100
AcDbSymbolTableRecord
100
AcDbLayerTableRecord
  2
DEFPOINTS
 70
     0
 62
     7
  6
CONTINUOUS
  0
LAYER
  5
377
100
AcDbSymbolTableRecord
100
AcDbLayerTableRecord
  2
V0-OBRYS
 70
     0
 62
    90
  6
CONTINUOUS
  0
LAYER
  5
378
100
AcDbSymbolTableRecord
100
AcDbLayerTableRecord
  2
V0-VYPLNE
 70
     0
 62
    52
  6
CONTINUOUS
  0
LAYER
  5
37A
100
AcDbSymbolTableRecord
100
AcDbLayerTableRecord
  2
V0-NAZVY
 70
     0
 62
   210
  6
CONTINUOUS
  0
LAYER
  5
559
100
AcDbSymbolTableRecord
100
AcDbLayerTableRecord
  2
V0-ZBYTEK
 70
     0
 62
    51
  6
CONTINUOUS
  0
ENDTAB
  0
TABLE
  2
STYLE
  5
3
100
AcDbSymbolTable
 70
     2
  0
STYLE
  5
10
100
AcDbSymbolTableRecord
100
AcDbTextStyleTableRecord
  2
STANDARD
 70
     0
 40
0.0
 41
1.0
 50
0.0
 71
     0
 42
2.5
  3
ISOCP
  4

  0
STYLE
  5
331
100
AcDbSymbolTableRecord
100
AcDbTextStyleTableRecord
  2
ED
 70
     0
 40
20.0
 41
1.0
 50
0.0
 71
     0
 42
2.5
  3
ISOCP.shx
  4

  0
ENDTAB
  0
TABLE
  2
VIEW
  5
6
100
AcDbSymbolTable
 70
     0
  0
ENDTAB
  0
TABLE
  2
UCS
  5
7
100
AcDbSymbolTable
 70
     0
  0
ENDTAB
  0
TABLE
  2
APPID
  5
9
100
AcDbSymbolTable
 70
     1
  0
APPID
  5
11
100
AcDbSymbolTableRecord
100
AcDbRegAppTableRecord
  2
ACAD
 70
     0
  0
ENDTAB
  0
TABLE
  2
DIMSTYLE
  5
A
100
AcDbSymbolTable
 70
     2
  0
DIMSTYLE
105
1D
100
AcDbSymbolTableRecord
100
AcDbDimStyleTableRecord
  2
STANDARD
 70
     0
  3

  4

  5

  6
_OPEN
  7
_OPEN
 40
0.0
 41
15.0
 42
0.625
 43
3.75
 44
1.25
 45
0.0
 46
0.0
 47
0.0
 48
0.0
140
15.0
141
2.5
142
0.0
143
0.0394
144
1.0
145
0.0
146
1.0
147
3.0
 71
     0
 72
     0
 73
     0
 74
     0
 75
     0
 76
     0
 77
     1
 78
     8
170
     0
171
     4
172
     1
173
     1
174
     0
175
     0
176
     0
177
     0
178
     0
270
     2
271
     0
272
     1
273
     8
274
     4
340
331
275
     0
280
     0
281
     0
282
     0
283
     1
284
     8
285
     0
286
     0
287
     3
288
     0
  0
DIMSTYLE
105
397
100
AcDbSymbolTableRecord
100
AcDbDimStyleTableRecord
  2
ED
 70
     0
  3

  4

  5

  6
_OPEN
  7
_OPEN
 40
0.0
 41
15.0
 42
0.625
 43
3.75
 44
1.25
 45
0.0
 46
0.0
 47
0.0
 48
0.0
140
15.0
141
2.5
142
0.0
143
0.0394
144
1.0
145
0.0
146
1.0
147
3.0
 71
     0
 72
     0
 73
     0
 74
     0
 75
     0
 76
     0
 77
     1
 78
     8
170
     0
171
     4
172
     1
173
     1
174
     0
175
     0
176
     0
177
     0
178
     0
270
     2
271
     0
272
     1
273
     8
274
     4
340
331
275
     0
280
     0
281
     0
282
     0
283
     1
284
     8
285
     0
286
     0
287
     3
288
     0
  0
ENDTAB
  0
TABLE
  2
BLOCK_RECORD
  5
1
100
AcDbSymbolTable
 70
     6
  0
BLOCK_RECORD
  5
1A
100
AcDbSymbolTableRecord
100
AcDbBlockTableRecord
  2
*MODEL_SPACE
  0
BLOCK_RECORD
  5
17
100
AcDbSymbolTableRecord
100
AcDbBlockTableRecord
  2
*PAPER_SPACE
  0
BLOCK_RECORD
  5
90
100
AcDbSymbolTableRecord
100
AcDbBlockTableRecord
  2
_OPEN
  0
BLOCK_RECORD
  5
4DD
100
AcDbSymbolTableRecord
100
AcDbBlockTableRecord
  2
*D1
  0
BLOCK_RECORD
  5
4E9
100
AcDbSymbolTableRecord
100
AcDbBlockTableRecord
  2
*D2
  0
BLOCK_RECORD
  5
4F5
100
AcDbSymbolTableRecord
100
AcDbBlockTableRecord
  2
*D3
  0
BLOCK_RECORD
  5
503
100
AcDbSymbolTableRecord
100
AcDbBlockTableRecord
  2
*D4
  0
BLOCK_RECORD
  5
50F
100
AcDbSymbolTableRecord
100
AcDbBlockTableRecord
  2
*D5
  0
ENDTAB
  0
ENDSEC
  0
SECTION
  2
BLOCKS
  0
BLOCK
  5
1B
100
AcDbEntity
  8
0
100
AcDbBlockBegin
  2
*MODEL_SPACE
 70
     0
 10
0.0
 20
0.0
 30
0.0
  3
*MODEL_SPACE
  1

  0
ENDBLK
  5
1C
100
AcDbEntity
  8
0
100
AcDbBlockEnd
  0
BLOCK
  5
18
100
AcDbEntity
 67
     1
  8
0
100
AcDbBlockBegin
  2
*PAPER_SPACE
 70
     0
 10
0.0
 20
0.0
 30
0.0
  3
*PAPER_SPACE
  1

  0
ENDBLK
  5
19
100
AcDbEntity
 67
     1
  8
0
100
AcDbBlockEnd
  0
BLOCK
  5
91
100
AcDbEntity
  8
0
100
AcDbBlockBegin
  2
_OPEN
 70
     0
 10
0.0
 20
0.0
 30
0.0
  3
_OPEN
  1

  0
LINE
  5
92
100
AcDbEntity
  8
0
  6
BYBLOCK
 62
     0
100
AcDbLine
 10
-1.0
 20
0.166667
 30
0.0
 11
0.0
 21
0.0
 31
0.0
  0
LINE
  5
93
100
AcDbEntity
  8
0
  6
BYBLOCK
 62
     0
100
AcDbLine
 10
0.0
 20
0.0
 30
0.0
 11
-1.0
 21
-0.166667
 31
0.0
  0
LINE
  5
94
100
AcDbEntity
  8
0
  6
BYBLOCK
 62
     0
100
AcDbLine
 10
0.0
 20
0.0
 30
0.0
 11
-1.0
 21
0.0
 31
0.0
  0
ENDBLK
  5
95
100
AcDbEntity
  8
0
100
AcDbBlockEnd
  0
BLOCK
  5
51B
100
AcDbEntity
  8
0
100
AcDbBlockBegin
  2
*D1
 70
     1
 10
0.0
 20
0.0
 30
0.0
  3
*D1
  1

  0
LINE
  5
51C
100
AcDbEntity
  8
0
  6
BYBLOCK
 62
     0
100
AcDbLine
 10
216.726786
 20
63.198129
 30
0.0
 11
216.726786
 21
179.167383
 31
0.0
  0
LINE
  5
51D
100
AcDbEntity
  8
0
  6
BYBLOCK
 62
     0
100
AcDbLine
 10
816.726786
 20
63.198129
 30
0.0
 11
816.726786
 21
179.167383
 31
0.0
  0
LINE
  5
51E
100
AcDbEntity
  8
0
  6
BYBLOCK
 62
     0
100
AcDbLine
 10
231.726786
 20
177.917383
 30
0.0
 11
801.726786
 21
177.917383
 31
0.0
  0
INSERT
  5
51F
100
AcDbEntity
  8
0
  6
BYBLOCK
 62
     0
100
AcDbBlockReference
  2
_OPEN
 10
216.726786
 20
177.917383
 30
0.0
 41
15.0
 42
15.0
 43
15.0
 50
180.0
  0
INSERT
  5
520
100
AcDbEntity
  8
0
  6
BYBLOCK
 62
     0
100
AcDbBlockReference
  2
_OPEN
 10
816.726786
 20
177.917383
 30
0.0
 41
15.0
 42
15.0
 43
15.0
  0
MTEXT
  5
521
100
AcDbEntity
  8
0
  6
BYBLOCK
 62
     0
100
AcDbMText
 10
516.726786
 20
190.917383
 30
0.0
 40
20.0
 41
0.0
 71
     5
 72
     1
  1
\A1;600
  7
ED
  0
POINT
  5
522
100
AcDbEntity
  8
DEFPOINTS
  6
BYBLOCK
 62
     0
100
AcDbPoint
 10
216.726786
 20
62.573129
 30
0.0
  0
POINT
  5
523
100
AcDbEntity
  8
DEFPOINTS
  6
BYBLOCK
 62
     0
100
AcDbPoint
 10
816.726786
 20
62.573129
 30
0.0
  0
POINT
  5
524
100
AcDbEntity
  8
DEFPOINTS
  6
BYBLOCK
 62
     0
100
AcDbPoint
 10
816.726786
 20
177.917383
 30
0.0
  0
ENDBLK
  5
525
100
AcDbEntity
  8
0
100
AcDbBlockEnd
  0
BLOCK
  5
526
100
AcDbEntity
  8
0
100
AcDbBlockBegin
  2
*D2
 70
     1
 10
0.0
 20
0.0
 30
0.0
  3
*D2
  1

  0
LINE
  5
527
100
AcDbEntity
  8
0
  6
BYBLOCK
 62
     0
100
AcDbLine
 10
241.726786
 20
112.698129
 30
0.0
 11
241.726786
 21
141.380574
 31
0.0
  0
LINE
  5
528
100
AcDbEntity
  8
0
  6
BYBLOCK
 62
     0
100
AcDbLine
 10
791.726786
 20
112.698129
 30
0.0
 11
791.726786
 21
141.380574
 31
0.0
  0
LINE
  5
529
100
AcDbEntity
  8
0
  6
BYBLOCK
 62
     0
100
AcDbLine
 10
256.726786
 20
140.130574
 30
0.0
 11
776.726786
 21
140.130574
 31
0.0
  0
INSERT
  5
52A
100
AcDbEntity
  8
0
  6
BYBLOCK
 62
     0
100
AcDbBlockReference
  2
_OPEN
 10
241.726786
 20
140.130574
 30
0.0
 41
15.0
 42
15.0
 43
15.0
 50
180.0
  0
INSERT
  5
52B
100
AcDbEntity
  8
0
  6
BYBLOCK
 62
     0
100
AcDbBlockReference
  2
_OPEN
 10
791.726786
 20
140.130574
 30
0.0
 41
15.0
 42
15.0
 43
15.0
  0
MTEXT
  5
52C
100
AcDbEntity
  8
0
  6
BYBLOCK
 62
     0
100
AcDbMText
 10
516.726786
 20
153.130574
 30
0.0
 40
20.0
 41
0.0
 71
     5
 72
     1
  1
\A1;550
  7
ED
  0
POINT
  5
52D
100
AcDbEntity
  8
DEFPOINTS
  6
BYBLOCK
 62
     0
100
AcDbPoint
 10
241.726786
 20
112.073129
 30
0.0
  0
POINT
  5
52E
100
AcDbEntity
  8
DEFPOINTS
  6
BYBLOCK
 62
     0
100
AcDbPoint
 10
791.726786
 20
112.073129
 30
0.0
  0
POINT
  5
52F
100
AcDbEntity
  8
DEFPOINTS
  6
BYBLOCK
 62
     0
100
AcDbPoint
 10
791.726786
 20
140.130574
 30
0.0
  0
ENDBLK
  5
530
100
AcDbEntity
  8
0
100
AcDbBlockEnd
  0
BLOCK
  5
531
100
AcDbEntity
  8
0
100
AcDbBlockBegin
  2
*D3
 70
     1
 10
0.0
 20
0.0
 30
0.0
  3
*D3
  1

  0
LINE
  5
532
100
AcDbEntity
  8
0
  6
BYBLOCK
 62
     0
100
AcDbLine
 10
216.726786
 20
-63.051871
 30
0.0
 11
216.726786
 21
-156.624645
 31
0.0
  0
LINE
  5
533
100
AcDbEntity
  8
0
  6
BYBLOCK
 62
     0
100
AcDbLine
 10
241.726786
 20
-112.551871
 30
0.0
 11
241.726786
 21
-156.624645
 31
0.0
  0
LINE
  5
534
100
AcDbEntity
  8
0
  6
BYBLOCK
 62
     0
100
AcDbLine
 10
191.726786
 20
-155.374645
 30
0.0
 11
166.726786
 21
-155.374645
 31
0.0
  0
LINE
  5
535
100
AcDbEntity
  8
0
  6
BYBLOCK
 62
     0
100
AcDbLine
 10
266.726786
 20
-155.374645
 30
0.0
 11
291.726786
 21
-155.374645
 31
0.0
  0
LINE
  5
536
100
AcDbEntity
  8
0
  6
BYBLOCK
 62
     0
100
AcDbLine
 10
216.726786
 20
-155.374645
 30
0.0
 11
241.726786
 21
-155.374645
 31
0.0
  0
INSERT
  5
537
100
AcDbEntity
  8
0
  6
BYBLOCK
 62
     0
100
AcDbBlockReference
  2
_OPEN
 10
216.726786
 20
-155.374645
 30
0.0
 41
25.0
 42
25.0
 43
25.0
  0
INSERT
  5
538
100
AcDbEntity
  8
0
  6
BYBLOCK
 62
     0
100
AcDbBlockReference
  2
_OPEN
 10
241.726786
 20
-155.374645
 30
0.0
 41
25.0
 42
25.0
 43
25.0
 50
180.0
  0
MTEXT
  5
539
100
AcDbEntity
  8
0
  6
BYBLOCK
 62
     0
100
AcDbMText
 10
229.226786
 20
-142.372677
 30
0.0
 40
20.0
 41
0.0
 71
     5
 72
     1
  1
\A1;25
  7
ED
  0
POINT
  5
53A
100
AcDbEntity
  8
DEFPOINTS
  6
BYBLOCK
 62
     0
100
AcDbPoint
 10
216.726786
 20
-62.426871
 30
0.0
  0
POINT
  5
53B
100
AcDbEntity
  8
DEFPOINTS
  6
BYBLOCK
 62
     0
100
AcDbPoint
 10
241.726786
 20
-111.926871
 30
0.0
  0
POINT
  5
53C
100
AcDbEntity
  8
DEFPOINTS
  6
BYBLOCK
 62
     0
100
AcDbPoint
 10
241.726786
 20
-155.374645
 30
0.0
  0
ENDBLK
  5
53D
100
AcDbEntity
  8
0
100
AcDbBlockEnd
  0
BLOCK
  5
53E
100
AcDbEntity
  8
0
100
AcDbBlockBegin
  2
*D4
 70
     1
 10
0.0
 20
0.0
 30
0.0
  3
*D4
  1

  0
LINE
  5
53F
100
AcDbEntity
  8
0
  6
BYBLOCK
 62
     0
100
AcDbLine
 10
817.351786
 20
62.573129
 30
0.0
 11
851.439585
 21
62.573129
 31
0.0
  0
LINE
  5
540
100
AcDbEntity
  8
0
  6
BYBLOCK
 62
     0
100
AcDbLine
 10
817.351786
 20
-62.426871
 30
0.0
 11
851.439585
 21
-62.426871
 31
0.0
  0
LINE
  5
541
100
AcDbEntity
  8
0
  6
BYBLOCK
 62
     0
100
AcDbLine
 10
850.189585
 20
47.573129
 30
0.0
 11
850.189585
 21
-47.426871
 31
0.0
  0
INSERT
  5
542
100
AcDbEntity
  8
0
  6
BYBLOCK
 62
     0
100
AcDbBlockReference
  2
_OPEN
 10
850.189585
 20
62.573129
 30
0.0
 41
15.0
 42
15.0
 43
15.0
 50
90.0
  0
INSERT
  5
543
100
AcDbEntity
  8
0
  6
BYBLOCK
 62
     0
100
AcDbBlockReference
  2
_OPEN
 10
850.189585
 20
-62.426871
 30
0.0
 41
15.0
 42
15.0
 43
15.0
 50
270.0
  0
MTEXT
  5
544
100
AcDbEntity
  8
0
  6
BYBLOCK
 62
     0
100
AcDbMText
 10
837.187617
 20
0.073129
 30
0.0
 40
20.0
 41
0.0
 71
     5
 72
     1
  1
\A1;\U+2205125
  7
ED
 11
0.0
 21
1.0
 31
0.0
  0
POINT
  5
545
100
AcDbEntity
  8
DEFPOINTS
  6
BYBLOCK
 62
     0
100
AcDbPoint
 10
816.726786
 20
62.573129
 30
0.0
  0
POINT
  5
546
100
AcDbEntity
  8
DEFPOINTS
  6
BYBLOCK
 62
     0
100
AcDbPoint
 10
816.726786
 20
-62.426871
 30
0.0
  0
POINT
  5
547
100
AcDbEntity
  8
DEFPOINTS
  6
BYBLOCK
 62
     0
100
AcDbPoint
 10
850.189585
 20
-62.426871
 30
0.0
  0
ENDBLK
  5
548
100
AcDbEntity
  8
0
100
AcDbBlockEnd
  0
BLOCK
  5
549
100
AcDbEntity
  8
0
100
AcDbBlockBegin
  2
*D5
 70
     1
 10
0.0
 20
0.0
 30
0.0
  3
*D5
  1

  0
LINE
  5
54A
100
AcDbEntity
  8
0
  6
BYBLOCK
 62
     0
100
AcDbLine
 10
792.351786
 20
112.073129
 30
0.0
 11
889.263809
 21
112.073129
 31
0.0
  0
LINE
  5
54B
100
AcDbEntity
  8
0
  6
BYBLOCK
 62
     0
100
AcDbLine
 10
792.351786
 20
-111.926871
 30
0.0
 11
889.263809
 21
-111.926871
 31
0.0
  0
LINE
  5
54C
100
AcDbEntity
  8
0
  6
BYBLOCK
 62
     0
100
AcDbLine
 10
888.013809
 20
97.073129
 30
0.0
 11
888.013809
 21
-96.926871
 31
0.0
  0
INSERT
  5
54D
100
AcDbEntity
  8
0
  6
BYBLOCK
 62
     0
100
AcDbBlockReference
  2
_OPEN
 10
888.013809
 20
112.073129
 30
0.0
 41
15.0
 42
15.0
 43
15.0
 50
90.0
  0
INSERT
  5
54E
100
AcDbEntity
  8
0
  6
BYBLOCK
 62
     0
100
AcDbBlockReference
  2
_OPEN
 10
888.013809
 20
-111.926871
 30
0.0
 41
15.0
 42
15.0
 43
15.0
 50
270.0
  0
MTEXT
  5
54F
100
AcDbEntity
  8
0
  6
BYBLOCK
 62
     0
100
AcDbMText
 10
875.011841
 20
0.073129
 30
0.0
 40
20.0
 41
0.0
 71
     5
 72
     1
  1
\A1;\U+2205224
  7
ED
 11
0.0
 21
1.0
 31
0.0
  0
POINT
  5
550
100
AcDbEntity
  8
DEFPOINTS
  6
BYBLOCK
 62
     0
100
AcDbPoint
 10
791.726786
 20
112.073129
 30
0.0
  0
POINT
  5
551
100
AcDbEntity
  8
DEFPOINTS
  6
BYBLOCK
 62
     0
100
AcDbPoint
 10
791.726786
 20
-111.926871
 30
0.0
  0
POINT
  5
552
100
AcDbEntity
  8
DEFPOINTS
  6
BYBLOCK
 62
     0
100
AcDbPoint
 10
888.013809
 20
-111.926871
 30
0.0
  0
ENDBLK
  5
553
100
AcDbEntity
  8
0
100
AcDbBlockEnd
  0
ENDSEC
  0
SECTION
  2
ENTITIES
  0
LINE
  5
48C
100
AcDbEntity
  8
V0-VYPLNE
  6
DASHDOT
 62
    63
100
AcDbLine
 10
201.071066
 20
0.073129
 30
0.0
 11
827.670939
 21
0.073129
 31
0.0
  0
LINE
  5
48D
100
AcDbEntity
  8
V0-OBRYS
100
AcDbLine
 10
241.726786
 20
0.073129
 30
0.0
 11
241.726786
 21
112.073129
 31
0.0
  0
LINE
  5
48E
100
AcDbEntity
  8
V0-OBRYS
100
AcDbLine
 10
241.726786
 20
112.073129
 30
0.0
 11
516.726786
 21
112.073129
 31
0.0
  0
LINE
  5
48F
100
AcDbEntity
  8
V0-OBRYS
100
AcDbLine
 10
216.726786
 20
0.073129
 30
0.0
 11
216.726786
 21
62.573129
 31
0.0
  0
LINE
  5
490
100
AcDbEntity
  8
V0-OBRYS
100
AcDbLine
 10
216.726786
 20
62.573129
 30
0.0
 11
241.726786
 21
62.573129
 31
0.0
  0
LINE
  5
491
100
AcDbEntity
  8
V0-OBRYS
100
AcDbLine
 10
221.730207
 20
0.073129
 30
0.0
 11
221.730207
 21
65.384661
 31
0.0
  0
LINE
  5
492
100
AcDbEntity
  8
V0-OBRYS
100
AcDbLine
 10
221.730207
 20
65.384661
 30
0.0
 11
223.896096
 21
65.384661
 31
0.0
  0
LINE
  5
493
100
AcDbEntity
  8
V0-OBRYS
100
AcDbLine
 10
223.896096
 20
65.384661
 30
0.0
 11
223.896096
 21
0.073129
 31
0.0
  0
LINE
  5
494
100
AcDbEntity
  8
V0-OBRYS
100
AcDbLine
 10
241.726786
 20
-111.926871
 30
0.0
 11
516.726786
 21
-111.926871
 31
0.0
  0
LINE
  5
495
100
AcDbEntity
  8
V0-OBRYS
100
AcDbLine
 10
241.726786
 20
0.073129
 30
0.0
 11
241.726786
 21
-111.926871
 31
0.0
  0
LINE
  5
496
100
AcDbEntity
  8
V0-OBRYS
100
AcDbLine
 10
216.726786
 20
-62.426871
 30
0.0
 11
241.726786
 21
-62.426871
 31
0.0
  0
LINE
  5
497
100
AcDbEntity
  8
V0-OBRYS
100
AcDbLine
 10
223.896096
 20
-65.238403
 30
0.0
 11
223.896096
 21
0.073129
 31
0.0
  0
LINE
  5
498
100
AcDbEntity
  8
V0-OBRYS
100
AcDbLine
 10
221.730207
 20
0.073129
 30
0.0
 11
221.730207
 21
-65.238403
 31
0.0
  0
LINE
  5
499
100
AcDbEntity
  8
V0-OBRYS
100
AcDbLine
 10
216.726786
 20
0.073129
 30
0.0
 11
216.726786
 21
-62.426871
 31
0.0
  0
LINE
  5
49A
100
AcDbEntity
  8
V0-OBRYS
100
AcDbLine
 10
221.730207
 20
-65.238403
 30
0.0
 11
223.896096
 21
-65.238403
 31
0.0
  0
LINE
  5
49B
100
AcDbEntity
  8
V0-OBRYS
100
AcDbLine
 10
791.726786
 20
-111.926871
 30
0.0
 11
516.726786
 21
-111.926871
 31
0.0
  0
LINE
  5
49C
100
AcDbEntity
  8
V0-OBRYS
100
AcDbLine
 10
791.726786
 20
112.073129
 30
0.0
 11
516.726786
 21
112.073129
 31
0.0
  0
LINE
  5
49D
100
AcDbEntity
  8
V0-OBRYS
100
AcDbLine
 10
816.726786
 20
0.073129
 30
0.0
 11
816.726786
 21
-62.426871
 31
0.0
  0
LINE
  5
49E
100
AcDbEntity
  8
V0-OBRYS
100
AcDbLine
 10
811.723365
 20
0.073129
 30
0.0
 11
811.723365
 21
-65.238403
 31
0.0
  0
LINE
  5
49F
100
AcDbEntity
  8
V0-OBRYS
100
AcDbLine
 10
809.557475
 20
-65.238403
 30
0.0
 11
809.557475
 21
0.073129
 31
0.0
  0
LINE
  5
4A0
100
AcDbEntity
  8
V0-OBRYS
100
AcDbLine
 10
791.726786
 20
0.073129
 30
0.0
 11
791.726786
 21
-111.926871
 31
0.0
  0
LINE
  5
4A1
100
AcDbEntity
  8
V0-OBRYS
100
AcDbLine
 10
816.726786
 20
-62.426871
 30
0.0
 11
791.726786
 21
-62.426871
 31
0.0
  0
LINE
  5
4A2
100
AcDbEntity
  8
V0-OBRYS
100
AcDbLine
 10
811.723365
 20
-65.238403
 30
0.0
 11
809.557475
 21
-65.238403
 31
0.0
  0
LINE
  5
4A3
100
AcDbEntity
  8
V0-OBRYS
100
AcDbLine
 10
791.726786
 20
0.073129
 30
0.0
 11
791.726786
 21
112.073129
 31
0.0
  0
LINE
  5
4A4
100
AcDbEntity
  8
V0-OBRYS
100
AcDbLine
 10
816.726786
 20
62.573129
 30
0.0
 11
791.726786
 21
62.573129
 31
0.0
  0
LINE
  5
4A5
100
AcDbEntity
  8
V0-OBRYS
100
AcDbLine
 10
809.557475
 20
65.384661
 30
0.0
 11
809.557475
 21
0.073129
 31
0.0
  0
LINE
  5
4A6
100
AcDbEntity
  8
V0-OBRYS
100
AcDbLine
 10
811.723365
 20
0.073129
 30
0.0
 11
811.723365
 21
65.384661
 31
0.0
  0
LINE
  5
4A7
100
AcDbEntity
  8
V0-OBRYS
100
AcDbLine
 10
816.726786
 20
0.073129
 30
0.0
 11
816.726786
 21
62.573129
 31
0.0
  0
LINE
  5
4A8
100
AcDbEntity
  8
V0-OBRYS
100
AcDbLine
 10
811.723365
 20
65.384661
 30
0.0
 11
809.557475
 21
65.384661
 31
0.0
  0
DIMENSION
  5
4A9
100
AcDbEntity
  8
V0-VYPLNE
100
AcDbDimension
  2
*D1
 10
816.726786
 20
177.917383
 30
0.0
 11
516.726786
 21
190.917383
 31
0.0
 70
    32
  3
STANDARD
100
AcDbAlignedDimension
 13
216.726786
 23
62.573129
 33
0.0
 14
816.726786
 24
62.573129
 34
0.0
100
AcDbRotatedDimension
1001
ACAD
1000
DSTYLE
1002
{
1070
   140
1040
20.0
1070
   340
1005
331
1070
   287
1070
     1
1070
    41
1040
15.0
1002
}
  0
DIMENSION
  5
4AA
100
AcDbEntity
  8
V0-VYPLNE
100
AcDbDimension
  2
*D2
 10
791.726786
 20
140.130574
 30
0.0
 11
516.726786
 21
153.130574
 31
0.0
 70
    32
  3
STANDARD
100
AcDbAlignedDimension
 13
241.726786
 23
112.073129
 33
0.0
 14
791.726786
 24
112.073129
 34
0.0
100
AcDbRotatedDimension
1001
ACAD
1000
DSTYLE
1002
{
1070
   140
1040
20.0
1070
   340
1005
331
1070
   287
1070
     1
1070
    41
1040
15.0
1002
}
  0
DIMENSION
  5
4AB
100
AcDbEntity
  8
V0-VYPLNE
100
AcDbDimension
  2
*D3
 10
241.726786
 20
-155.374645
 30
0.0
 11
229.226786
 21
-155.374645
 31
0.0
 70
   160
  3
STANDARD
100
AcDbAlignedDimension
 13
216.726786
 23
-62.426871
 33
0.0
 14
241.726786
 24
-111.926871
 34
0.0
100
AcDbRotatedDimension
1001
ACAD
1000
DSTYLE
1002
{
1070
   140
1040
25.0
1070
   173
1070
     1
1070
     7
1000
_OPEN
1070
     6
1000
_OPEN
1070
    41
1040
25.0
1002
}
  0
DIMENSION
  5
4AC
100
AcDbEntity
  8
V0-VYPLNE
100
AcDbDimension
  2
*D4
 10
850.189585
 20
-62.426871
 30
0.0
 11
837.187617
 21
0.073129
 31
0.0
 70
    32
  1
%%c<>
  3
STANDARD
100
AcDbAlignedDimension
 13
816.726786
 23
62.573129
 33
0.0
 14
816.726786
 24
-62.426871
 34
0.0
 50
90.0
100
AcDbRotatedDimension
1001
ACAD
1000
DSTYLE
1002
{
1070
   140
1040
20.0
1070
   340
1005
331
1070
   287
1070
     1
1070
    41
1040
15.0
1002
}
  0
DIMENSION
  5
4AD
100
AcDbEntity
  8
V0-VYPLNE
100
AcDbDimension
  2
*D5
 10
888.013809
 20
-111.926871
 30
0.0
 11
875.011841
 21
0.073129
 31
0.0
 70
    32
  1
%%c<>
  3
STANDARD
100
AcDbAlignedDimension
 13
791.726786
 23
112.073129
 33
0.0
 14
791.726786
 24
-111.926871
 34
0.0
 50
90.0
100
AcDbRotatedDimension
1001
ACAD
1000
DSTYLE
1002
{
1070
   140
1040
20.0
1070
   340
1005
331
1070
   287
1070
     1
1070
    41
1040
15.0
1002
}
  0
LINE
  5
4AE
100
AcDbEntity
  8
V0-VYPLNE
  6
DASHDOT
 62
    63
100
AcDbLine
 10
983.190292
 20
0.073129
 30
0.0
 11
1217.241193
 21
0.073129
 31
0.0
  0
LINE
  5
4AF
100
AcDbEntity
  8
V0-VYPLNE
  6
DASHDOT
 62
    63
100
AcDbLine
 10
1091.726786
 20
-111.926871
 30
0.0
 11
1091.726786
 21
119.789405
 31
0.0
  0
TEXT
  5
4B0
100
AcDbEntity
  8
V0-VYPLNE
 62
   130
 48
2.0
100
AcDbText
 10
920.271799
 20
-343.094512
 30
0.0
 40
33.75
  1
TLUMIC HLUKU
 72
     1
 11
1063.793674
 21
-343.094512
 31
0.0
100
AcDbText
  0
TEXT
  5
4B1
100
AcDbEntity
  8
V0-VYPLNE
 62
    51
 48
2.0
100
AcDbText
 10
903.593521
 20
-410.024892
 30
0.0
 40
22.5
  1
PRO KRUHOVA POTRUBI
 72
     1
 11
1062.274771
 21
-410.024892
 31
0.0
100
AcDbText
  0
TEXT
  5
4B2
100
AcDbEntity
  8
V0-NAZVY
 48
2.0
100
AcDbText
 10
881.525958
 20
-273.344512
 30
0.0
 40
45.0
  1
MAA-125-600
 72
     1
 11
1063.793674
 21
-273.344512
 31
0.0
100
AcDbText
  0
POINT
  5
4B3
100
AcDbEntity
  8
V0-VYPLNE
 62
    52
100
AcDbPoint
 10
241.726786
 20
0.073129
 30
0.0
  0
POINT
  5
4B4
100
AcDbEntity
  8
V0-VYPLNE
 62
    52
100
AcDbPoint
 10
1091.726786
 20
0.073129
 30
0.0
  0
LINE
  5
4B5
100
AcDbEntity
  8
V0-OBRYS
100
AcDbLine
 10
791.726786
 20
-434.024457
 30
0.0
 11
516.726786
 21
-434.024457
 31
0.0
  0
LINE
  5
4B6
100
AcDbEntity
  8
V0-OBRYS
100
AcDbLine
 10
791.726786
 20
-210.024457
 30
0.0
 11
516.726786
 21
-210.024457
 31
0.0
  0
LINE
  5
4B7
100
AcDbEntity
  8
V0-VYPLNE
  6
DASHDOT
 62
    63
100
AcDbLine
 10
201.071066
 20
-322.024457
 30
0.0
 11
827.670939
 21
-322.024457
 31
0.0
  0
LINE
  5
4B8
100
AcDbEntity
  8
V0-OBRYS
100
AcDbLine
 10
241.726786
 20
-322.024457
 30
0.0
 11
241.726786
 21
-434.024457
 31
0.0
  0
LINE
  5
4B9
100
AcDbEntity
  8
V0-OBRYS
100
AcDbLine
 10
241.726786
 20
-434.024457
 30
0.0
 11
516.726786
 21
-434.024457
 31
0.0
  0
LINE
  5
4BA
100
AcDbEntity
  8
V0-OBRYS
100
AcDbLine
 10
241.726786
 20
-210.024457
 30
0.0
 11
516.726786
 21
-210.024457
 31
0.0
  0
LINE
  5
4BB
100
AcDbEntity
  8
V0-OBRYS
100
AcDbLine
 10
216.726786
 20
-322.024457
 30
0.0
 11
216.726786
 21
-259.524457
 31
0.0
  0
LINE
  5
4BC
100
AcDbEntity
  8
V0-OBRYS
100
AcDbLine
 10
221.730207
 20
-322.024457
 30
0.0
 11
221.730207
 21
-256.712925
 31
0.0
  0
LINE
  5
4BD
100
AcDbEntity
  8
V0-OBRYS
100
AcDbLine
 10
223.896096
 20
-256.712925
 30
0.0
 11
223.896096
 21
-322.024457
 31
0.0
  0
LINE
  5
4BE
100
AcDbEntity
  8
V0-OBRYS
100
AcDbLine
 10
241.726786
 20
-322.024457
 30
0.0
 11
241.726786
 21
-210.024457
 31
0.0
  0
LINE
  5
4BF
100
AcDbEntity
  8
V0-OBRYS
100
AcDbLine
 10
223.896096
 20
-387.335989
 30
0.0
 11
223.896096
 21
-322.024457
 31
0.0
  0
LINE
  5
4C0
100
AcDbEntity
  8
V0-OBRYS
100
AcDbLine
 10
221.730207
 20
-322.024457
 30
0.0
 11
221.730207
 21
-387.335989
 31
0.0
  0
LINE
  5
4C1
100
AcDbEntity
  8
V0-OBRYS
100
AcDbLine
 10
216.726786
 20
-322.024457
 30
0.0
 11
216.726786
 21
-384.524457
 31
0.0
  0
LINE
  5
4C2
100
AcDbEntity
  8
V0-OBRYS
100
AcDbLine
 10
216.726786
 20
-384.524457
 30
0.0
 11
241.726786
 21
-384.524457
 31
0.0
  0
LINE
  5
4C3
100
AcDbEntity
  8
V0-OBRYS
100
AcDbLine
 10
221.730207
 20
-387.335989
 30
0.0
 11
223.896096
 21
-387.335989
 31
0.0
  0
POINT
  5
4C4
100
AcDbEntity
  8
V0-VYPLNE
 62
    52
100
AcDbPoint
 10
241.726786
 20
-322.024457
 30
0.0
  0
LINE
  5
4C5
100
AcDbEntity
  8
V0-OBRYS
100
AcDbLine
 10
216.726786
 20
-259.524457
 30
0.0
 11
241.726786
 21
-259.524457
 31
0.0
  0
LINE
  5
4C6
100
AcDbEntity
  8
V0-OBRYS
100
AcDbLine
 10
221.730207
 20
-256.712925
 30
0.0
 11
223.896096
 21
-256.712925
 31
0.0
  0
LINE
  5
4C7
100
AcDbEntity
  8
V0-OBRYS
100
AcDbLine
 10
791.726786
 20
-322.024457
 30
0.0
 11
791.726786
 21
-434.024457
 31
0.0
  0
LINE
  5
4C8
100
AcDbEntity
  8
V0-OBRYS
100
AcDbLine
 10
809.557475
 20
-256.712925
 30
0.0
 11
809.557475
 21
-322.024457
 31
0.0
  0
LINE
  5
4C9
100
AcDbEntity
  8
V0-OBRYS
100
AcDbLine
 10
811.723365
 20
-322.024457
 30
0.0
 11
811.723365
 21
-256.712925
 31
0.0
  0
LINE
  5
4CA
100
AcDbEntity
  8
V0-OBRYS
100
AcDbLine
 10
816.726786
 20
-322.024457
 30
0.0
 11
816.726786
 21
-259.524457
 31
0.0
  0
LINE
  5
4CB
100
AcDbEntity
  8
V0-OBRYS
100
AcDbLine
 10
791.726786
 20
-322.024457
 30
0.0
 11
791.726786
 21
-210.024457
 31
0.0
  0
LINE
  5
4CC
100
AcDbEntity
  8
V0-OBRYS
100
AcDbLine
 10
816.726786
 20
-322.024457
 30
0.0
 11
816.726786
 21
-384.524457
 31
0.0
  0
LINE
  5
4CD
100
AcDbEntity
  8
V0-OBRYS
100
AcDbLine
 10
811.723365
 20
-322.024457
 30
0.0
 11
811.723365
 21
-387.335989
 31
0.0
  0
LINE
  5
4CE
100
AcDbEntity
  8
V0-OBRYS
100
AcDbLine
 10
809.557475
 20
-387.335989
 30
0.0
 11
809.557475
 21
-322.024457
 31
0.0
  0
LINE
  5
4CF
100
AcDbEntity
  8
V0-OBRYS
100
AcDbLine
 10
816.726786
 20
-384.524457
 30
0.0
 11
791.726786
 21
-384.524457
 31
0.0
  0
LINE
  5
4D0
100
AcDbEntity
  8
V0-OBRYS
100
AcDbLine
 10
811.723365
 20
-387.335989
 30
0.0
 11
809.557475
 21
-387.335989
 31
0.0
  0
LINE
  5
4D1
100
AcDbEntity
  8
V0-OBRYS
100
AcDbLine
 10
816.726786
 20
-259.524457
 30
0.0
 11
791.726786
 21
-259.524457
 31
0.0
  0
LINE
  5
4D2
100
AcDbEntity
  8
V0-OBRYS
100
AcDbLine
 10
811.723365
 20
-256.712925
 30
0.0
 11
809.557475
 21
-256.712925
 31
0.0
  0
CIRCLE
  5
4D3
100
AcDbEntity
  8
V0-OBRYS
100
AcDbCircle
 10
1091.726786
 20
0.073129
 30
0.0
 40
62.5
  0
CIRCLE
  5
4D4
100
AcDbEntity
  8
V0-OBRYS
100
AcDbCircle
 10
1091.726786
 20
0.073129
 30
0.0
 40
112.0
  0
CIRCLE
  5
4D5
100
AcDbEntity
  8
V0-OBRYS
100
AcDbCircle
 10
1091.726786
 20
0.073129
 30
0.0
 40
66.544791
  0
TEXT
  5
4D6
100
AcDbEntity
  8
V0-NAZVY
 48
2.0
100
AcDbText
 10
383.571666
 20
77.570967
 30
0.0
 40
30.0
  1
MAA-125-600
 72
     1
 11
505.083477
 21
77.570967
 31
0.0
100
AcDbText
  0
TEXT
  5
4D7
100
AcDbEntity
  8
V0-NAZVY
 48
2.0
100
AcDbText
 10
389.297809
 20
-298.859259
 30
0.0
 40
30.0
  1
MAA-125-600
 72
     1
 11
510.809621
 21
-298.859259
 31
0.0
100
AcDbText
  0
TEXT
  5
4D8
100
AcDbEntity
  8
V0-NAZVY
 48
2.0
100
AcDbText
 10
963.271287
 20
142.571507
 30
0.0
 40
30.0
  1
MAA-125-600
 72
     1
 11
1084.783098
 21
142.571507
 31
0.0
100
AcDbText
  0
LINE
  5
4D9
100
AcDbEntity
  8
V0-VYPLNE
  6
DASHED
 62
    56
 48
3.0
100
AcDbLine
 10
243.24558
 20
73.27734
 30
0.0
 11
791.046658
 21
73.27734
 31
0.0
  0
LINE
  5
4DA
100
AcDbEntity
  8
V0-VYPLNE
 62
    56
 48
3.0
100
AcDbLine
 10
243.24558
 20
-73.131081
 30
0.0
 11
791.046658
 21
-73.131081
 31
0.0
  0
LINE
  5
4DB
100
AcDbEntity
  8
V0-VYPLNE
  6
DASHED
 62
    56
 48
3.0
100
AcDbLine
 10
243.24558
 20
-248.820246
 30
0.0
 11
791.046658
 21
-248.820246
 31
0.0
  0
LINE
  5
4DC
100
AcDbEntity
  8
V0-VYPLNE
  6
DASHED
 62
    56
 48
3.0
100
AcDbLine
 10
243.24558
 20
-395.228667
 30
0.0
 11
791.046658
 21
-395.228667
 31
0.0
  0
VIEWPORT
  5
22
100
AcDbEntity
 67
     1
  8
0
100
AcDbViewport
 10
261.517699
 20
148.5
 30
0.0
 40
523.035398
 41
297.0
 68
    -1
 69
     1
1001
ACAD
1000
MVIEW
1002
{
1070
    16
1010
0.0
1020
0.0
1030
0.0
1010
0.0
1020
0.0
1030
1.0
1040
0.0
1040
297.0
1040
261.517699
1040
148.5
1040
50.0
1040
0.0
1040
0.0
1070
     0
1070
   100
1070
     1
1070
     1
1070
     0
1070
     0
1070
     0
1070
     0
1040
0.0
1040
0.0
1040
0.0
1040
1.0
1040
1.0
1040
10.0
1040
10.0
1070
     0
1002
{
1002
}
1002
}
  0
ENDSEC
  0
SECTION
  2
OBJECTS
  0
DICTIONARY
  5
C
100
AcDbDictionary
  3
ACAD_GROUP
350
D
  3
ACAD_MLINESTYLE
350
E
  3
ACDBVARIABLEDICTIONARY
350
5D
  0
DICTIONARY
  5
D
102
{ACAD_REACTORS
330
C
102
}
100
AcDbDictionary
  0
DICTIONARY
  5
E
102
{ACAD_REACTORS
330
C
102
}
100
AcDbDictionary
  3
STANDARD
350
13
  0
DICTIONARY
  5
5D
102
{ACAD_REACTORS
330
C
102
}
100
AcDbDictionary
  3
DIMADEC
350
5E
  3
SORTENTS
350
3D8
  0
MLINESTYLE
  5
13
102
{ACAD_REACTORS
330
E
102
}
100
AcDbMlineStyle
  2
STANDARD
 70
     0
  3

 62
     0
 51
90.0
 52
90.0
 71
     2
 49
0.5
 62
   256
  6
BYLAYER
 49
-0.5
 62
   256
  6
BYLAYER
  0
DICTIONARYVAR
  5
5E
102
{ACAD_REACTORS
330
5D
102
}
100
DictionaryVariables
280
     0
  1
0
  0
DICTIONARYVAR
  5
3D8
102
{ACAD_REACTORS
330
5D
102
}
100
DictionaryVariables
280
     0
  1
96
  0
ENDSEC
  0
EOF
