  0
SECTION
  2
HEADER
  9
$ACADVER
  1
AC1014
  9
$ACADMAINTVER
 70
     0
  9
$DWGCODEPAGE
  3
ANSI_1250
  9
$INSBASE
 10
0.0
 20
0.0
 30
0.0
  9
$EXTMIN
 10
-1410.065694
 20
-662.526445
 30
0.0
  9
$EXTMAX
 10
698.522574
 20
367.623579
 30
0.0
  9
$LIMMIN
 10
0.0
 20
0.0
  9
$LIMMAX
 10
12.0
 20
9.0
  9
$ORTHOMODE
 70
     0
  9
$REGENMODE
 70
     1
  9
$FILLMODE
 70
     1
  9
$QTEXTMODE
 70
     0
  9
$MIRRTEXT
 70
     1
  9
$DRAGMODE
 70
     2
  9
$LTSCALE
 40
1.0
  9
$OSMODE
 70
    37
  9
$ATTMODE
 70
     1
  9
$TEXTSIZE
 40
0.2
  9
$TRACEWID
 40
0.05
  9
$TEXTSTYLE
  7
STANDARD
  9
$CLAYER
  8
V0-ZBYTEK
  9
$CELTYPE
  6
CONTINUOUS
  9
$CECOLOR
 62
    41
  9
$CELTSCALE
 40
3.0
  9
$DELOBJ
 70
     1
  9
$DISPSILH
 70
     0
  9
$DIMSCALE
 40
1.0
  9
$DIMASZ
 40
15.0
  9
$DIMEXO
 40
1.0
  9
$DIMDLI
 40
3.75
  9
$DIMRND
 40
0.0
  9
$DIMDLE
 40
0.0
  9
$DIMEXE
 40
1.25
  9
$DIMTP
 40
0.0
  9
$DIMTM
 40
0.0
  9
$DIMTXT
 40
20.0
  9
$DIMCEN
 40
3.0
  9
$DIMTSZ
 40
0.0
  9
$DIMTOL
 70
     0
  9
$DIMLIM
 70
     0
  9
$DIMTIH
 70
     0
  9
$DIMTOH
 70
     0
  9
$DIMSE1
 70
     0
  9
$DIMSE2
 70
     0
  9
$DIMTAD
 70
     1
  9
$DIMZIN
 70
     8
  9
$DIMBLK
  1

  9
$DIMASO
 70
     1
  9
$DIMSHO
 70
     1
  9
$DIMPOST
  1

  9
$DIMAPOST
  1

  9
$DIMALT
 70
     0
  9
$DIMALTD
 70
     4
  9
$DIMALTF
 40
0.0394
  9
$DIMLFAC
 40
1.0
  9
$DIMTOFL
 70
     1
  9
$DIMTVP
 40
0.0
  9
$DIMTIX
 70
     0
  9
$DIMSOXD
 70
     0
  9
$DIMSAH
 70
     1
  9
$DIMBLK1
  1
_OPEN
  9
$DIMBLK2
  1
_OPEN
  9
$DIMSTYLE
  2
ED20
  9
$DIMCLRD
 70
     0
  9
$DIMCLRE
 70
     0
  9
$DIMCLRT
 70
     0
  9
$DIMTFAC
 40
1.0
  9
$DIMGAP
 40
2.0
  9
$DIMJUST
 70
     0
  9
$DIMSD1
 70
     0
  9
$DIMSD2
 70
     0
  9
$DIMTOLJ
 70
     1
  9
$DIMTZIN
 70
     8
  9
$DIMALTZ
 70
     0
  9
$DIMALTTZ
 70
     0
  9
$DIMFIT
 70
     3
  9
$DIMUPT
 70
     0
  9
$DIMUNIT
 70
     2
  9
$DIMDEC
 70
     0
  9
$DIMTDEC
 70
     1
  9
$DIMALTU
 70
     8
  9
$DIMALTTD
 70
     4
  9
$DIMTXSTY
  7
ED20
  9
$DIMAUNIT
 70
     0
  9
$LUNITS
 70
     2
  9
$LUPREC
 70
     4
  9
$SKETCHINC
 40
0.1
  9
$FILLETRAD
 40
0.5
  9
$AUNITS
 70
     0
  9
$AUPREC
 70
     0
  9
$MENU
  1
.
  9
$ELEVATION
 40
0.0
  9
$PELEVATION
 40
0.0
  9
$THICKNESS
 40
0.0
  9
$LIMCHECK
 70
     0
  9
$BLIPMODE
 70
     0
  9
$CHAMFERA
 40
0.5
  9
$CHAMFERB
 40
0.5
  9
$CHAMFERC
 40
1.0
  9
$CHAMFERD
 40
0.0
  9
$SKPOLY
 70
     1
  9
$TDCREATE
 40
2451200.769872917
  9
$TDUPDATE
 40
2453310.474597928
  9
$TDINDWG
 40
0.0319115856
  9
$TDUSRTIMER
 40
0.0319115856
  9
$USRTIMER
 70
     1
  9
$ANGBASE
 50
0.0
  9
$ANGDIR
 70
     0
  9
$PDMODE
 70
     3
  9
$PDSIZE
 40
0.0
  9
$PLINEWID
 40
0.0
  9
$COORDS
 70
     1
  9
$SPLFRAME
 70
     0
  9
$SPLINETYPE
 70
     6
  9
$SPLINESEGS
 70
     8
  9
$ATTDIA
 70
     0
  9
$ATTREQ
 70
     1
  9
$HANDLING
 70
     1
  9
$HANDSEED
  5
4D0
  9
$SURFTAB1
 70
     6
  9
$SURFTAB2
 70
     6
  9
$SURFTYPE
 70
     6
  9
$SURFU
 70
     6
  9
$SURFV
 70
     6
  9
$UCSNAME
  2

  9
$UCSORG
 10
-983.5484934314704
 20
225.0980997435002
 30
0.0
  9
$UCSXDIR
 10
1.0
 20
0.0
 30
0.0
  9
$UCSYDIR
 10
0.0
 20
1.0
 30
0.0
  9
$PUCSNAME
  2

  9
$PUCSORG
 10
0.0
 20
0.0
 30
0.0
  9
$PUCSXDIR
 10
1.0
 20
0.0
 30
0.0
  9
$PUCSYDIR
 10
0.0
 20
1.0
 30
0.0
  9
$USERI1
 70
     0
  9
$USERI2
 70
     0
  9
$USERI3
 70
     0
  9
$USERI4
 70
     0
  9
$USERI5
 70
     0
  9
$USERR1
 40
0.0
  9
$USERR2
 40
0.0
  9
$USERR3
 40
0.0
  9
$USERR4
 40
0.0
  9
$USERR5
 40
0.0
  9
$WORLDVIEW
 70
     1
  9
$SHADEDGE
 70
     3
  9
$SHADEDIF
 70
    70
  9
$TILEMODE
 70
     1
  9
$MAXACTVP
 70
    48
  9
$PINSBASE
 10
0.0
 20
0.0
 30
0.0
  9
$PLIMCHECK
 70
     0
  9
$PEXTMIN
 10
1.000000E+20
 20
1.000000E+20
 30
1.000000E+20
  9
$PEXTMAX
 10
-1.000000E+20
 20
-1.000000E+20
 30
-1.000000E+20
  9
$PLIMMIN
 10
0.0
 20
0.0
  9
$PLIMMAX
 10
12.0
 20
9.0
  9
$UNITMODE
 70
     0
  9
$VISRETAIN
 70
     1
  9
$PLINEGEN
 70
     0
  9
$PSLTSCALE
 70
     1
  9
$TREEDEPTH
 70
  3020
  9
$PICKSTYLE
 70
     1
  9
$CMLSTYLE
  2
STANDARD
  9
$CMLJUST
 70
     0
  9
$CMLSCALE
 40
1.0
  9
$PROXYGRAPHICS
 70
     1
  9
$MEASUREMENT
 70
     0
  0
ENDSEC
  0
SECTION
  2
CLASSES
  0
CLASS
  1
HATCH
  2
AcDbHatch
  3
"ACAD_SEDONA"
 90
        0
280
     0
281
     1
  0
CLASS
  1
DICTIONARYVAR
  2
AcDbDictionaryVar
  3
"AutoCAD"
 90
        0
280
     0
281
     0
  0
CLASS
  1
LWPOLYLINE
  2
AcDbPolyline
  3
"AutoCAD"
 90
        0
280
     0
281
     1
  0
ENDSEC
  0
SECTION
  2
TABLES
  0
TABLE
  2
VPORT
  5
8
100
AcDbSymbolTable
 70
     2
  0
VPORT
  5
4CF
100
AcDbSymbolTableRecord
100
AcDbViewportTableRecord
  2
*ACTIVE
 70
     0
 10
0.0
 20
0.0
 11
1.0
 21
1.0
 12
314.219792
 22
-161.881221
 13
0.0
 23
0.0
 14
0.5
 24
0.5
 15
0.5
 25
0.5
 16
0.0
 26
0.0
 36
1.0
 17
0.0
 27
0.0
 37
0.0
 40
1070.185406
 41
1.650104
 42
50.0
 43
0.0
 44
0.0
 50
0.0
 51
0.0
 71
     0
 72
   100
 73
     1
 74
     1
 75
     0
 76
     0
 77
     0
 78
     0
  0
ENDTAB
  0
TABLE
  2
LTYPE
  5
5
100
AcDbSymbolTable
 70
     3
  0
LTYPE
  5
13
100
AcDbSymbolTableRecord
100
AcDbLinetypeTableRecord
  2
BYBLOCK
 70
     0
  3

 72
    65
 73
     0
 40
0.0
  0
LTYPE
  5
14
100
AcDbSymbolTableRecord
100
AcDbLinetypeTableRecord
  2
BYLAYER
 70
     0
  3

 72
    65
 73
     0
 40
0.0
  0
LTYPE
  5
15
100
AcDbSymbolTableRecord
100
AcDbLinetypeTableRecord
  2
CONTINUOUS
 70
     0
  3
Solid line
 72
    65
 73
     0
 40
0.0
  0
LTYPE
  5
AA
100
AcDbSymbolTableRecord
100
AcDbLinetypeTableRecord
  2
DASHDOT
 70
     0
  3
Dash dot __ . __ . __ . __ . __ . __ . __ . __
 72
    65
 73
     4
 40
25.4
 49
12.7
 74
     0
 49
-6.35
 74
     0
 49
0.0
 74
     0
 49
-6.35
 74
     0
  0
LTYPE
  5
AB
100
AcDbSymbolTableRecord
100
AcDbLinetypeTableRecord
  2
DASHED
 70
     0
  3
Dashed __ __ __ __ __ __ __ __ __ __ __ __ __ _
 72
    65
 73
     2
 40
19.05
 49
12.7
 74
     0
 49
-6.35
 74
     0
  0
ENDTAB
  0
TABLE
  2
LAYER
  5
2
100
AcDbSymbolTable
 70
     6
  0
LAYER
  5
F
100
AcDbSymbolTableRecord
100
AcDbLayerTableRecord
  2
0
 70
     0
 62
     7
  6
CONTINUOUS
  0
LAYER
  5
AC
100
AcDbSymbolTableRecord
100
AcDbLayerTableRecord
  2
DEFPOINTS
 70
     0
 62
     7
  6
CONTINUOUS
  0
LAYER
  5
AD
100
AcDbSymbolTableRecord
100
AcDbLayerTableRecord
  2
V0-OBRYS
 70
     0
 62
    90
  6
CONTINUOUS
  0
LAYER
  5
AE
100
AcDbSymbolTableRecord
100
AcDbLayerTableRecord
  2
V0-VYPLNE
 70
     0
 62
    63
  6
DASHDOT
  0
LAYER
  5
AF
100
AcDbSymbolTableRecord
100
AcDbLayerTableRecord
  2
V0-NAZVY
 70
     0
 62
   210
  6
CONTINUOUS
  0
LAYER
  5
B0
100
AcDbSymbolTableRecord
100
AcDbLayerTableRecord
  2
V0-ZBYTEK
 70
     0
 62
    51
  6
CONTINUOUS
  0
ENDTAB
  0
TABLE
  2
STYLE
  5
3
100
AcDbSymbolTable
 70
     5
  0
STYLE
  5
10
100
AcDbSymbolTableRecord
100
AcDbTextStyleTableRecord
  2
STANDARD
 70
     0
 40
0.0
 41
1.0
 50
0.0
 71
     0
 42
0.2
  3
txt
  4

  0
STYLE
  5
B1
100
AcDbSymbolTableRecord
100
AcDbTextStyleTableRecord
  2
ED20
 70
     0
 40
20.0
 41
1.0
 50
0.0
 71
     0
 42
2.5
  3
ISOCP.shx
  4

  0
STYLE
  5
B2
100
AcDbSymbolTableRecord
100
AcDbTextStyleTableRecord
  2
ED10
 70
     0
 40
10.0
 41
1.0
 50
0.0
 71
     0
 42
10.0
  3
ISOCP.shx
  4

  0
STYLE
  5
32E
100
AcDbSymbolTableRecord
100
AcDbTextStyleTableRecord
  2
ED30
 70
     0
 40
30.0
 41
1.0
 50
0.0
 71
     0
 42
2.5
  3
ISOCP.shx
  4

  0
STYLE
  5
32F
100
AcDbSymbolTableRecord
100
AcDbTextStyleTableRecord
  2
ED40
 70
     0
 40
40.0
 41
1.0
 50
0.0
 71
     0
 42
20.0
  3
isocp.shx
  4

  0
ENDTAB
  0
TABLE
  2
VIEW
  5
6
100
AcDbSymbolTable
 70
     0
  0
ENDTAB
  0
TABLE
  2
UCS
  5
7
100
AcDbSymbolTable
 70
     0
  0
ENDTAB
  0
TABLE
  2
APPID
  5
9
100
AcDbSymbolTable
 70
     1
  0
APPID
  5
11
100
AcDbSymbolTableRecord
100
AcDbRegAppTableRecord
  2
ACAD
 70
     0
  0
ENDTAB
  0
TABLE
  2
DIMSTYLE
  5
A
100
AcDbSymbolTable
 70
     5
  0
DIMSTYLE
105
1D
100
AcDbSymbolTableRecord
100
AcDbDimStyleTableRecord
  2
STANDARD
 70
     0
  3

  4

  5

  6

  7

 40
1.0
 41
0.18
 42
0.0625
 43
0.38
 44
0.18
 45
0.0
 46
0.0
 47
0.0
 48
0.0
140
0.18
141
0.09
142
0.0
143
25.4
144
1.0
145
0.0
146
1.0
147
0.09
 71
     0
 72
     0
 73
     1
 74
     1
 75
     0
 76
     0
 77
     0
 78
     0
170
     0
171
     2
172
     0
173
     0
174
     0
175
     0
176
     0
177
     0
178
     0
270
     2
271
     4
272
     4
273
     2
274
     2
340
10
275
     0
280
     0
281
     0
282
     0
283
     1
284
     0
285
     0
286
     0
287
     3
288
     0
  0
DIMSTYLE
105
B3
102
{ACAD_REACTORS
330
105
330
F8
330
F7
330
104
330
F6
330
F5
330
404
102
}
100
AcDbSymbolTableRecord
100
AcDbDimStyleTableRecord
  2
ED20
 70
     0
  3

  4

  5

  6
_OPEN
  7
_OPEN
 40
1.0
 41
15.0
 42
1.0
 43
3.75
 44
1.25
 45
0.0
 46
0.0
 47
0.0
 48
0.0
140
20.0
141
3.0
142
0.0
143
0.0394
144
1.0
145
0.0
146
1.0
147
2.0
 71
     0
 72
     0
 73
     0
 74
     0
 75
     0
 76
     0
 77
     1
 78
     8
170
     0
171
     4
172
     1
173
     1
174
     0
175
     0
176
     0
177
     0
178
     0
270
     2
271
     0
272
     1
273
     8
274
     4
340
B1
275
     0
280
     0
281
     0
282
     0
283
     1
284
     8
285
     0
286
     0
287
     3
288
     0
  0
DIMSTYLE
105
B4
100
AcDbSymbolTableRecord
100
AcDbDimStyleTableRecord
  2
ED10
 70
     0
  3

  4

  5

  6
_OPEN
  7
_OPEN
 40
1.0
 41
10.0
 42
1.0
 43
3.75
 44
1.25
 45
0.0
 46
0.0
 47
0.0
 48
0.0
140
10.0
141
2.0
142
0.0
143
0.0394
144
1.0
145
0.0
146
1.0
147
1.5
 71
     0
 72
     0
 73
     0
 74
     0
 75
     0
 76
     0
 77
     1
 78
     8
170
     0
171
     4
172
     1
173
     1
174
     0
175
     0
176
     0
177
     0
178
     0
270
     2
271
     0
272
     1
273
     8
274
     4
340
B2
275
     0
280
     0
281
     0
282
     0
283
     1
284
     8
285
     0
286
     0
287
     3
288
     0
  0
DIMSTYLE
105
330
100
AcDbSymbolTableRecord
100
AcDbDimStyleTableRecord
  2
ED40
 70
     0
  3

  4

  5

  6
_OPEN
  7
_OPEN
 40
0.0
 41
35.0
 42
1.0
 43
3.75
 44
1.25
 45
0.0
 46
0.0
 47
0.0
 48
0.0
140
40.0
141
3.0
142
0.0
143
0.0394
144
1.0
145
0.0
146
1.0
147
3.0
 71
     0
 72
     0
 73
     0
 74
     0
 75
     0
 76
     0
 77
     1
 78
     8
170
     0
171
     4
172
     1
173
     1
174
     0
175
     0
176
     0
177
     0
178
     0
270
     2
271
     0
272
     1
273
     8
274
     4
340
32F
275
     0
280
     0
281
     0
282
     0
283
     1
284
     8
285
     0
286
     0
287
     3
288
     0
  0
DIMSTYLE
105
331
100
AcDbSymbolTableRecord
100
AcDbDimStyleTableRecord
  2
ED30
 70
     0
  3

  4

  5

  6
_OPEN
  7
_OPEN
 40
0.0
 41
25.0
 42
1.0
 43
3.75
 44
1.25
 45
0.0
 46
0.0
 47
0.0
 48
0.0
140
30.0
141
3.0
142
0.0
143
0.0394
144
1.0
145
0.0
146
1.0
147
2.0
 71
     0
 72
     0
 73
     0
 74
     0
 75
     0
 76
     0
 77
     1
 78
     8
170
     0
171
     4
172
     1
173
     1
174
     0
175
     0
176
     0
177
     0
178
     0
270
     2
271
     0
272
     1
273
     8
274
     4
340
32E
275
     0
280
     0
281
     0
282
     0
283
     1
284
     8
285
     0
286
     0
287
     3
288
     0
  0
ENDTAB
  0
TABLE
  2
BLOCK_RECORD
  5
1
100
AcDbSymbolTable
 70
     8
  0
BLOCK_RECORD
  5
19
100
AcDbSymbolTableRecord
100
AcDbBlockTableRecord
  2
*MODEL_SPACE
  0
BLOCK_RECORD
  5
16
100
AcDbSymbolTableRecord
100
AcDbBlockTableRecord
  2
*PAPER_SPACE
  0
BLOCK_RECORD
  5
50
100
AcDbSymbolTableRecord
100
AcDbBlockTableRecord
  2
_OPEN
  0
BLOCK_RECORD
  5
62
100
AcDbSymbolTableRecord
100
AcDbBlockTableRecord
  2
*D1
  0
BLOCK_RECORD
  5
6E
100
AcDbSymbolTableRecord
100
AcDbBlockTableRecord
  2
*D2
  0
BLOCK_RECORD
  5
7A
100
AcDbSymbolTableRecord
100
AcDbBlockTableRecord
  2
*D3
  0
BLOCK_RECORD
  5
86
100
AcDbSymbolTableRecord
100
AcDbBlockTableRecord
  2
*D4
  0
BLOCK_RECORD
  5
92
100
AcDbSymbolTableRecord
100
AcDbBlockTableRecord
  2
*D5
  0
BLOCK_RECORD
  5
9E
100
AcDbSymbolTableRecord
100
AcDbBlockTableRecord
  2
*D6
  0
BLOCK_RECORD
  5
3F6
100
AcDbSymbolTableRecord
100
AcDbBlockTableRecord
  2
*D7
  0
ENDTAB
  0
ENDSEC
  0
SECTION
  2
BLOCKS
  0
BLOCK
  5
1A
100
AcDbEntity
  8
0
100
AcDbBlockBegin
  2
*MODEL_SPACE
 70
     0
 10
0.0
 20
0.0
 30
0.0
  3
*MODEL_SPACE
  1

  0
ENDBLK
  5
1B
100
AcDbEntity
  8
0
100
AcDbBlockEnd
  0
BLOCK
  5
17
100
AcDbEntity
 67
     1
  8
0
100
AcDbBlockBegin
  2
*PAPER_SPACE
 70
     0
 10
0.0
 20
0.0
 30
0.0
  3
*PAPER_SPACE
  1

  0
ENDBLK
  5
18
100
AcDbEntity
 67
     1
  8
0
100
AcDbBlockEnd
  0
BLOCK
  5
54
100
AcDbEntity
  8
0
100
AcDbBlockBegin
  2
_OPEN
 70
     0
 10
0.0
 20
0.0
 30
0.0
  3
_OPEN
  1

  0
LINE
  5
51
100
AcDbEntity
  8
0
  6
BYBLOCK
 62
     0
100
AcDbLine
 10
-1.0
 20
0.166667
 30
0.0
 11
0.0
 21
0.0
 31
0.0
  0
LINE
  5
52
100
AcDbEntity
  8
0
  6
BYBLOCK
 62
     0
100
AcDbLine
 10
0.0
 20
0.0
 30
0.0
 11
-1.0
 21
-0.166667
 31
0.0
  0
LINE
  5
53
100
AcDbEntity
  8
0
  6
BYBLOCK
 62
     0
100
AcDbLine
 10
0.0
 20
0.0
 30
0.0
 11
-1.0
 21
0.0
 31
0.0
  0
ENDBLK
  5
55
100
AcDbEntity
  8
0
100
AcDbBlockEnd
  0
BLOCK
  5
40C
100
AcDbEntity
  8
0
 48
3.0
100
AcDbBlockBegin
  2
*D1
 70
     1
 10
0.0
 20
0.0
 30
0.0
  3
*D1
  1

  0
LINE
  5
40D
100
AcDbEntity
  8
0
  6
BYBLOCK
 62
     0
 48
3.0
100
AcDbLine
 10
176.451507
 20
4.0981
 30
0.0
 11
176.451507
 21
-32.14865
 31
0.0
  0
LINE
  5
40E
100
AcDbEntity
  8
0
  6
BYBLOCK
 62
     0
 48
3.0
100
AcDbLine
 10
676.451507
 20
4.0981
 30
0.0
 11
676.451507
 21
-32.14865
 31
0.0
  0
LINE
  5
40F
100
AcDbEntity
  8
0
  6
BYBLOCK
 62
     0
 48
3.0
100
AcDbLine
 10
191.451507
 20
-30.89865
 30
0.0
 11
661.451507
 21
-30.89865
 31
0.0
  0
INSERT
  5
410
100
AcDbEntity
  8
0
  6
BYBLOCK
 62
     0
 48
3.0
100
AcDbBlockReference
  2
_OPEN
 10
176.451507
 20
-30.89865
 30
0.0
 41
15.0
 42
15.0
 43
15.0
 50
180.0
  0
INSERT
  5
411
100
AcDbEntity
  8
0
  6
BYBLOCK
 62
     0
 48
3.0
100
AcDbBlockReference
  2
_OPEN
 10
676.451507
 20
-30.89865
 30
0.0
 41
15.0
 42
15.0
 43
15.0
  0
MTEXT
  5
412
100
AcDbEntity
  8
0
  6
BYBLOCK
 62
     0
 48
3.0
100
AcDbMText
 10
426.451507
 20
-18.89865
 30
0.0
 40
20.0
 41
0.0
 71
     5
 72
     1
  1
\A1;500
  7
ED20
  0
POINT
  5
413
100
AcDbEntity
  8
DEFPOINTS
  6
BYBLOCK
 62
     0
 48
3.0
100
AcDbPoint
 10
176.451507
 20
5.0981
 30
0.0
  0
POINT
  5
414
100
AcDbEntity
  8
DEFPOINTS
  6
BYBLOCK
 62
     0
 48
3.0
100
AcDbPoint
 10
676.451507
 20
5.0981
 30
0.0
  0
POINT
  5
415
100
AcDbEntity
  8
DEFPOINTS
  6
BYBLOCK
 62
     0
 48
3.0
100
AcDbPoint
 10
676.451507
 20
-30.89865
 30
0.0
  0
ENDBLK
  5
416
100
AcDbEntity
  8
0
 48
3.0
100
AcDbBlockEnd
  0
BLOCK
  5
464
100
AcDbEntity
  8
0
 48
3.0
100
AcDbBlockBegin
  2
*D2
 70
     1
 10
0.0
 20
0.0
 30
0.0
  3
*D2
  1

  0
LINE
  5
465
100
AcDbEntity
  8
0
  6
BYBLOCK
 62
     0
 48
3.0
100
AcDbLine
 10
166.451507
 20
4.0981
 30
0.0
 11
166.451507
 21
-62.855332
 31
0.0
  0
LINE
  5
466
100
AcDbEntity
  8
0
  6
BYBLOCK
 62
     0
 48
3.0
100
AcDbLine
 10
686.451507
 20
5.769782
 30
0.0
 11
686.451507
 21
-62.855332
 31
0.0
  0
LINE
  5
467
100
AcDbEntity
  8
0
  6
BYBLOCK
 62
     0
 48
3.0
100
AcDbLine
 10
181.451507
 20
-61.605332
 30
0.0
 11
671.451507
 21
-61.605332
 31
0.0
  0
INSERT
  5
468
100
AcDbEntity
  8
0
  6
BYBLOCK
 62
     0
 48
3.0
100
AcDbBlockReference
  2
_OPEN
 10
166.451507
 20
-61.605332
 30
0.0
 41
15.0
 42
15.0
 43
15.0
 50
180.0
  0
INSERT
  5
469
100
AcDbEntity
  8
0
  6
BYBLOCK
 62
     0
 48
3.0
100
AcDbBlockReference
  2
_OPEN
 10
686.451507
 20
-61.605332
 30
0.0
 41
15.0
 42
15.0
 43
15.0
  0
MTEXT
  5
46A
100
AcDbEntity
  8
0
  6
BYBLOCK
 62
     0
 48
3.0
100
AcDbMText
 10
424.246582
 20
-49.603364
 30
0.0
 40
20.0
 41
0.0
 71
     5
 72
     1
  1
\A1;520
  7
ED20
  0
POINT
  5
46B
100
AcDbEntity
  8
DEFPOINTS
  6
BYBLOCK
 62
     0
 48
3.0
100
AcDbPoint
 10
166.451507
 20
5.0981
 30
0.0
  0
POINT
  5
46C
100
AcDbEntity
  8
DEFPOINTS
  6
BYBLOCK
 62
     0
 48
3.0
100
AcDbPoint
 10
686.451507
 20
6.769782
 30
0.0
  0
POINT
  5
46D
100
AcDbEntity
  8
DEFPOINTS
  6
BYBLOCK
 62
     0
 48
3.0
100
AcDbPoint
 10
686.451507
 20
-61.605332
 30
0.0
  0
ENDBLK
  5
46E
100
AcDbEntity
  8
0
 48
3.0
100
AcDbBlockEnd
  0
BLOCK
  5
47A
100
AcDbEntity
  8
0
 48
3.0
100
AcDbBlockBegin
  2
*D3
 70
     1
 10
0.0
 20
0.0
 30
0.0
  3
*D3
  1

  0
LINE
  5
47B
100
AcDbEntity
  8
0
  6
BYBLOCK
 62
     0
 48
3.0
100
AcDbLine
 10
156.451507
 20
24.0981
 30
0.0
 11
156.451507
 21
-97.947201
 31
0.0
  0
LINE
  5
47C
100
AcDbEntity
  8
0
  6
BYBLOCK
 62
     0
 48
3.0
100
AcDbLine
 10
696.451507
 20
24.0981
 30
0.0
 11
696.451507
 21
-97.947201
 31
0.0
  0
LINE
  5
47D
100
AcDbEntity
  8
0
  6
BYBLOCK
 62
     0
 48
3.0
100
AcDbLine
 10
171.451507
 20
-96.697201
 30
0.0
 11
681.451507
 21
-96.697201
 31
0.0
  0
INSERT
  5
47E
100
AcDbEntity
  8
0
  6
BYBLOCK
 62
     0
 48
3.0
100
AcDbBlockReference
  2
_OPEN
 10
156.451507
 20
-96.697201
 30
0.0
 41
15.0
 42
15.0
 43
15.0
 50
180.0
  0
INSERT
  5
47F
100
AcDbEntity
  8
0
  6
BYBLOCK
 62
     0
 48
3.0
100
AcDbBlockReference
  2
_OPEN
 10
696.451507
 20
-96.697201
 30
0.0
 41
15.0
 42
15.0
 43
15.0
  0
MTEXT
  5
480
100
AcDbEntity
  8
0
  6
BYBLOCK
 62
     0
 48
3.0
100
AcDbMText
 10
422.299206
 20
-84.697201
 30
0.0
 40
20.0
 41
0.0
 71
     5
 72
     1
  1
\A1;540
  7
ED20
  0
POINT
  5
481
100
AcDbEntity
  8
DEFPOINTS
  6
BYBLOCK
 62
     0
 48
3.0
100
AcDbPoint
 10
156.451507
 20
25.0981
 30
0.0
  0
POINT
  5
482
100
AcDbEntity
  8
DEFPOINTS
  6
BYBLOCK
 62
     0
 48
3.0
100
AcDbPoint
 10
696.451507
 20
25.0981
 30
0.0
  0
POINT
  5
483
100
AcDbEntity
  8
DEFPOINTS
  6
BYBLOCK
 62
     0
 48
3.0
100
AcDbPoint
 10
696.451507
 20
-96.697201
 30
0.0
  0
ENDBLK
  5
484
100
AcDbEntity
  8
0
 48
3.0
100
AcDbBlockEnd
  0
BLOCK
  5
4B3
100
AcDbEntity
  8
0
 48
3.0
100
AcDbBlockBegin
  2
*D4
 70
     1
 10
0.0
 20
0.0
 30
0.0
  3
*D4
  1

  0
LINE
  5
4B4
100
AcDbEntity
  8
0
  6
BYBLOCK
 62
     0
 48
3.0
100
AcDbLine
 10
155.451507
 20
300.0981
 30
0.0
 11
128.898435
 21
300.0981
 31
0.0
  0
LINE
  5
4B5
100
AcDbEntity
  8
0
  6
BYBLOCK
 62
     0
 48
3.0
100
AcDbLine
 10
155.451507
 20
0.0981
 30
0.0
 11
128.898435
 21
0.0981
 31
0.0
  0
LINE
  5
4B6
100
AcDbEntity
  8
0
  6
BYBLOCK
 62
     0
 48
3.0
100
AcDbLine
 10
130.148435
 20
285.0981
 30
0.0
 11
130.148435
 21
15.0981
 31
0.0
  0
INSERT
  5
4B7
100
AcDbEntity
  8
0
  6
BYBLOCK
 62
     0
 48
3.0
100
AcDbBlockReference
  2
_OPEN
 10
130.148435
 20
300.0981
 30
0.0
 41
15.0
 42
15.0
 43
15.0
 50
90.0
  0
INSERT
  5
4B8
100
AcDbEntity
  8
0
  6
BYBLOCK
 62
     0
 48
3.0
100
AcDbBlockReference
  2
_OPEN
 10
130.148435
 20
0.0981
 30
0.0
 41
15.0
 42
15.0
 43
15.0
 50
270.0
  0
MTEXT
  5
4B9
100
AcDbEntity
  8
0
  6
BYBLOCK
 62
     0
 48
3.0
100
AcDbMText
 10
118.148435
 20
150.0981
 30
0.0
 40
20.0
 41
0.0
 71
     5
 72
     1
  1
\A1;300
  7
ED20
 11
0.0
 21
1.0
 31
0.0
  0
POINT
  5
4BA
100
AcDbEntity
  8
DEFPOINTS
  6
BYBLOCK
 62
     0
 48
3.0
100
AcDbPoint
 10
156.451507
 20
300.0981
 30
0.0
  0
POINT
  5
4BB
100
AcDbEntity
  8
DEFPOINTS
  6
BYBLOCK
 62
     0
 48
3.0
100
AcDbPoint
 10
156.451507
 20
0.0981
 30
0.0
  0
POINT
  5
4BC
100
AcDbEntity
  8
DEFPOINTS
  6
BYBLOCK
 62
     0
 48
3.0
100
AcDbPoint
 10
130.148435
 20
0.0981
 30
0.0
  0
ENDBLK
  5
4BD
100
AcDbEntity
  8
0
 48
3.0
100
AcDbBlockEnd
  0
BLOCK
  5
4BE
100
AcDbEntity
  8
0
 48
3.0
100
AcDbBlockBegin
  2
*D5
 70
     1
 10
0.0
 20
0.0
 30
0.0
  3
*D5
  1

  0
LINE
  5
4BF
100
AcDbEntity
  8
0
  6
BYBLOCK
 62
     0
 48
3.0
100
AcDbLine
 10
156.975492
 20
310.0981
 30
0.0
 11
96.748723
 21
310.0981
 31
0.0
  0
LINE
  5
4C0
100
AcDbEntity
  8
0
  6
BYBLOCK
 62
     0
 48
3.0
100
AcDbLine
 10
155.451507
 20
-9.9019
 30
0.0
 11
96.748723
 21
-9.9019
 31
0.0
  0
LINE
  5
4C1
100
AcDbEntity
  8
0
  6
BYBLOCK
 62
     0
 48
3.0
100
AcDbLine
 10
97.998723
 20
295.0981
 30
0.0
 11
97.998723
 21
5.0981
 31
0.0
  0
INSERT
  5
4C2
100
AcDbEntity
  8
0
  6
BYBLOCK
 62
     0
 48
3.0
100
AcDbBlockReference
  2
_OPEN
 10
97.998723
 20
310.0981
 30
0.0
 41
15.0
 42
15.0
 43
15.0
 50
90.0
  0
INSERT
  5
4C3
100
AcDbEntity
  8
0
  6
BYBLOCK
 62
     0
 48
3.0
100
AcDbBlockReference
  2
_OPEN
 10
97.998723
 20
-9.9019
 30
0.0
 41
15.0
 42
15.0
 43
15.0
 50
270.0
  0
MTEXT
  5
4C4
100
AcDbEntity
  8
0
  6
BYBLOCK
 62
     0
 48
3.0
100
AcDbMText
 10
85.996754
 20
148.472546
 30
0.0
 40
20.0
 41
0.0
 71
     5
 72
     1
  1
\A1;320
  7
ED20
 11
0.0
 21
1.0
 31
0.0
  0
POINT
  5
4C5
100
AcDbEntity
  8
DEFPOINTS
  6
BYBLOCK
 62
     0
 48
3.0
100
AcDbPoint
 10
157.975492
 20
310.0981
 30
0.0
  0
POINT
  5
4C6
100
AcDbEntity
  8
DEFPOINTS
  6
BYBLOCK
 62
     0
 48
3.0
100
AcDbPoint
 10
156.451507
 20
-9.9019
 30
0.0
  0
POINT
  5
4C7
100
AcDbEntity
  8
DEFPOINTS
  6
BYBLOCK
 62
     0
 48
3.0
100
AcDbPoint
 10
97.998723
 20
-9.9019
 30
0.0
  0
ENDBLK
  5
4C8
100
AcDbEntity
  8
0
 48
3.0
100
AcDbBlockEnd
  0
BLOCK
  5
4A8
100
AcDbEntity
  8
0
 48
3.0
100
AcDbBlockBegin
  2
*D6
 70
     1
 10
0.0
 20
0.0
 30
0.0
  3
*D6
  1

  0
LINE
  5
4A9
100
AcDbEntity
  8
0
  6
BYBLOCK
 62
     0
 48
3.0
100
AcDbLine
 10
175.451507
 20
320.0981
 30
0.0
 11
58.559347
 21
320.0981
 31
0.0
  0
LINE
  5
4AA
100
AcDbEntity
  8
0
  6
BYBLOCK
 62
     0
 48
3.0
100
AcDbLine
 10
175.451507
 20
-19.9019
 30
0.0
 11
58.559347
 21
-19.9019
 31
0.0
  0
LINE
  5
4AB
100
AcDbEntity
  8
0
  6
BYBLOCK
 62
     0
 48
3.0
100
AcDbLine
 10
59.809347
 20
305.0981
 30
0.0
 11
59.809347
 21
-4.9019
 31
0.0
  0
INSERT
  5
4AC
100
AcDbEntity
  8
0
  6
BYBLOCK
 62
     0
 48
3.0
100
AcDbBlockReference
  2
_OPEN
 10
59.809347
 20
320.0981
 30
0.0
 41
15.0
 42
15.0
 43
15.0
 50
90.0
  0
INSERT
  5
4AD
100
AcDbEntity
  8
0
  6
BYBLOCK
 62
     0
 48
3.0
100
AcDbBlockReference
  2
_OPEN
 10
59.809347
 20
-19.9019
 30
0.0
 41
15.0
 42
15.0
 43
15.0
 50
270.0
  0
MTEXT
  5
4AE
100
AcDbEntity
  8
0
  6
BYBLOCK
 62
     0
 48
3.0
100
AcDbMText
 10
47.809347
 20
144.580963
 30
0.0
 40
20.0
 41
0.0
 71
     5
 72
     1
  1
\A1;340
  7
ED20
 11
0.0
 21
1.0
 31
0.0
  0
POINT
  5
4AF
100
AcDbEntity
  8
DEFPOINTS
  6
BYBLOCK
 62
     0
 48
3.0
100
AcDbPoint
 10
176.451507
 20
320.0981
 30
0.0
  0
POINT
  5
4B0
100
AcDbEntity
  8
DEFPOINTS
  6
BYBLOCK
 62
     0
 48
3.0
100
AcDbPoint
 10
176.451507
 20
-19.9019
 30
0.0
  0
POINT
  5
4B1
100
AcDbEntity
  8
DEFPOINTS
  6
BYBLOCK
 62
     0
 48
3.0
100
AcDbPoint
 10
59.809347
 20
-19.9019
 30
0.0
  0
ENDBLK
  5
4B2
100
AcDbEntity
  8
0
 48
3.0
100
AcDbBlockEnd
  0
BLOCK
  5
3F7
100
AcDbEntity
  8
0
 48
3.0
100
AcDbBlockBegin
  2
*D7
 70
     1
 10
0.0
 20
0.0
 30
0.0
  3
*D7
  1

  0
LINE
  5
3F8
100
AcDbEntity
  8
0
  6
BYBLOCK
 62
     0
 48
3.0
100
AcDbLine
 10
-13.548493
 20
24.0981
 30
0.0
 11
-13.548493
 21
-35.061499
 31
0.0
  0
LINE
  5
3F9
100
AcDbEntity
  8
0
  6
BYBLOCK
 62
     0
 48
3.0
100
AcDbLine
 10
6.451507
 20
24.0981
 30
0.0
 11
6.451507
 21
-35.061499
 31
0.0
  0
LINE
  5
3FA
100
AcDbEntity
  8
0
  6
BYBLOCK
 62
     0
 48
3.0
100
AcDbLine
 10
-28.548493
 20
-33.811499
 30
0.0
 11
-43.548493
 21
-33.811499
 31
0.0
  0
LINE
  5
3FB
100
AcDbEntity
  8
0
  6
BYBLOCK
 62
     0
 48
3.0
100
AcDbLine
 10
21.451507
 20
-33.811499
 30
0.0
 11
62.975129
 21
-33.811499
 31
0.0
  0
LINE
  5
3FC
100
AcDbEntity
  8
0
  6
BYBLOCK
 62
     0
 48
3.0
100
AcDbLine
 10
-13.548493
 20
-33.811499
 30
0.0
 11
6.451507
 21
-33.811499
 31
0.0
  0
INSERT
  5
3FD
100
AcDbEntity
  8
0
  6
BYBLOCK
 62
     0
 48
3.0
100
AcDbBlockReference
  2
_OPEN
 10
-13.548493
 20
-33.811499
 30
0.0
 41
15.0
 42
15.0
 43
15.0
  0
INSERT
  5
3FE
100
AcDbEntity
  8
0
  6
BYBLOCK
 62
     0
 48
3.0
100
AcDbBlockReference
  2
_OPEN
 10
6.451507
 20
-33.811499
 30
0.0
 41
15.0
 42
15.0
 43
15.0
 50
180.0
  0
MTEXT
  5
3FF
100
AcDbEntity
  8
0
  6
BYBLOCK
 62
     0
 48
3.0
100
AcDbMText
 10
49.713318
 20
-21.809531
 30
0.0
 40
20.0
 41
0.0
 71
     5
 72
     1
  1
\A1;20
  7
ED20
  0
POINT
  5
400
100
AcDbEntity
  8
DEFPOINTS
  6
BYBLOCK
 62
     0
 48
3.0
100
AcDbPoint
 10
-13.548493
 20
25.0981
 30
0.0
  0
POINT
  5
401
100
AcDbEntity
  8
DEFPOINTS
  6
BYBLOCK
 62
     0
 48
3.0
100
AcDbPoint
 10
6.451507
 20
25.0981
 30
0.0
  0
POINT
  5
402
100
AcDbEntity
  8
DEFPOINTS
  6
BYBLOCK
 62
     0
 48
3.0
100
AcDbPoint
 10
6.451507
 20
-33.811499
 30
0.0
  0
ENDBLK
  5
403
100
AcDbEntity
  8
0
 48
3.0
100
AcDbBlockEnd
  0
ENDSEC
  0
SECTION
  2
ENTITIES
  0
LINE
  5
B5
100
AcDbEntity
  8
V0-OBRYS
100
AcDbLine
 10
166.451507
 20
-19.9019
 30
0.0
 11
686.451507
 21
-19.9019
 31
0.0
  0
LINE
  5
B6
100
AcDbEntity
  8
V0-OBRYS
100
AcDbLine
 10
696.451507
 20
-9.9019
 30
0.0
 11
696.451507
 21
310.0981
 31
0.0
  0
LINE
  5
B7
100
AcDbEntity
  8
V0-OBRYS
100
AcDbLine
 10
686.451507
 20
320.0981
 30
0.0
 11
166.451507
 21
320.0981
 31
0.0
  0
LINE
  5
B8
100
AcDbEntity
  8
V0-OBRYS
100
AcDbLine
 10
156.451507
 20
310.0981
 30
0.0
 11
156.451507
 21
-9.9019
 31
0.0
  0
LINE
  5
B9
100
AcDbEntity
  8
V0-OBRYS
100
AcDbLine
 10
176.451507
 20
320.0981
 30
0.0
 11
176.451507
 21
-19.9019
 31
0.0
  0
LINE
  5
BA
100
AcDbEntity
  8
V0-OBRYS
100
AcDbLine
 10
696.451507
 20
300.0981
 30
0.0
 11
156.451507
 21
300.0981
 31
0.0
  0
LINE
  5
BB
100
AcDbEntity
  8
V0-OBRYS
100
AcDbLine
 10
676.451507
 20
-19.9019
 30
0.0
 11
676.451507
 21
320.0981
 31
0.0
  0
LINE
  5
BC
100
AcDbEntity
  8
V0-OBRYS
100
AcDbLine
 10
156.451507
 20
0.0981
 30
0.0
 11
696.451507
 21
0.0981
 31
0.0
  0
ARC
  5
BD
100
AcDbEntity
  8
V0-OBRYS
100
AcDbCircle
 10
166.451507
 20
-9.9019
 30
0.0
 40
10.0
100
AcDbArc
 50
180.0
 51
270.0
  0
ARC
  5
BE
100
AcDbEntity
  8
V0-OBRYS
100
AcDbCircle
 10
166.451507
 20
310.0981
 30
0.0
 40
10.0
100
AcDbArc
 50
90.0
 51
180.0
  0
ARC
  5
BF
100
AcDbEntity
  8
V0-OBRYS
100
AcDbCircle
 10
686.451507
 20
310.0981
 30
0.0
 40
10.0
100
AcDbArc
 50
0.0
 51
90.0
  0
ARC
  5
C0
100
AcDbEntity
  8
V0-OBRYS
100
AcDbCircle
 10
686.451507
 20
-9.9019
 30
0.0
 40
10.0
100
AcDbArc
 50
270.0
 51
0.0
  0
CIRCLE
  5
C1
100
AcDbEntity
  8
V0-OBRYS
100
AcDbCircle
 10
166.451507
 20
-9.9019
 30
0.0
 40
4.5
  0
CIRCLE
  5
C2
100
AcDbEntity
  8
V0-OBRYS
100
AcDbCircle
 10
166.451507
 20
310.0981
 30
0.0
 40
4.5
  0
CIRCLE
  5
C3
100
AcDbEntity
  8
V0-OBRYS
100
AcDbCircle
 10
686.451507
 20
310.0981
 30
0.0
 40
4.5
  0
CIRCLE
  5
C4
100
AcDbEntity
  8
V0-OBRYS
100
AcDbCircle
 10
686.451507
 20
-9.9019
 30
0.0
 40
4.5
  0
LINE
  5
C5
100
AcDbEntity
  8
V0-VYPLNE
100
AcDbLine
 10
157.975492
 20
310.0981
 30
0.0
 11
175.096727
 21
310.0981
 31
0.0
  0
LINE
  5
C6
100
AcDbEntity
  8
V0-VYPLNE
100
AcDbLine
 10
166.451507
 20
301.769782
 30
0.0
 11
166.451507
 21
318.334195
 31
0.0
  0
LINE
  5
C7
100
AcDbEntity
  8
V0-VYPLNE
100
AcDbLine
 10
157.975492
 20
-9.9019
 30
0.0
 11
175.096727
 21
-9.9019
 31
0.0
  0
LINE
  5
C8
100
AcDbEntity
  8
V0-VYPLNE
100
AcDbLine
 10
166.451507
 20
-18.230218
 30
0.0
 11
166.451507
 21
-1.665805
 31
0.0
  0
LINE
  5
C9
100
AcDbEntity
  8
V0-VYPLNE
100
AcDbLine
 10
677.975492
 20
310.0981
 30
0.0
 11
695.096727
 21
310.0981
 31
0.0
  0
LINE
  5
CA
100
AcDbEntity
  8
V0-VYPLNE
100
AcDbLine
 10
686.451507
 20
301.769782
 30
0.0
 11
686.451507
 21
318.334195
 31
0.0
  0
CIRCLE
  5
CB
100
AcDbEntity
  8
V0-OBRYS
100
AcDbCircle
 10
686.451507
 20
-9.9019
 30
0.0
 40
4.5
  0
LINE
  5
CC
100
AcDbEntity
  8
V0-VYPLNE
100
AcDbLine
 10
686.451507
 20
-18.230218
 30
0.0
 11
686.451507
 21
-1.665805
 31
0.0
  0
LINE
  5
CD
100
AcDbEntity
  8
V0-VYPLNE
100
AcDbLine
 10
677.975492
 20
-9.9019
 30
0.0
 11
695.096727
 21
-9.9019
 31
0.0
  0
MTEXT
  5
CE
100
AcDbEntity
  8
V0-ZBYTEK
 62
    51
100
AcDbMText
 10
380.126243
 20
-336.861037
 30
0.0
 40
31.5
 41
892.3329
 71
     5
 72
     5
  1
VOLNA PRIRUBA
  7
ED10
  0
MTEXT
  5
CF
100
AcDbEntity
  8
V0-ZBYTEK
100
AcDbMText
 10
376.539939
 20
-405.045893
 30
0.0
 40
22.5
 41
353.465
 71
     5
 72
     5
  1
PRO CTYRHRANNE POTRUBI
  7
ED10
  0
MTEXT
  5
D0
100
AcDbEntity
  8
V0-NAZVY
100
AcDbMText
 10
365.689884
 20
-254.408627
 30
0.0
 40
56.25
 41
462.6912
 71
     5
 72
     5
  1
IBR - 250
  7
ED10
  0
LINE
  5
D4
100
AcDbEntity
  8
V0-OBRYS
100
AcDbLine
 10
-31.52157
 20
-19.9019
 30
0.0
 11
-31.52157
 21
320.0981
 31
0.0
  0
LINE
  5
D6
100
AcDbEntity
  8
V0-OBRYS
100
AcDbLine
 10
-31.52157
 20
320.0981
 30
0.0
 11
-36.52157
 21
320.0981
 31
0.0
  0
LINE
  5
DA
100
AcDbEntity
  8
V0-OBRYS
100
AcDbLine
 10
-36.52157
 20
-19.9019
 30
0.0
 11
-36.52157
 21
320.0981
 31
0.0
  0
LINE
  5
DC
100
AcDbEntity
  8
V0-OBRYS
100
AcDbLine
 10
-36.52157
 20
-19.9019
 30
0.0
 11
-31.52157
 21
-19.9019
 31
0.0
  0
LINE
  5
DD
100
AcDbEntity
  8
V0-VYPLNE
100
AcDbLine
 10
-43.355083
 20
310.0981
 30
0.0
 11
-24.262807
 21
310.0981
 31
0.0
  0
LINE
  5
DE
100
AcDbEntity
  8
V0-VYPLNE
100
AcDbLine
 10
-44.309699
 20
-9.9019
 30
0.0
 11
-26.172036
 21
-9.9019
 31
0.0
  0
LINE
  5
DF
100
AcDbEntity
  8
V0-OBRYS
100
AcDbLine
 10
-36.52157
 20
-662.526445
 30
0.0
 11
-36.52157
 21
-122.526445
 31
0.0
  0
LINE
  5
E2
100
AcDbEntity
  8
V0-OBRYS
100
AcDbLine
 10
-31.52157
 20
-662.526445
 30
0.0
 11
-31.52157
 21
-122.526445
 31
0.0
  0
LINE
  5
E4
100
AcDbEntity
  8
V0-OBRYS
100
AcDbLine
 10
-36.52157
 20
-662.526445
 30
0.0
 11
-31.52157
 21
-662.526445
 31
0.0
  0
LINE
  5
EA
100
AcDbEntity
  8
V0-VYPLNE
100
AcDbLine
 10
-44.309699
 20
-652.526445
 30
0.0
 11
-26.172036
 21
-652.526445
 31
0.0
  0
LINE
  5
EB
100
AcDbEntity
  8
V0-VYPLNE
100
AcDbLine
 10
-43.355083
 20
-132.526445
 30
0.0
 11
-24.262807
 21
-132.526445
 31
0.0
  0
LINE
  5
EC
100
AcDbEntity
  8
V0-OBRYS
100
AcDbLine
 10
-31.52157
 20
-122.526445
 30
0.0
 11
-36.52157
 21
-122.526445
 31
0.0
  0
DIMENSION
  5
F5
100
AcDbEntity
  8
V0-VYPLNE
  6
CONTINUOUS
 62
    41
100
AcDbDimension
  2
*D6
 10
59.809347
 20
-19.9019
 30
0.0
 11
59.809347
 21
144.580963
 31
0.0
 70
   160
  3
ED20
100
AcDbAlignedDimension
 13
176.451507
 23
320.0981
 33
0.0
 14
176.451507
 24
-19.9019
 34
0.0
 50
90.0
100
AcDbRotatedDimension
  0
DIMENSION
  5
F6
100
AcDbEntity
  8
V0-VYPLNE
  6
CONTINUOUS
 62
    41
100
AcDbDimension
  2
*D5
 10
97.998723
 20
-9.9019
 30
0.0
 11
97.998723
 21
148.472546
 31
0.0
 70
   160
  3
ED20
100
AcDbAlignedDimension
 13
157.975492
 23
310.0981
 33
0.0
 14
156.451507
 24
-9.9019
 34
0.0
 50
90.0
100
AcDbRotatedDimension
  0
DIMENSION
  5
F7
100
AcDbEntity
  8
V0-VYPLNE
  6
CONTINUOUS
 62
    41
100
AcDbDimension
  2
*D3
 10
696.451507
 20
-121.697201
 30
0.0
 11
422.299206
 21
-121.697201
 31
0.0
 12
0.0
 22
-25.0
 32
0.0
 70
   160
  3
ED20
100
AcDbAlignedDimension
 13
156.451507
 23
0.0981
 33
0.0
 14
696.451507
 24
0.0981
 34
0.0
100
AcDbRotatedDimension
  0
DIMENSION
  5
F8
100
AcDbEntity
  8
V0-VYPLNE
  6
CONTINUOUS
 62
    41
100
AcDbDimension
  2
*D2
 10
686.451507
 20
-86.605332
 30
0.0
 11
424.246582
 21
-86.605332
 31
0.0
 12
0.0
 22
-25.0
 32
0.0
 70
   160
  3
ED20
100
AcDbAlignedDimension
 13
166.451507
 23
-19.9019
 33
0.0
 14
686.451507
 24
-18.230218
 34
0.0
100
AcDbRotatedDimension
  0
LEADER
  5
FF
100
AcDbEntity
  8
V0-VYPLNE
  6
CONTINUOUS
 62
    41
100
AcDbLeader
  3
ED20
 73
     0
 75
     1
 40
53.333333
 41
27.43187
 76
     3
 10
163.634085
 20
-13.52472
 30
0.0
 10
132.827821
 20
-53.768516
 30
0.0
 10
117.827821
 20
-53.768516
 30
0.0
 77
    41
340
100
  0
MTEXT
  5
100
102
{ACAD_REACTORS
330
FF
102
}
100
AcDbEntity
  8
V0-VYPLNE
  6
CONTINUOUS
 62
    41
100
AcDbMText
 10
115.827821
 20
-25.101849
 30
0.0
 40
20.0
 41
0.0
 71
     6
 72
     1
  1
\A1;\P%%c9
  7
ED20
  0
DIMENSION
  5
104
100
AcDbEntity
  8
V0-VYPLNE
  6
CONTINUOUS
 62
    41
100
AcDbDimension
  2
*D4
 10
130.148435
 20
0.0981
 30
0.0
 11
118.148435
 21
150.0981
 31
0.0
 70
    32
  3
ED20
100
AcDbAlignedDimension
 13
156.451507
 23
300.0981
 33
0.0
 14
156.451507
 24
0.0981
 34
0.0
 50
90.0
100
AcDbRotatedDimension
  0
DIMENSION
  5
105
100
AcDbEntity
  8
V0-VYPLNE
  6
CONTINUOUS
 62
    41
100
AcDbDimension
  2
*D1
 10
676.451507
 20
-55.89865
 30
0.0
 11
426.451507
 21
-18.89865
 31
0.0
 12
0.0
 22
-25.0
 32
0.0
 70
    32
  3
ED20
100
AcDbAlignedDimension
 13
176.451507
 23
-19.9019
 33
0.0
 14
676.451507
 24
-19.9019
 34
0.0
100
AcDbRotatedDimension
  0
POINT
  5
35E
100
AcDbEntity
  8
0
  6
DASHED
 62
    63
 48
3.0
100
AcDbPoint
 10
426.451507
 20
150.0981
 30
0.0
  0
LINE
  5
3B7
100
AcDbEntity
  8
V0-OBRYS
  6
CONTINUOUS
 48
3.0
100
AcDbLine
 10
-31.52157
 20
300.0981
 30
0.0
 11
-56.52157
 21
300.0981
 31
0.0
  0
LINE
  5
3B8
100
AcDbEntity
  8
V0-OBRYS
  6
CONTINUOUS
 48
3.0
100
AcDbLine
 10
176.451507
 20
0.0981
 30
0.0
 11
156.451507
 21
0.0981
 31
0.0
  0
LINE
  5
3B9
100
AcDbEntity
  8
V0-OBRYS
  6
CONTINUOUS
 48
3.0
100
AcDbLine
 10
-36.52157
 20
300.0981
 30
0.0
 11
-56.52157
 21
300.0981
 31
0.0
  0
LINE
  5
3BA
100
AcDbEntity
  8
V0-OBRYS
  6
CONTINUOUS
 48
3.0
100
AcDbLine
 10
-56.52157
 20
300.0981
 30
0.0
 11
-56.52157
 21
0.0981
 31
0.0
  0
LINE
  5
3BB
100
AcDbEntity
  8
V0-OBRYS
  6
CONTINUOUS
 48
3.0
100
AcDbLine
 10
-31.52157
 20
0.0981
 30
0.0
 11
-56.52157
 21
0.0981
 31
0.0
  0
LINE
  5
3BC
100
AcDbEntity
  8
V0-OBRYS
  6
CONTINUOUS
 48
3.0
100
AcDbLine
 10
-36.52157
 20
-122.526445
 30
0.0
 11
-36.52157
 21
-142.526445
 31
0.0
  0
LINE
  5
3BD
100
AcDbEntity
  8
V0-OBRYS
  6
CONTINUOUS
 48
3.0
100
AcDbLine
 10
-36.52157
 20
-142.526445
 30
0.0
 11
-56.52157
 21
-142.526445
 31
0.0
  0
LINE
  5
3BE
100
AcDbEntity
  8
V0-OBRYS
  6
CONTINUOUS
 48
3.0
100
AcDbLine
 10
-56.52157
 20
-142.526445
 30
0.0
 11
-56.52157
 21
-642.526445
 31
0.0
  0
LINE
  5
3BF
100
AcDbEntity
  8
V0-OBRYS
  6
CONTINUOUS
 48
3.0
100
AcDbLine
 10
-36.52157
 20
-642.526445
 30
0.0
 11
-56.52157
 21
-642.526445
 31
0.0
  0
DIMENSION
  5
404
100
AcDbEntity
  8
V0-ZBYTEK
  6
CONTINUOUS
 62
    41
 48
3.0
100
AcDbDimension
  2
*D7
 10
-36.52157
 20
-58.811499
 30
0.0
 11
6.740241
 21
-21.809531
 31
0.0
 12
-42.973076
 22
-25.0
 32
0.0
 70
    32
  3
ED20
100
AcDbAlignedDimension
 13
-56.52157
 23
0.0981
 33
0.0
 14
-36.52157
 24
0.0981
 34
0.0
100
AcDbRotatedDimension
  0
ENDSEC
  0
SECTION
  2
OBJECTS
  0
DICTIONARY
  5
C
100
AcDbDictionary
  3
ACAD_GROUP
350
D
  3
ACAD_MLINESTYLE
350
E
  3
ACDBVARIABLEDICTIONARY
350
249
  0
DICTIONARY
  5
D
102
{ACAD_REACTORS
330
C
102
}
100
AcDbDictionary
  0
DICTIONARY
  5
E
102
{ACAD_REACTORS
330
C
102
}
100
AcDbDictionary
  3
STANDARD
350
1C
  0
DICTIONARY
  5
249
102
{ACAD_REACTORS
330
C
102
}
100
AcDbDictionary
  3
SORTENTS
350
24A
  0
MLINESTYLE
  5
1C
102
{ACAD_REACTORS
330
E
102
}
100
AcDbMlineStyle
  2
STANDARD
 70
     0
  3

 62
     0
 51
90.0
 52
90.0
 71
     2
 49
0.5
 62
   256
  6
BYLAYER
 49
-0.5
 62
   256
  6
BYLAYER
  0
DICTIONARYVAR
  5
24A
102
{ACAD_REACTORS
330
249
102
}
100
DictionaryVariables
280
     0
  1
96
  0
ENDSEC
  0
EOF
