  0
SECTION
  2
HEADER
  9
$ACADVER
  1
AC1014
  9
$ACADMAINTVER
 70
     0
  9
$DWGCODEPAGE
  3
ANSI_1250
  9
$INSBASE
 10
0.0
 20
0.0
 30
0.0
  9
$EXTMIN
 10
15.515052
 20
-981.803229
 30
0.0
  9
$EXTMAX
 10
1320.744755
 20
325.336313
 30
0.0
  9
$LIMMIN
 10
0.0
 20
0.0
  9
$LIMMAX
 10
420.0
 20
297.0
  9
$ORTHOMODE
 70
     1
  9
$REGENMODE
 70
     1
  9
$FILLMODE
 70
     1
  9
$QTEXTMODE
 70
     0
  9
$MIRRTEXT
 70
     1
  9
$DRAGMODE
 70
     2
  9
$LTSCALE
 40
1.0
  9
$OSMODE
 70
    37
  9
$ATTMODE
 70
     1
  9
$TEXTSIZE
 40
2.5
  9
$TRACEWID
 40
1.0
  9
$TEXTSTYLE
  7
STANDARD
  9
$CLAYER
  8
0
  9
$CELTYPE
  6
BYLAYER
  9
$CECOLOR
 62
   256
  9
$CELTSCALE
 40
1.0
  9
$DELOBJ
 70
     1
  9
$DISPSILH
 70
     0
  9
$DIMSCALE
 40
1.0
  9
$DIMASZ
 40
25.0
  9
$DIMEXO
 40
0.625
  9
$DIMDLI
 40
3.75
  9
$DIMRND
 40
0.0
  9
$DIMDLE
 40
0.0
  9
$DIMEXE
 40
1.25
  9
$DIMTP
 40
0.0
  9
$DIMTM
 40
0.0
  9
$DIMTXT
 40
25.0
  9
$DIMCEN
 40
2.5
  9
$DIMTSZ
 40
0.0
  9
$DIMTOL
 70
     0
  9
$DIMLIM
 70
     0
  9
$DIMTIH
 70
     0
  9
$DIMTOH
 70
     0
  9
$DIMSE1
 70
     0
  9
$DIMSE2
 70
     0
  9
$DIMTAD
 70
     1
  9
$DIMZIN
 70
     8
  9
$DIMBLK
  1

  9
$DIMASO
 70
     1
  9
$DIMSHO
 70
     1
  9
$DIMPOST
  1

  9
$DIMAPOST
  1

  9
$DIMALT
 70
     0
  9
$DIMALTD
 70
     4
  9
$DIMALTF
 40
0.0394
  9
$DIMLFAC
 40
1.0
  9
$DIMTOFL
 70
     0
  9
$DIMTVP
 40
0.0
  9
$DIMTIX
 70
     0
  9
$DIMSOXD
 70
     0
  9
$DIMSAH
 70
     1
  9
$DIMBLK1
  1
_OPEN
  9
$DIMBLK2
  1
_OPEN
  9
$DIMSTYLE
  2
STANDARD
  9
$DIMCLRD
 70
     0
  9
$DIMCLRE
 70
     0
  9
$DIMCLRT
 70
     0
  9
$DIMTFAC
 40
1.0
  9
$DIMGAP
 40
3.0
  9
$DIMJUST
 70
     0
  9
$DIMSD1
 70
     0
  9
$DIMSD2
 70
     0
  9
$DIMTOLJ
 70
     1
  9
$DIMTZIN
 70
     0
  9
$DIMALTZ
 70
     0
  9
$DIMALTTZ
 70
     0
  9
$DIMFIT
 70
     3
  9
$DIMUPT
 70
     0
  9
$DIMUNIT
 70
     2
  9
$DIMDEC
 70
     0
  9
$DIMTDEC
 70
     4
  9
$DIMALTU
 70
     8
  9
$DIMALTTD
 70
     4
  9
$DIMTXSTY
  7
STANDARD
  9
$DIMAUNIT
 70
     0
  9
$LUNITS
 70
     2
  9
$LUPREC
 70
     4
  9
$SKETCHINC
 40
1.0
  9
$FILLETRAD
 40
10.0
  9
$AUNITS
 70
     0
  9
$AUPREC
 70
     0
  9
$MENU
  1
.
  9
$ELEVATION
 40
0.0
  9
$PELEVATION
 40
0.0
  9
$THICKNESS
 40
0.0
  9
$LIMCHECK
 70
     0
  9
$BLIPMODE
 70
     0
  9
$CHAMFERA
 40
10.0
  9
$CHAMFERB
 40
10.0
  9
$CHAMFERC
 40
20.0
  9
$CHAMFERD
 40
0.0
  9
$SKPOLY
 70
     0
  9
$TDCREATE
 40
2451201.446247917
  9
$TDUPDATE
 40
2453315.455659363
  9
$TDINDWG
 40
0.1807361806
  9
$TDUSRTIMER
 40
0.1807361806
  9
$USRTIMER
 70
     1
  9
$ANGBASE
 50
0.0
  9
$ANGDIR
 70
     0
  9
$PDMODE
 70
     3
  9
$PDSIZE
 40
20.0
  9
$PLINEWID
 40
0.0
  9
$COORDS
 70
     1
  9
$SPLFRAME
 70
     0
  9
$SPLINETYPE
 70
     6
  9
$SPLINESEGS
 70
     8
  9
$ATTDIA
 70
     0
  9
$ATTREQ
 70
     1
  9
$HANDLING
 70
     1
  9
$HANDSEED
  5
DEE
  9
$SURFTAB1
 70
     6
  9
$SURFTAB2
 70
     6
  9
$SURFTYPE
 70
     6
  9
$SURFU
 70
     6
  9
$SURFV
 70
     6
  9
$UCSNAME
  2

  9
$UCSORG
 10
95.0
 20
-613.9684415448591
 30
0.0
  9
$UCSXDIR
 10
1.0
 20
0.0
 30
0.0
  9
$UCSYDIR
 10
0.0
 20
1.0
 30
0.0
  9
$PUCSNAME
  2

  9
$PUCSORG
 10
0.0
 20
0.0
 30
0.0
  9
$PUCSXDIR
 10
1.0
 20
0.0
 30
0.0
  9
$PUCSYDIR
 10
0.0
 20
1.0
 30
0.0
  9
$USERI1
 70
     0
  9
$USERI2
 70
     0
  9
$USERI3
 70
     0
  9
$USERI4
 70
     0
  9
$USERI5
 70
     0
  9
$USERR1
 40
0.0
  9
$USERR2
 40
0.0
  9
$USERR3
 40
0.0
  9
$USERR4
 40
0.0
  9
$USERR5
 40
0.0
  9
$WORLDVIEW
 70
     1
  9
$SHADEDGE
 70
     3
  9
$SHADEDIF
 70
    70
  9
$TILEMODE
 70
     1
  9
$MAXACTVP
 70
    48
  9
$PINSBASE
 10
0.0
 20
0.0
 30
0.0
  9
$PLIMCHECK
 70
     0
  9
$PEXTMIN
 10
1.000000E+20
 20
1.000000E+20
 30
1.000000E+20
  9
$PEXTMAX
 10
-1.000000E+20
 20
-1.000000E+20
 30
-1.000000E+20
  9
$PLIMMIN
 10
0.0
 20
0.0
  9
$PLIMMAX
 10
420.0
 20
297.0
  9
$UNITMODE
 70
     0
  9
$VISRETAIN
 70
     1
  9
$PLINEGEN
 70
     0
  9
$PSLTSCALE
 70
     1
  9
$TREEDEPTH
 70
  3020
  9
$PICKSTYLE
 70
     1
  9
$CMLSTYLE
  2
STANDARD
  9
$CMLJUST
 70
     1
  9
$CMLSCALE
 40
22.0
  9
$PROXYGRAPHICS
 70
     1
  9
$MEASUREMENT
 70
     1
  0
ENDSEC
  0
SECTION
  2
CLASSES
  0
ENDSEC
  0
SECTION
  2
TABLES
  0
TABLE
  2
VPORT
  5
8
100
AcDbSymbolTable
 70
     2
  0
VPORT
  5
DED
100
AcDbSymbolTableRecord
100
AcDbViewportTableRecord
  2
*ACTIVE
 70
     0
 10
0.0
 20
0.0
 11
1.0
 21
1.0
 12
668.123378
 22
-316.429427
 13
0.0
 23
0.0
 14
10.0
 24
10.0
 15
10.0
 25
10.0
 16
0.0
 26
0.0
 36
1.0
 17
0.0
 27
0.0
 37
0.0
 40
1346.130763
 41
1.523346
 42
50.0
 43
0.0
 44
0.0
 50
0.0
 51
0.0
 71
     0
 72
   100
 73
     1
 74
     1
 75
     0
 76
     0
 77
     0
 78
     0
  0
ENDTAB
  0
TABLE
  2
LTYPE
  5
5
100
AcDbSymbolTable
 70
     2
  0
LTYPE
  5
12
100
AcDbSymbolTableRecord
100
AcDbLinetypeTableRecord
  2
BYBLOCK
 70
     0
  3

 72
    65
 73
     0
 40
0.0
  0
LTYPE
  5
13
100
AcDbSymbolTableRecord
100
AcDbLinetypeTableRecord
  2
BYLAYER
 70
     0
  3

 72
    65
 73
     0
 40
0.0
  0
LTYPE
  5
14
100
AcDbSymbolTableRecord
100
AcDbLinetypeTableRecord
  2
CONTINUOUS
 70
     0
  3
Solid line
 72
    65
 73
     0
 40
0.0
  0
LTYPE
  5
75
100
AcDbSymbolTableRecord
100
AcDbLinetypeTableRecord
  2
DASHDOT
 70
     0
  3
__ . __ . __ . __ . __ . __ . __ . __ . __ . __
 72
    65
 73
     4
 40
1.0
 49
0.5
 74
     0
 49
-0.25
 74
     0
 49
0.0
 74
     0
 49
-0.25
 74
     0
  0
ENDTAB
  0
TABLE
  2
LAYER
  5
2
100
AcDbSymbolTable
 70
     6
  0
LAYER
  5
E
100
AcDbSymbolTableRecord
100
AcDbLayerTableRecord
  2
0
 70
     0
 62
     7
  6
CONTINUOUS
  0
LAYER
  5
242
100
AcDbSymbolTableRecord
100
AcDbLayerTableRecord
  2
DEFPOINTS
 70
     0
 62
    52
  6
CONTINUOUS
  0
LAYER
  5
C77
100
AcDbSymbolTableRecord
100
AcDbLayerTableRecord
  2
V0-OBRYS
 70
     0
 62
    90
  6
CONTINUOUS
  0
LAYER
  5
C78
100
AcDbSymbolTableRecord
100
AcDbLayerTableRecord
  2
V0-VYPLNE
 70
     0
 62
    52
  6
CONTINUOUS
  0
LAYER
  5
C79
100
AcDbSymbolTableRecord
100
AcDbLayerTableRecord
  2
V0-NAZVY
 70
     0
 62
   210
  6
CONTINUOUS
  0
LAYER
  5
C7A
100
AcDbSymbolTableRecord
100
AcDbLayerTableRecord
  2
V0-ZBYTEK
 70
     0
 62
    51
  6
CONTINUOUS
  0
ENDTAB
  0
TABLE
  2
STYLE
  5
3
100
AcDbSymbolTable
 70
     2
  0
STYLE
  5
F
100
AcDbSymbolTableRecord
100
AcDbTextStyleTableRecord
  2
STANDARD
 70
     0
 40
0.0
 41
1.0
 50
0.0
 71
     0
 42
2.5
  3
txt
  4

  0
STYLE
  5
93
100
AcDbSymbolTableRecord
100
AcDbTextStyleTableRecord
  2
SIMPLEX
 70
     0
 40
0.0
 41
1.0
 50
0.0
 71
     0
 42
0.2
  3
SIMPLEX
  4

  0
ENDTAB
  0
TABLE
  2
VIEW
  5
6
100
AcDbSymbolTable
 70
     0
  0
ENDTAB
  0
TABLE
  2
UCS
  5
7
100
AcDbSymbolTable
 70
     0
  0
ENDTAB
  0
TABLE
  2
APPID
  5
9
100
AcDbSymbolTable
 70
     1
  0
APPID
  5
10
100
AcDbSymbolTableRecord
100
AcDbRegAppTableRecord
  2
ACAD
 70
     0
  0
ENDTAB
  0
TABLE
  2
DIMSTYLE
  5
A
100
AcDbSymbolTable
 70
     1
  0
DIMSTYLE
105
1D
102
{ACAD_REACTORS
330
26E
330
286
330
90C
330
984
330
991
330
A00
330
A24
102
}
100
AcDbSymbolTableRecord
100
AcDbDimStyleTableRecord
  2
STANDARD
 70
     0
  3

  4

  5

  6

  7

 40
1.0
 41
0.18
 42
0.0625
 43
0.38
 44
0.18
 45
0.0
 46
0.0
 47
0.0
 48
0.0
140
0.18
141
0.09
142
0.0
143
25.4
144
1.0
145
0.0
146
1.0
147
0.09
 71
     0
 72
     0
 73
     1
 74
     1
 75
     0
 76
     0
 77
     0
 78
     0
170
     0
171
     2
172
     0
173
     0
174
     0
175
     0
176
     0
177
     0
178
     0
270
     2
271
     4
272
     4
273
     2
274
     2
340
F
275
     0
280
     0
281
     0
282
     0
283
     1
284
     0
285
     0
286
     0
287
     3
288
     0
  0
ENDTAB
  0
TABLE
  2
BLOCK_RECORD
  5
1
100
AcDbSymbolTable
 70
     8
  0
BLOCK_RECORD
  5
18
100
AcDbSymbolTableRecord
100
AcDbBlockTableRecord
  2
*MODEL_SPACE
  0
BLOCK_RECORD
  5
15
100
AcDbSymbolTableRecord
100
AcDbBlockTableRecord
  2
*PAPER_SPACE
  0
BLOCK_RECORD
  5
234
100
AcDbSymbolTableRecord
100
AcDbBlockTableRecord
  2
_OPEN
  0
BLOCK_RECORD
  5
262
100
AcDbSymbolTableRecord
100
AcDbBlockTableRecord
  2
*D1
  0
BLOCK_RECORD
  5
27A
100
AcDbSymbolTableRecord
100
AcDbBlockTableRecord
  2
*D2
  0
BLOCK_RECORD
  5
900
100
AcDbSymbolTableRecord
100
AcDbBlockTableRecord
  2
*D3
  0
BLOCK_RECORD
  5
978
100
AcDbSymbolTableRecord
100
AcDbBlockTableRecord
  2
*D4
  0
BLOCK_RECORD
  5
985
100
AcDbSymbolTableRecord
100
AcDbBlockTableRecord
  2
*D5
  0
BLOCK_RECORD
  5
9F4
100
AcDbSymbolTableRecord
100
AcDbBlockTableRecord
  2
*D6
  0
BLOCK_RECORD
  5
A17
100
AcDbSymbolTableRecord
100
AcDbBlockTableRecord
  2
*D7
  0
ENDTAB
  0
ENDSEC
  0
SECTION
  2
BLOCKS
  0
BLOCK
  5
19
100
AcDbEntity
  8
0
100
AcDbBlockBegin
  2
*MODEL_SPACE
 70
     0
 10
0.0
 20
0.0
 30
0.0
  3
*MODEL_SPACE
  1

  0
ENDBLK
  5
1A
100
AcDbEntity
  8
0
100
AcDbBlockEnd
  0
BLOCK
  5
16
100
AcDbEntity
 67
     1
  8
0
100
AcDbBlockBegin
  2
*PAPER_SPACE
 70
     0
 10
0.0
 20
0.0
 30
0.0
  3
*PAPER_SPACE
  1

  0
ENDBLK
  5
17
100
AcDbEntity
 67
     1
  8
0
100
AcDbBlockEnd
  0
BLOCK
  5
235
100
AcDbEntity
  8
0
100
AcDbBlockBegin
  2
_OPEN
 70
     0
 10
0.0
 20
0.0
 30
0.0
  3
_OPEN
  1

  0
LINE
  5
236
100
AcDbEntity
  8
0
  6
BYBLOCK
 62
     0
100
AcDbLine
 10
-1.0
 20
0.166667
 30
0.0
 11
0.0
 21
0.0
 31
0.0
  0
LINE
  5
237
100
AcDbEntity
  8
0
  6
BYBLOCK
 62
     0
100
AcDbLine
 10
0.0
 20
0.0
 30
0.0
 11
-1.0
 21
-0.166667
 31
0.0
  0
LINE
  5
238
100
AcDbEntity
  8
0
  6
BYBLOCK
 62
     0
100
AcDbLine
 10
0.0
 20
0.0
 30
0.0
 11
-1.0
 21
0.0
 31
0.0
  0
ENDBLK
  5
239
100
AcDbEntity
  8
0
100
AcDbBlockEnd
  0
BLOCK
  5
D75
100
AcDbEntity
  8
0
100
AcDbBlockBegin
  2
*D1
 70
     1
 10
0.0
 20
0.0
 30
0.0
  3
*D1
  1

  0
LINE
  5
D76
100
AcDbEntity
  8
0
  6
BYBLOCK
 62
     0
100
AcDbLine
 10
1214.994966
 20
268.563956
 30
0.0
 11
1262.73038
 21
268.563956
 31
0.0
  0
LINE
  5
D77
100
AcDbEntity
  8
0
  6
BYBLOCK
 62
     0
100
AcDbLine
 10
1212.619966
 20
-265.436044
 30
0.0
 11
1262.73038
 21
-265.436044
 31
0.0
  0
LINE
  5
D78
100
AcDbEntity
  8
0
  6
BYBLOCK
 62
     0
100
AcDbLine
 10
1261.48038
 20
243.563956
 30
0.0
 11
1261.48038
 21
-240.436044
 31
0.0
  0
INSERT
  5
D79
100
AcDbEntity
  8
0
  6
BYBLOCK
 62
     0
100
AcDbBlockReference
  2
_OPEN
 10
1261.48038
 20
268.563956
 30
0.0
 41
25.0
 42
25.0
 43
25.0
 50
90.0
  0
INSERT
  5
D7A
100
AcDbEntity
  8
0
  6
BYBLOCK
 62
     0
100
AcDbBlockReference
  2
_OPEN
 10
1261.48038
 20
-265.436044
 30
0.0
 41
25.0
 42
25.0
 43
25.0
 50
270.0
  0
MTEXT
  5
D7B
100
AcDbEntity
  8
0
  6
BYBLOCK
 62
     0
100
AcDbMText
 10
1245.98038
 20
1.563956
 30
0.0
 40
25.0
 41
0.0
 71
     5
 72
     1
  1
\A1;534
 11
0.0
 21
1.0
 31
0.0
  0
POINT
  5
D7C
100
AcDbEntity
  8
DEFPOINTS
  6
BYBLOCK
 62
     0
100
AcDbPoint
 10
1214.369966
 20
268.563956
 30
0.0
  0
POINT
  5
D7D
100
AcDbEntity
  8
DEFPOINTS
  6
BYBLOCK
 62
     0
100
AcDbPoint
 10
1211.994966
 20
-265.436044
 30
0.0
  0
POINT
  5
D7E
100
AcDbEntity
  8
DEFPOINTS
  6
BYBLOCK
 62
     0
100
AcDbPoint
 10
1261.48038
 20
-265.436044
 30
0.0
  0
ENDBLK
  5
D7F
100
AcDbEntity
  8
0
100
AcDbBlockEnd
  0
BLOCK
  5
DD8
100
AcDbEntity
  8
0
100
AcDbBlockBegin
  2
*D2
 70
     1
 10
0.0
 20
0.0
 30
0.0
  3
*D2
  1

  0
LINE
  5
DD9
100
AcDbEntity
  8
0
  6
BYBLOCK
 62
     0
100
AcDbLine
 10
773.119966
 20
250.604376
 30
0.0
 11
773.119966
 21
298.586313
 31
0.0
  0
LINE
  5
DDA
100
AcDbEntity
  8
0
  6
BYBLOCK
 62
     0
100
AcDbLine
 10
1173.119966
 20
250.604376
 30
0.0
 11
1173.119966
 21
298.586313
 31
0.0
  0
LINE
  5
DDB
100
AcDbEntity
  8
0
  6
BYBLOCK
 62
     0
100
AcDbLine
 10
798.119966
 20
297.336313
 30
0.0
 11
1148.119966
 21
297.336313
 31
0.0
  0
INSERT
  5
DDC
100
AcDbEntity
  8
0
  6
BYBLOCK
 62
     0
100
AcDbBlockReference
  2
_OPEN
 10
773.119966
 20
297.336313
 30
0.0
 41
25.0
 42
25.0
 43
25.0
 50
180.0
  0
INSERT
  5
DDD
100
AcDbEntity
  8
0
  6
BYBLOCK
 62
     0
100
AcDbBlockReference
  2
_OPEN
 10
1173.119966
 20
297.336313
 30
0.0
 41
25.0
 42
25.0
 43
25.0
  0
MTEXT
  5
DDE
100
AcDbEntity
  8
0
  6
BYBLOCK
 62
     0
100
AcDbMText
 10
973.119966
 20
312.836313
 30
0.0
 40
25.0
 41
0.0
 71
     5
 72
     1
  1
\A1;400
  0
POINT
  5
DDF
100
AcDbEntity
  8
DEFPOINTS
  6
BYBLOCK
 62
     0
100
AcDbPoint
 10
773.119966
 20
249.979376
 30
0.0
  0
POINT
  5
DE0
100
AcDbEntity
  8
DEFPOINTS
  6
BYBLOCK
 62
     0
100
AcDbPoint
 10
1173.119966
 20
249.979376
 30
0.0
  0
POINT
  5
DE1
100
AcDbEntity
  8
DEFPOINTS
  6
BYBLOCK
 62
     0
100
AcDbPoint
 10
1173.119966
 20
297.336313
 30
0.0
  0
ENDBLK
  5
DE2
100
AcDbEntity
  8
0
100
AcDbBlockEnd
  0
BLOCK
  5
D80
100
AcDbEntity
  8
0
100
AcDbBlockBegin
  2
*D3
 70
     1
 10
0.0
 20
0.0
 30
0.0
  3
*D3
  1

  0
LINE
  5
D81
100
AcDbEntity
  8
0
  6
BYBLOCK
 62
     0
100
AcDbLine
 10
733.619966
 20
-266.061044
 30
0.0
 11
733.619966
 21
-331.172098
 31
0.0
  0
LINE
  5
D82
100
AcDbEntity
  8
0
  6
BYBLOCK
 62
     0
100
AcDbLine
 10
1212.619966
 20
-266.061044
 30
0.0
 11
1212.619966
 21
-331.172098
 31
0.0
  0
LINE
  5
D83
100
AcDbEntity
  8
0
  6
BYBLOCK
 62
     0
100
AcDbLine
 10
758.619966
 20
-329.922098
 30
0.0
 11
1187.619966
 21
-329.922098
 31
0.0
  0
INSERT
  5
D84
100
AcDbEntity
  8
0
  6
BYBLOCK
 62
     0
100
AcDbBlockReference
  2
_OPEN
 10
733.619966
 20
-329.922098
 30
0.0
 41
25.0
 42
25.0
 43
25.0
 50
180.0
  0
INSERT
  5
D85
100
AcDbEntity
  8
0
  6
BYBLOCK
 62
     0
100
AcDbBlockReference
  2
_OPEN
 10
1212.619966
 20
-329.922098
 30
0.0
 41
25.0
 42
25.0
 43
25.0
  0
MTEXT
  5
D86
100
AcDbEntity
  8
0
  6
BYBLOCK
 62
     0
100
AcDbMText
 10
973.119966
 20
-314.422098
 30
0.0
 40
25.0
 41
0.0
 71
     5
 72
     1
  1
\A1;479
  0
POINT
  5
D87
100
AcDbEntity
  8
DEFPOINTS
  6
BYBLOCK
 62
     0
100
AcDbPoint
 10
733.619966
 20
-265.436044
 30
0.0
  0
POINT
  5
D88
100
AcDbEntity
  8
DEFPOINTS
  6
BYBLOCK
 62
     0
100
AcDbPoint
 10
1212.619966
 20
-265.436044
 30
0.0
  0
POINT
  5
D89
100
AcDbEntity
  8
DEFPOINTS
  6
BYBLOCK
 62
     0
100
AcDbPoint
 10
1212.619966
 20
-329.922098
 30
0.0
  0
ENDBLK
  5
D8A
100
AcDbEntity
  8
0
100
AcDbBlockEnd
  0
BLOCK
  5
DC2
100
AcDbEntity
  8
0
100
AcDbBlockBegin
  2
*D4
 70
     1
 10
0.0
 20
0.0
 30
0.0
  3
*D4
  1

  0
LINE
  5
DC3
100
AcDbEntity
  8
0
  6
BYBLOCK
 62
     0
100
AcDbLine
 10
454.625
 20
177.5
 30
0.0
 11
520.148196
 21
177.5
 31
0.0
  0
LINE
  5
DC4
100
AcDbEntity
  8
0
  6
BYBLOCK
 62
     0
100
AcDbLine
 10
454.625
 20
-177.5
 30
0.0
 11
520.148196
 21
-177.5
 31
0.0
  0
LINE
  5
DC5
100
AcDbEntity
  8
0
  6
BYBLOCK
 62
     0
100
AcDbLine
 10
518.898196
 20
152.5
 30
0.0
 11
518.898196
 21
-152.5
 31
0.0
  0
INSERT
  5
DC6
100
AcDbEntity
  8
0
  6
BYBLOCK
 62
     0
100
AcDbBlockReference
  2
_OPEN
 10
518.898196
 20
177.5
 30
0.0
 41
25.0
 42
25.0
 43
25.0
 50
90.0
  0
INSERT
  5
DC7
100
AcDbEntity
  8
0
  6
BYBLOCK
 62
     0
100
AcDbBlockReference
  2
_OPEN
 10
518.898196
 20
-177.5
 30
0.0
 41
25.0
 42
25.0
 43
25.0
 50
270.0
  0
MTEXT
  5
DC8
100
AcDbEntity
  8
0
  6
BYBLOCK
 62
     0
100
AcDbMText
 10
503.398196
 20
0.0
 30
0.0
 40
25.0
 41
0.0
 71
     5
 72
     1
  1
\A1;\U+2205355
 11
0.0
 21
1.0
 31
0.0
  0
POINT
  5
DC9
100
AcDbEntity
  8
DEFPOINTS
  6
BYBLOCK
 62
     0
100
AcDbPoint
 10
454.0
 20
177.5
 30
0.0
  0
POINT
  5
DCA
100
AcDbEntity
  8
DEFPOINTS
  6
BYBLOCK
 62
     0
100
AcDbPoint
 10
454.0
 20
-177.5
 30
0.0
  0
POINT
  5
DCB
100
AcDbEntity
  8
DEFPOINTS
  6
BYBLOCK
 62
     0
100
AcDbPoint
 10
518.898196
 20
-177.5
 30
0.0
  0
ENDBLK
  5
DCC
100
AcDbEntity
  8
0
100
AcDbBlockEnd
  0
BLOCK
  5
DB7
100
AcDbEntity
  8
0
100
AcDbBlockBegin
  2
*D5
 70
     1
 10
0.0
 20
0.0
 30
0.0
  3
*D5
  1

  0
LINE
  5
DB8
100
AcDbEntity
  8
0
  6
BYBLOCK
 62
     0
100
AcDbLine
 10
395.625
 20
261.353683
 30
0.0
 11
573.336849
 21
261.353683
 31
0.0
  0
LINE
  5
DB9
100
AcDbEntity
  8
0
  6
BYBLOCK
 62
     0
100
AcDbLine
 10
390.625
 20
-272.667815
 30
0.0
 11
573.336849
 21
-272.667815
 31
0.0
  0
LINE
  5
DBA
100
AcDbEntity
  8
0
  6
BYBLOCK
 62
     0
100
AcDbLine
 10
572.086849
 20
236.353683
 30
0.0
 11
572.086849
 21
-247.667815
 31
0.0
  0
INSERT
  5
DBB
100
AcDbEntity
  8
0
  6
BYBLOCK
 62
     0
100
AcDbBlockReference
  2
_OPEN
 10
572.086849
 20
261.353683
 30
0.0
 41
25.0
 42
25.0
 43
25.0
 50
90.0
  0
INSERT
  5
DBC
100
AcDbEntity
  8
0
  6
BYBLOCK
 62
     0
100
AcDbBlockReference
  2
_OPEN
 10
572.086849
 20
-272.667815
 30
0.0
 41
25.0
 42
25.0
 43
25.0
 50
270.0
  0
MTEXT
  5
DBD
100
AcDbEntity
  8
0
  6
BYBLOCK
 62
     0
100
AcDbMText
 10
556.586849
 20
-5.657066
 30
0.0
 40
25.0
 41
0.0
 71
     5
 72
     1
  1
\A1;534
 11
0.0
 21
1.0
 31
0.0
  0
POINT
  5
DBE
100
AcDbEntity
  8
DEFPOINTS
  6
BYBLOCK
 62
     0
100
AcDbPoint
 10
395.0
 20
261.353683
 30
0.0
  0
POINT
  5
DBF
100
AcDbEntity
  8
DEFPOINTS
  6
BYBLOCK
 62
     0
100
AcDbPoint
 10
390.0
 20
-272.667815
 30
0.0
  0
POINT
  5
DC0
100
AcDbEntity
  8
DEFPOINTS
  6
BYBLOCK
 62
     0
100
AcDbPoint
 10
572.086849
 20
-272.667815
 30
0.0
  0
ENDBLK
  5
DC1
100
AcDbEntity
  8
0
100
AcDbBlockEnd
  0
BLOCK
  5
DA1
100
AcDbEntity
  8
0
100
AcDbBlockBegin
  2
*D6
 70
     1
 10
0.0
 20
0.0
 30
0.0
  3
*D6
  1

  0
LINE
  5
DA2
100
AcDbEntity
  8
0
  6
BYBLOCK
 62
     0
100
AcDbLine
 10
25.0
 20
-178.125
 30
0.0
 11
25.0
 21
-362.01832
 31
0.0
  0
LINE
  5
DA3
100
AcDbEntity
  8
0
  6
BYBLOCK
 62
     0
100
AcDbLine
 10
454.625
 20
-178.125
 30
0.0
 11
454.625
 21
-362.01832
 31
0.0
  0
LINE
  5
DA4
100
AcDbEntity
  8
0
  6
BYBLOCK
 62
     0
100
AcDbLine
 10
50.0
 20
-360.76832
 30
0.0
 11
429.625
 21
-360.76832
 31
0.0
  0
INSERT
  5
DA5
100
AcDbEntity
  8
0
  6
BYBLOCK
 62
     0
100
AcDbBlockReference
  2
_OPEN
 10
25.0
 20
-360.76832
 30
0.0
 41
25.0
 42
25.0
 43
25.0
 50
180.0
  0
INSERT
  5
DA6
100
AcDbEntity
  8
0
  6
BYBLOCK
 62
     0
100
AcDbBlockReference
  2
_OPEN
 10
454.625
 20
-360.76832
 30
0.0
 41
25.0
 42
25.0
 43
25.0
  0
MTEXT
  5
DA7
100
AcDbEntity
  8
0
  6
BYBLOCK
 62
     0
100
AcDbMText
 10
240.3125
 20
-345.26832
 30
0.0
 40
25.0
 41
0.0
 71
     5
 72
     1
  1
\A1;430
  0
POINT
  5
DA8
100
AcDbEntity
  8
DEFPOINTS
  6
BYBLOCK
 62
     0
100
AcDbPoint
 10
25.0
 20
-177.5
 30
0.0
  0
POINT
  5
DA9
100
AcDbEntity
  8
DEFPOINTS
  6
BYBLOCK
 62
     0
100
AcDbPoint
 10
454.625
 20
-177.5
 30
0.0
  0
POINT
  5
DAA
100
AcDbEntity
  8
DEFPOINTS
  6
BYBLOCK
 62
     0
100
AcDbPoint
 10
454.625
 20
-360.76832
 30
0.0
  0
ENDBLK
  5
DAB
100
AcDbEntity
  8
0
100
AcDbBlockEnd
  0
BLOCK
  5
D96
100
AcDbEntity
  8
0
100
AcDbBlockBegin
  2
*D7
 70
     1
 10
0.0
 20
0.0
 30
0.0
  3
*D7
  1

  0
LINE
  5
D97
100
AcDbEntity
  8
0
  6
BYBLOCK
 62
     0
100
AcDbLine
 10
25.0
 20
-178.125
 30
0.0
 11
25.0
 21
-317.33512
 31
0.0
  0
LINE
  5
D98
100
AcDbEntity
  8
0
  6
BYBLOCK
 62
     0
100
AcDbLine
 10
90.0
 20
-273.292815
 30
0.0
 11
90.0
 21
-317.33512
 31
0.0
  0
LINE
  5
D99
100
AcDbEntity
  8
0
  6
BYBLOCK
 62
     0
100
AcDbLine
 10
50.0
 20
-316.08512
 30
0.0
 11
65.0
 21
-316.08512
 31
0.0
  0
INSERT
  5
D9A
100
AcDbEntity
  8
0
  6
BYBLOCK
 62
     0
100
AcDbBlockReference
  2
_OPEN
 10
25.0
 20
-316.08512
 30
0.0
 41
25.0
 42
25.0
 43
25.0
 50
180.0
  0
INSERT
  5
D9B
100
AcDbEntity
  8
0
  6
BYBLOCK
 62
     0
100
AcDbBlockReference
  2
_OPEN
 10
90.0
 20
-316.08512
 30
0.0
 41
25.0
 42
25.0
 43
25.0
  0
MTEXT
  5
D9C
100
AcDbEntity
  8
0
  6
BYBLOCK
 62
     0
100
AcDbMText
 10
57.5
 20
-300.58512
 30
0.0
 40
25.0
 41
0.0
 71
     5
 72
     1
  1
\A1;65
  0
POINT
  5
D9D
100
AcDbEntity
  8
DEFPOINTS
  6
BYBLOCK
 62
     0
100
AcDbPoint
 10
25.0
 20
-177.5
 30
0.0
  0
POINT
  5
D9E
100
AcDbEntity
  8
DEFPOINTS
  6
BYBLOCK
 62
     0
100
AcDbPoint
 10
90.0
 20
-272.667815
 30
0.0
  0
POINT
  5
D9F
100
AcDbEntity
  8
DEFPOINTS
  6
BYBLOCK
 62
     0
100
AcDbPoint
 10
90.0
 20
-316.08512
 30
0.0
  0
ENDBLK
  5
DA0
100
AcDbEntity
  8
0
100
AcDbBlockEnd
  0
ENDSEC
  0
SECTION
  2
ENTITIES
  0
LINE
  5
124
100
AcDbEntity
  8
V0-VYPLNE
  6
DASHDOT
 62
    63
 48
20.0
100
AcDbLine
 10
469.195923
 20
0.0
 30
0.0
 11
17.080452
 21
0.0
 31
0.0
  0
LINE
  5
125
100
AcDbEntity
  8
V0-VYPLNE
  6
DASHDOT
 62
    63
 48
20.0
100
AcDbLine
 10
464.195923
 20
-757.247702
 30
0.0
 11
17.080452
 21
-757.247702
 31
0.0
  0
TEXT
  5
126
100
AcDbEntity
  8
V0-ZBYTEK
  6
CONTINUOUS
 62
    51
100
AcDbText
 10
710.895935
 20
-800.121485
 30
0.0
 40
22.5
  1
PRO KRUHOVA POTRUBI
  7
SIMPLEX
 72
     1
 11
912.860221
 21
-800.121485
 31
0.0
100
AcDbText
  0
TEXT
  5
127
100
AcDbEntity
  8
V0-ZBYTEK
  6
CONTINUOUS
 62
   130
100
AcDbText
 10
696.607564
 20
-748.799723
 30
0.0
 40
37.5
  1
VODNI OHRIVAC
  7
SIMPLEX
 72
     1
 11
912.678992
 21
-748.799723
 31
0.0
100
AcDbText
  0
LINE
  5
128
100
AcDbEntity
  8
V0-VYPLNE
  6
CONTINUOUS
 62
    52
100
AcDbLine
 10
245.557556
 20
-756.828665
 30
0.0
 11
245.557556
 21
-728.438772
 31
0.0
  0
LINE
  5
129
100
AcDbEntity
  8
V0-VYPLNE
  6
CONTINUOUS
 62
    52
100
AcDbLine
 10
245.557556
 20
-728.438772
 30
0.0
 11
279.635498
 21
-758.498678
 31
0.0
  0
LINE
  5
12A
100
AcDbEntity
  8
V0-VYPLNE
  6
CONTINUOUS
 62
    52
100
AcDbLine
 10
243.934814
 20
-0.572205
 30
0.0
 11
243.934814
 21
27.817688
 31
0.0
  0
LINE
  5
12B
100
AcDbEntity
  8
V0-VYPLNE
  6
CONTINUOUS
 62
    52
100
AcDbLine
 10
243.934814
 20
27.817688
 30
0.0
 11
278.012756
 21
-2.242249
 31
0.0
  0
LINE
  5
12C
100
AcDbEntity
  8
V0-VYPLNE
  6
CONTINUOUS
 62
    52
100
AcDbLine
 10
243.934814
 20
0.0
 30
0.0
 11
243.934814
 21
-28.389893
 31
0.0
  0
LINE
  5
12D
100
AcDbEntity
  8
V0-VYPLNE
  6
CONTINUOUS
 62
    52
100
AcDbLine
 10
243.934814
 20
-28.389893
 30
0.0
 11
278.012756
 21
1.669983
 31
0.0
  0
LINE
  5
132
100
AcDbEntity
  8
V0-OBRYS
  6
CONTINUOUS
 62
    90
100
AcDbLine
 10
90.0
 20
0.0
 30
0.0
 11
90.0
 21
251.353683
 31
0.0
  0
LINE
  5
133
100
AcDbEntity
  8
V0-OBRYS
  6
CONTINUOUS
 62
    90
100
AcDbLine
 10
84.513985
 20
261.0
 30
0.0
 11
85.0
 21
261.0
 31
0.0
  0
LINE
  5
134
100
AcDbEntity
  8
V0-OBRYS
  6
CONTINUOUS
 62
    90
100
AcDbLine
 10
85.0
 20
261.0
 30
0.0
 11
85.0
 21
251.353683
 31
0.0
  0
LINE
  5
135
100
AcDbEntity
  8
V0-OBRYS
  6
CONTINUOUS
 62
    90
100
AcDbLine
 10
395.0
 20
261.0
 30
0.0
 11
395.0
 21
251.353683
 31
0.0
  0
LINE
  5
136
100
AcDbEntity
  8
V0-OBRYS
  6
CONTINUOUS
 62
    90
100
AcDbLine
 10
85.0
 20
251.353683
 30
0.0
 11
395.0
 21
251.353683
 31
0.0
  0
LINE
  5
137
100
AcDbEntity
  8
V0-OBRYS
  6
CONTINUOUS
 62
    90
100
AcDbLine
 10
395.0
 20
261.353683
 30
0.0
 11
85.0
 21
261.353683
 31
0.0
  0
LINE
  5
13C
100
AcDbEntity
  8
V0-OBRYS
  6
CONTINUOUS
 62
    90
100
AcDbLine
 10
25.0
 20
0.0
 30
0.0
 11
25.0
 21
177.5
 31
0.0
  0
LINE
  5
13D
100
AcDbEntity
  8
V0-OBRYS
  6
CONTINUOUS
 62
    90
100
AcDbLine
 10
34.345802
 20
0.0
 30
0.0
 11
34.345802
 21
180.720367
 31
0.0
  0
LINE
  5
13E
100
AcDbEntity
  8
V0-OBRYS
  6
CONTINUOUS
 62
    90
100
AcDbLine
 10
34.345802
 20
180.720367
 30
0.0
 11
39.130844
 21
180.720367
 31
0.0
  0
LINE
  5
13F
100
AcDbEntity
  8
V0-OBRYS
  6
CONTINUOUS
 62
    90
100
AcDbLine
 10
39.130844
 20
180.720367
 30
0.0
 11
39.130844
 21
-0.100907
 31
0.0
  0
LINE
  5
140
100
AcDbEntity
  8
V0-OBRYS
  6
CONTINUOUS
 62
    90
100
AcDbLine
 10
34.358932
 20
177.5
 30
0.0
 11
25.0
 21
177.5
 31
0.0
  0
LINE
  5
141
100
AcDbEntity
  8
V0-OBRYS
  6
CONTINUOUS
 62
    90
100
AcDbLine
 10
39.146248
 20
177.5
 30
0.0
 11
90.0
 21
177.5
 31
0.0
  0
LINE
  5
142
100
AcDbEntity
  8
V0-OBRYS
  6
CONTINUOUS
 62
    90
100
AcDbLine
 10
454.0
 20
0.0
 30
0.0
 11
454.0
 21
177.5
 31
0.0
  0
LINE
  5
143
100
AcDbEntity
  8
V0-OBRYS
  6
CONTINUOUS
 62
    90
100
AcDbLine
 10
444.654205
 20
0.0
 30
0.0
 11
444.654205
 21
180.720367
 31
0.0
  0
LINE
  5
144
100
AcDbEntity
  8
V0-OBRYS
  6
CONTINUOUS
 62
    90
100
AcDbLine
 10
444.654205
 20
180.720367
 30
0.0
 11
439.869141
 21
180.720367
 31
0.0
  0
LINE
  5
145
100
AcDbEntity
  8
V0-OBRYS
  6
CONTINUOUS
 62
    90
100
AcDbLine
 10
439.869141
 20
180.720367
 30
0.0
 11
439.869141
 21
-0.100906
 31
0.0
  0
LINE
  5
146
100
AcDbEntity
  8
V0-OBRYS
  6
CONTINUOUS
 62
    90
100
AcDbLine
 10
444.641052
 20
177.5
 30
0.0
 11
454.0
 21
177.5
 31
0.0
  0
LINE
  5
147
100
AcDbEntity
  8
V0-OBRYS
  6
CONTINUOUS
 62
    90
100
AcDbLine
 10
439.85376
 20
177.5
 30
0.0
 11
390.0
 21
177.5
 31
0.0
  0
LINE
  5
154
100
AcDbEntity
  8
V0-OBRYS
  6
CONTINUOUS
 62
    90
100
AcDbLine
 10
385.0
 20
-532.894018
 30
0.0
 11
90.0
 21
-532.894018
 31
0.0
  0
LINE
  5
155
100
AcDbEntity
  8
V0-OBRYS
  6
CONTINUOUS
 62
    90
100
AcDbLine
 10
90.0
 20
-533.247702
 30
0.0
 11
90.0
 21
-757.247702
 31
0.0
  0
LINE
  5
156
100
AcDbEntity
  8
V0-OBRYS
  6
CONTINUOUS
 62
    90
100
AcDbLine
 10
385.0
 20
-533.247702
 30
0.0
 11
385.0
 21
-757.247702
 31
0.0
  0
LINE
  5
158
100
AcDbEntity
  8
V0-OBRYS
  6
CONTINUOUS
 62
    90
100
AcDbLine
 10
25.0
 20
-757.247702
 30
0.0
 11
25.0
 21
-583.747702
 31
0.0
  0
LINE
  5
159
100
AcDbEntity
  8
V0-OBRYS
  6
CONTINUOUS
 62
    90
100
AcDbLine
 10
34.345802
 20
-757.247702
 30
0.0
 11
34.345802
 21
-583.747702
 31
0.0
  0
LINE
  5
15B
100
AcDbEntity
  8
V0-OBRYS
  6
CONTINUOUS
 62
    90
100
AcDbLine
 10
39.130844
 20
-583.747702
 30
0.0
 11
39.130844
 21
-757.348623
 31
0.0
  0
LINE
  5
15D
100
AcDbEntity
  8
V0-OBRYS
  6
CONTINUOUS
 62
    90
100
AcDbLine
 10
449.0
 20
-757.247702
 30
0.0
 11
449.0
 21
-579.747702
 31
0.0
  0
LINE
  5
15E
100
AcDbEntity
  8
V0-OBRYS
  6
CONTINUOUS
 62
    90
100
AcDbLine
 10
439.654205
 20
-757.247702
 30
0.0
 11
439.654205
 21
-576.527334
 31
0.0
  0
LINE
  5
15F
100
AcDbEntity
  8
V0-OBRYS
  6
CONTINUOUS
 62
    90
100
AcDbLine
 10
439.654205
 20
-576.527334
 30
0.0
 11
434.869141
 21
-576.527334
 31
0.0
  0
LINE
  5
160
100
AcDbEntity
  8
V0-OBRYS
  6
CONTINUOUS
 62
    90
100
AcDbLine
 10
434.869141
 20
-576.527334
 30
0.0
 11
434.869141
 21
-757.348593
 31
0.0
  0
LINE
  5
161
100
AcDbEntity
  8
V0-OBRYS
  6
CONTINUOUS
 62
    90
100
AcDbLine
 10
439.641052
 20
-579.747702
 30
0.0
 11
449.0
 21
-579.747702
 31
0.0
  0
LINE
  5
16F
100
AcDbEntity
  8
V0-VYPLNE
  6
CONTINUOUS
 62
    52
100
AcDbLine
 10
245.557556
 20
-757.666739
 30
0.0
 11
245.557556
 21
-786.056631
 31
0.0
  0
LINE
  5
170
100
AcDbEntity
  8
V0-VYPLNE
  6
CONTINUOUS
 62
    52
100
AcDbLine
 10
245.557556
 20
-786.056631
 30
0.0
 11
279.635498
 21
-755.996725
 31
0.0
  0
LINE
  5
17B
100
AcDbEntity
  8
V0-OBRYS
  6
CONTINUOUS
 62
    90
100
AcDbLine
 10
434.85376
 20
-579.747702
 30
0.0
 11
385.0
 21
-579.747702
 31
0.0
  0
TEXT
  5
17D
100
AcDbEntity
  8
V0-NAZVY
  6
CONTINUOUS
 62
   210
100
AcDbText
 10
139.523768
 20
98.66355
 30
0.0
 40
30.0
  1
MBW-355
  7
SIMPLEX
 72
     1
 11
245.952339
 21
98.66355
 31
0.0
100
AcDbText
  0
TEXT
  5
17E
100
AcDbEntity
  8
V0-NAZVY
  6
CONTINUOUS
 62
   210
100
AcDbText
 10
137.042361
 20
-687.227106
 30
0.0
 40
30.0
  1
MBW-355
  7
SIMPLEX
 72
     1
 11
243.470932
 21
-687.227106
 31
0.0
100
AcDbText
  0
TEXT
  5
17F
100
AcDbEntity
  8
V0-NAZVY
  6
CONTINUOUS
 62
   210
100
AcDbText
 10
674.902141
 20
-655.601341
 30
0.0
 40
67.5
  1
MBW-355
  7
SIMPLEX
 72
     1
 11
914.366426
 21
-655.601341
 31
0.0
100
AcDbText
  0
LINE
  5
180
100
AcDbEntity
  8
V0-OBRYS
  6
CONTINUOUS
 62
    90
100
AcDbLine
 10
730.307761
 20
268.563956
 30
0.0
 11
730.307761
 21
259.12142
 31
0.0
  0
LINE
  5
181
100
AcDbEntity
  8
V0-OBRYS
  6
CONTINUOUS
 62
    90
100
AcDbLine
 10
730.307761
 20
268.563956
 30
0.0
 11
973.119966
 21
268.563956
 31
0.0
  0
LINE
  5
182
100
AcDbEntity
  8
V0-OBRYS
  6
CONTINUOUS
 62
    90
100
AcDbLine
 10
730.307761
 20
258.563956
 30
0.0
 11
973.119966
 21
258.563956
 31
0.0
  0
LINE
  5
186
100
AcDbEntity
  8
V0-OBRYS
  6
CONTINUOUS
 62
    90
100
AcDbLine
 10
743.932761
 20
-255.436044
 30
0.0
 11
743.307761
 21
258.563956
 31
0.0
  0
LINE
  5
187
100
AcDbEntity
  8
V0-OBRYS
  6
CONTINUOUS
 62
    90
100
AcDbLine
 10
1214.369966
 20
268.563956
 30
0.0
 11
1214.369966
 21
259.12142
 31
0.0
  0
LINE
  5
188
100
AcDbEntity
  8
V0-OBRYS
  6
CONTINUOUS
 62
    90
100
AcDbLine
 10
1214.369966
 20
268.563956
 30
0.0
 11
973.119966
 21
268.563956
 31
0.0
  0
LINE
  5
189
100
AcDbEntity
  8
V0-OBRYS
  6
CONTINUOUS
 62
    90
100
AcDbLine
 10
1214.369966
 20
258.563956
 30
0.0
 11
973.119966
 21
258.563956
 31
0.0
  0
TEXT
  5
18E
100
AcDbEntity
  8
V0-NAZVY
  6
CONTINUOUS
 62
   210
100
AcDbText
 10
878.245831
 20
209.198538
 30
0.0
 40
30.0
  1
MBW-355
  7
SIMPLEX
 72
     1
 11
984.674402
 21
209.198538
 31
0.0
100
AcDbText
  0
CIRCLE
  5
18F
100
AcDbEntity
  8
V0-OBRYS
  6
CONTINUOUS
 62
    90
100
AcDbCircle
 10
973.119966
 20
1.563956
 30
0.0
 40
176.944635
  0
CIRCLE
  5
190
100
AcDbEntity
  8
V0-OBRYS
  6
CONTINUOUS
 62
    90
100
AcDbCircle
 10
973.119966
 20
1.563956
 30
0.0
 40
190.372485
  0
LINE
  5
1A4
100
AcDbEntity
  8
V0-VYPLNE
  6
DASHDOT
 62
    63
 48
20.0
100
AcDbLine
 10
731.284882
 20
1.563956
 30
0.0
 11
1170.211707
 21
1.563956
 31
0.0
  0
LINE
  5
1A6
100
AcDbEntity
  8
V0-VYPLNE
  6
DASHDOT
 62
    63
 48
20.0
100
AcDbLine
 10
973.119966
 20
233.635441
 30
0.0
 11
973.119966
 21
-188.80853
 31
0.0
  0
LINE
  5
1AA
100
AcDbEntity
  8
V0-VYPLNE
  6
DASHDOT
 62
    63
 48
20.0
100
AcDbLine
 10
773.119966
 20
249.979376
 30
0.0
 11
773.119966
 21
224.265555
 31
0.0
  0
LINE
  5
1AE
100
AcDbEntity
  8
V0-VYPLNE
  6
DASHDOT
 62
    63
 48
20.0
100
AcDbLine
 10
1173.119966
 20
249.979376
 30
0.0
 11
1173.119966
 21
224.265555
 31
0.0
  0
LINE
  5
1B0
100
AcDbEntity
  8
V0-VYPLNE
  6
CONTINUOUS
 62
    52
100
AcDbLine
 10
856.336534
 20
134.496368
 30
0.0
 11
856.336534
 21
-131.368458
 31
0.0
  0
LINE
  5
1B2
100
AcDbEntity
  8
V0-VYPLNE
  6
CONTINUOUS
 62
    52
100
AcDbLine
 10
898.803247
 20
-159.017569
 30
0.0
 11
898.803247
 21
162.14548
 31
0.0
  0
LINE
  5
1B4
100
AcDbEntity
  8
V0-VYPLNE
  6
CONTINUOUS
 62
    52
100
AcDbLine
 10
882.825837
 20
-148.615052
 30
0.0
 11
898.803264
 21
-148.615052
 31
0.0
  0
LINE
  5
1B5
100
AcDbEntity
  8
V0-VYPLNE
  6
CONTINUOUS
 62
    52
100
AcDbLine
 10
856.336537
 20
-130.920588
 30
0.0
 11
898.803261
 21
-130.920588
 31
0.0
  0
LINE
  5
1B6
100
AcDbEntity
  8
V0-VYPLNE
  6
CONTINUOUS
 62
    52
100
AcDbLine
 10
856.336537
 20
-113.226124
 30
0.0
 11
898.803261
 21
-113.226124
 31
0.0
  0
LINE
  5
1B7
100
AcDbEntity
  8
V0-VYPLNE
  6
CONTINUOUS
 62
    52
100
AcDbLine
 10
856.336537
 20
-95.531661
 30
0.0
 11
898.803261
 21
-95.531661
 31
0.0
  0
LINE
  5
1B8
100
AcDbEntity
  8
V0-VYPLNE
  6
CONTINUOUS
 62
    52
100
AcDbLine
 10
856.336537
 20
-77.837197
 30
0.0
 11
898.803261
 21
-77.837197
 31
0.0
  0
LINE
  5
1B9
100
AcDbEntity
  8
V0-VYPLNE
  6
CONTINUOUS
 62
    52
100
AcDbLine
 10
856.336537
 20
-60.142733
 30
0.0
 11
898.803257
 21
-60.142733
 31
0.0
  0
LINE
  5
1BA
100
AcDbEntity
  8
V0-VYPLNE
  6
CONTINUOUS
 62
    52
100
AcDbLine
 10
856.336536
 20
-42.448269
 30
0.0
 11
898.803257
 21
-42.448269
 31
0.0
  0
LINE
  5
1BB
100
AcDbEntity
  8
V0-VYPLNE
  6
CONTINUOUS
 62
    52
100
AcDbLine
 10
856.336536
 20
-24.753806
 30
0.0
 11
898.803257
 21
-24.753806
 31
0.0
  0
LINE
  5
1BC
100
AcDbEntity
  8
V0-VYPLNE
  6
CONTINUOUS
 62
    52
100
AcDbLine
 10
856.336536
 20
-7.059342
 30
0.0
 11
898.803257
 21
-7.059342
 31
0.0
  0
LINE
  5
1BD
100
AcDbEntity
  8
V0-VYPLNE
  6
CONTINUOUS
 62
    52
100
AcDbLine
 10
856.336536
 20
10.635122
 30
0.0
 11
898.803257
 21
10.635122
 31
0.0
  0
LINE
  5
1BE
100
AcDbEntity
  8
V0-VYPLNE
  6
CONTINUOUS
 62
    52
100
AcDbLine
 10
856.336535
 20
28.329586
 30
0.0
 11
898.803254
 21
28.329586
 31
0.0
  0
LINE
  5
1BF
100
AcDbEntity
  8
V0-VYPLNE
  6
CONTINUOUS
 62
    52
100
AcDbLine
 10
856.336535
 20
46.02405
 30
0.0
 11
898.803254
 21
46.02405
 31
0.0
  0
LINE
  5
1C0
100
AcDbEntity
  8
V0-VYPLNE
  6
CONTINUOUS
 62
    52
100
AcDbLine
 10
856.336535
 20
63.718513
 30
0.0
 11
898.803254
 21
63.718513
 31
0.0
  0
LINE
  5
1C1
100
AcDbEntity
  8
V0-VYPLNE
  6
CONTINUOUS
 62
    52
100
AcDbLine
 10
856.336535
 20
81.412977
 30
0.0
 11
898.803254
 21
81.412977
 31
0.0
  0
LINE
  5
1C2
100
AcDbEntity
  8
V0-VYPLNE
  6
CONTINUOUS
 62
    52
100
AcDbLine
 10
856.336535
 20
99.107441
 30
0.0
 11
898.803247
 21
99.107441
 31
0.0
  0
LINE
  5
1C3
100
AcDbEntity
  8
V0-VYPLNE
  6
CONTINUOUS
 62
    52
100
AcDbLine
 10
856.336534
 20
116.801905
 30
0.0
 11
898.803247
 21
116.801905
 31
0.0
  0
LINE
  5
1C4
100
AcDbEntity
  8
V0-VYPLNE
  6
CONTINUOUS
 62
    52
100
AcDbLine
 10
856.336534
 20
134.496368
 30
0.0
 11
898.803247
 21
134.496368
 31
0.0
  0
LINE
  5
1C5
100
AcDbEntity
  8
V0-VYPLNE
  6
CONTINUOUS
 62
    52
100
AcDbLine
 10
883.513745
 20
152.190832
 30
0.0
 11
898.803247
 21
152.190832
 31
0.0
  0
LINE
  5
1CA
100
AcDbEntity
  8
V0-VYPLNE
  6
CONTINUOUS
 62
    52
100
AcDbLine
 10
835.103097
 20
-109.164374
 30
0.0
 11
835.103097
 21
112.292278
 31
0.0
  0
LINE
  5
1CB
100
AcDbEntity
  8
V0-VYPLNE
  6
CONTINUOUS
 62
    52
100
AcDbLine
 10
829.944121
 20
-100.041287
 30
0.0
 11
835.1031
 21
-100.041287
 31
0.0
  0
LINE
  5
1CC
100
AcDbEntity
  8
V0-VYPLNE
  6
CONTINUOUS
 62
    52
100
AcDbLine
 10
819.938147
 20
-82.346823
 30
0.0
 11
835.103099
 21
-82.346823
 31
0.0
  0
LINE
  5
1CD
100
AcDbEntity
  8
V0-VYPLNE
  6
CONTINUOUS
 62
    52
100
AcDbLine
 10
809.932177
 20
-64.652359
 30
0.0
 11
835.103099
 21
-64.652359
 31
0.0
  0
LINE
  5
1CE
100
AcDbEntity
  8
V0-VYPLNE
  6
CONTINUOUS
 62
    52
100
AcDbLine
 10
803.751107
 20
-46.957896
 30
0.0
 11
835.103099
 21
-46.957896
 31
0.0
  0
LINE
  5
1CF
100
AcDbEntity
  8
V0-VYPLNE
  6
CONTINUOUS
 62
    52
100
AcDbLine
 10
800.98843
 20
-29.263432
 30
0.0
 11
835.103099
 21
-29.263432
 31
0.0
  0
LINE
  5
1D0
100
AcDbEntity
  8
V0-VYPLNE
  6
CONTINUOUS
 62
    52
100
AcDbLine
 10
798.225749
 20
-11.568968
 30
0.0
 11
835.103098
 21
-11.568968
 31
0.0
  0
LINE
  5
1D1
100
AcDbEntity
  8
V0-VYPLNE
  6
CONTINUOUS
 62
    52
100
AcDbLine
 10
797.030024
 20
6.125496
 30
0.0
 11
835.103098
 21
6.125496
 31
0.0
  0
LINE
  5
1D2
100
AcDbEntity
  8
V0-VYPLNE
  6
CONTINUOUS
 62
    52
100
AcDbLine
 10
800.345599
 20
23.81996
 30
0.0
 11
835.103098
 21
23.81996
 31
0.0
  0
LINE
  5
1D3
100
AcDbEntity
  8
V0-VYPLNE
  6
CONTINUOUS
 62
    52
100
AcDbLine
 10
803.661171
 20
41.514423
 30
0.0
 11
835.103098
 21
41.514423
 31
0.0
  0
LINE
  5
1D4
100
AcDbEntity
  8
V0-VYPLNE
  6
CONTINUOUS
 62
    52
100
AcDbLine
 10
806.976744
 20
59.208887
 30
0.0
 11
835.103098
 21
59.208887
 31
0.0
  0
LINE
  5
1D5
100
AcDbEntity
  8
V0-VYPLNE
  6
CONTINUOUS
 62
    52
100
AcDbLine
 10
814.244682
 20
76.903351
 30
0.0
 11
835.103097
 21
76.903351
 31
0.0
  0
LINE
  5
1D6
100
AcDbEntity
  8
V0-VYPLNE
  6
CONTINUOUS
 62
    52
100
AcDbLine
 10
824.67389
 20
94.597815
 30
0.0
 11
835.103097
 21
94.597815
 31
0.0
  0
LINE
  5
1D7
100
AcDbEntity
  8
V0-OBRYS
  6
CONTINUOUS
 62
    90
100
AcDbLine
 10
920.036576
 20
170.358388
 30
0.0
 11
919.694221
 21
170.439548
 31
0.0
  0
LINE
  5
1D8
100
AcDbEntity
  8
V0-OBRYS
  6
CONTINUOUS
 62
    90
100
AcDbLine
 10
919.694221
 20
170.439548
 30
0.0
 11
920.036576
 21
170.358388
 31
0.0
  0
LINE
  5
1D9
100
AcDbEntity
  8
V0-VYPLNE
  6
CONTINUOUS
 62
    52
100
AcDbLine
 10
920.036576
 20
170.358388
 30
0.0
 11
920.036576
 21
-167.230468
 31
0.0
  0
LINE
  5
1DB
100
AcDbEntity
  8
V0-VYPLNE
  6
CONTINUOUS
 62
    52
100
AcDbLine
 10
962.503289
 20
-175.061893
 30
0.0
 11
962.503289
 21
178.189813
 31
0.0
  0
LINE
  5
1DD
100
AcDbEntity
  8
V0-VYPLNE
  6
CONTINUOUS
 62
    52
100
AcDbLine
 10
920.03658
 20
-165.836424
 30
0.0
 11
962.503285
 21
-165.836424
 31
0.0
  0
LINE
  5
1DE
100
AcDbEntity
  8
V0-VYPLNE
  6
CONTINUOUS
 62
    52
100
AcDbLine
 10
920.03658
 20
-148.14196
 30
0.0
 11
962.503285
 21
-148.14196
 31
0.0
  0
LINE
  5
1DF
100
AcDbEntity
  8
V0-VYPLNE
  6
CONTINUOUS
 62
    52
100
AcDbLine
 10
920.036579
 20
-130.447496
 30
0.0
 11
962.503285
 21
-130.447496
 31
0.0
  0
LINE
  5
1E0
100
AcDbEntity
  8
V0-VYPLNE
  6
CONTINUOUS
 62
    52
100
AcDbLine
 10
920.036579
 20
-112.753033
 30
0.0
 11
962.503285
 21
-112.753033
 31
0.0
  0
LINE
  5
1E1
100
AcDbEntity
  8
V0-VYPLNE
  6
CONTINUOUS
 62
    52
100
AcDbLine
 10
920.036579
 20
-95.058569
 30
0.0
 11
962.503285
 21
-95.058569
 31
0.0
  0
LINE
  5
1E2
100
AcDbEntity
  8
V0-VYPLNE
  6
CONTINUOUS
 62
    52
100
AcDbLine
 10
920.036579
 20
-77.364105
 30
0.0
 11
962.503285
 21
-77.364105
 31
0.0
  0
LINE
  5
1E3
100
AcDbEntity
  8
V0-VYPLNE
  6
CONTINUOUS
 62
    52
100
AcDbLine
 10
920.036579
 20
-59.669641
 30
0.0
 11
962.503285
 21
-59.669641
 31
0.0
  0
LINE
  5
1E4
100
AcDbEntity
  8
V0-VYPLNE
  6
CONTINUOUS
 62
    52
100
AcDbLine
 10
920.036578
 20
-41.975178
 30
0.0
 11
962.503285
 21
-41.975178
 31
0.0
  0
LINE
  5
1E5
100
AcDbEntity
  8
V0-VYPLNE
  6
CONTINUOUS
 62
    52
100
AcDbLine
 10
920.036578
 20
-24.280714
 30
0.0
 11
962.503285
 21
-24.280714
 31
0.0
  0
LINE
  5
1E6
100
AcDbEntity
  8
V0-VYPLNE
  6
CONTINUOUS
 62
    52
100
AcDbLine
 10
920.036578
 20
-6.58625
 30
0.0
 11
962.503285
 21
-6.58625
 31
0.0
  0
LINE
  5
1E7
100
AcDbEntity
  8
V0-VYPLNE
  6
CONTINUOUS
 62
    52
100
AcDbLine
 10
920.036578
 20
11.108214
 30
0.0
 11
962.503289
 21
11.108214
 31
0.0
  0
LINE
  5
1E8
100
AcDbEntity
  8
V0-VYPLNE
  6
CONTINUOUS
 62
    52
100
AcDbLine
 10
920.036578
 20
28.802677
 30
0.0
 11
962.503289
 21
28.802677
 31
0.0
  0
LINE
  5
1E9
100
AcDbEntity
  8
V0-VYPLNE
  6
CONTINUOUS
 62
    52
100
AcDbLine
 10
920.036577
 20
46.497141
 30
0.0
 11
962.503289
 21
46.497141
 31
0.0
  0
LINE
  5
1EA
100
AcDbEntity
  8
V0-VYPLNE
  6
CONTINUOUS
 62
    52
100
AcDbLine
 10
920.036577
 20
64.191605
 30
0.0
 11
962.503289
 21
64.191605
 31
0.0
  0
LINE
  5
1EB
100
AcDbEntity
  8
V0-VYPLNE
  6
CONTINUOUS
 62
    52
100
AcDbLine
 10
920.036577
 20
81.886069
 30
0.0
 11
962.503289
 21
81.886069
 31
0.0
  0
LINE
  5
1EC
100
AcDbEntity
  8
V0-VYPLNE
  6
CONTINUOUS
 62
    52
100
AcDbLine
 10
920.036577
 20
99.580532
 30
0.0
 11
962.503289
 21
99.580532
 31
0.0
  0
LINE
  5
1ED
100
AcDbEntity
  8
V0-VYPLNE
  6
CONTINUOUS
 62
    52
100
AcDbLine
 10
920.036576
 20
117.274996
 30
0.0
 11
962.503289
 21
117.274996
 31
0.0
  0
LINE
  5
1EE
100
AcDbEntity
  8
V0-VYPLNE
  6
CONTINUOUS
 62
    52
100
AcDbLine
 10
920.036576
 20
134.96946
 30
0.0
 11
962.503289
 21
134.96946
 31
0.0
  0
LINE
  5
1EF
100
AcDbEntity
  8
V0-VYPLNE
  6
CONTINUOUS
 62
    52
100
AcDbLine
 10
920.036576
 20
152.663924
 30
0.0
 11
962.503289
 21
152.663924
 31
0.0
  0
LINE
  5
1F0
100
AcDbEntity
  8
V0-OBRYS
  6
CONTINUOUS
 62
    90
100
AcDbLine
 10
920.036576
 20
170.358388
 30
0.0
 11
920.036576
 21
170.358388
 31
0.0
  0
LINE
  5
1F1
100
AcDbEntity
  8
V0-VYPLNE
  6
CONTINUOUS
 62
    52
100
AcDbLine
 10
920.036576
 20
170.358388
 30
0.0
 11
962.503289
 21
170.358388
 31
0.0
  0
LINE
  5
1F2
100
AcDbEntity
  8
V0-OBRYS
  6
CONTINUOUS
 62
    90
100
AcDbLine
 10
1026.203357
 20
170.358388
 30
0.0
 11
1026.545712
 21
170.439548
 31
0.0
  0
LINE
  5
1F3
100
AcDbEntity
  8
V0-OBRYS
  6
CONTINUOUS
 62
    90
100
AcDbLine
 10
1026.545712
 20
170.439548
 30
0.0
 11
1026.203357
 21
170.358388
 31
0.0
  0
LINE
  5
1F4
100
AcDbEntity
  8
V0-VYPLNE
  6
CONTINUOUS
 62
    52
100
AcDbLine
 10
1026.203357
 20
170.358388
 30
0.0
 11
1026.203357
 21
-167.230468
 31
0.0
  0
LINE
  5
1F6
100
AcDbEntity
  8
V0-VYPLNE
  6
CONTINUOUS
 62
    52
100
AcDbLine
 10
983.736644
 20
-175.061893
 30
0.0
 11
983.736644
 21
178.189813
 31
0.0
  0
LINE
  5
1F8
100
AcDbEntity
  8
V0-VYPLNE
  6
CONTINUOUS
 62
    52
100
AcDbLine
 10
1026.203353
 20
-165.836424
 30
0.0
 11
983.736647
 21
-165.836424
 31
0.0
  0
LINE
  5
1F9
100
AcDbEntity
  8
V0-VYPLNE
  6
CONTINUOUS
 62
    52
100
AcDbLine
 10
1026.203353
 20
-148.14196
 30
0.0
 11
983.736647
 21
-148.14196
 31
0.0
  0
LINE
  5
1FA
100
AcDbEntity
  8
V0-VYPLNE
  6
CONTINUOUS
 62
    52
100
AcDbLine
 10
1026.203353
 20
-130.447496
 30
0.0
 11
983.736647
 21
-130.447496
 31
0.0
  0
LINE
  5
1FB
100
AcDbEntity
  8
V0-VYPLNE
  6
CONTINUOUS
 62
    52
100
AcDbLine
 10
1026.203353
 20
-112.753033
 30
0.0
 11
983.736647
 21
-112.753033
 31
0.0
  0
LINE
  5
1FC
100
AcDbEntity
  8
V0-VYPLNE
  6
CONTINUOUS
 62
    52
100
AcDbLine
 10
1026.203354
 20
-95.058569
 30
0.0
 11
983.736647
 21
-95.058569
 31
0.0
  0
LINE
  5
1FD
100
AcDbEntity
  8
V0-VYPLNE
  6
CONTINUOUS
 62
    52
100
AcDbLine
 10
1026.203354
 20
-77.364105
 30
0.0
 11
983.736647
 21
-77.364105
 31
0.0
  0
LINE
  5
1FE
100
AcDbEntity
  8
V0-VYPLNE
  6
CONTINUOUS
 62
    52
100
AcDbLine
 10
1026.203354
 20
-59.669641
 30
0.0
 11
983.736647
 21
-59.669641
 31
0.0
  0
LINE
  5
1FF
100
AcDbEntity
  8
V0-VYPLNE
  6
CONTINUOUS
 62
    52
100
AcDbLine
 10
1026.203354
 20
-41.975178
 30
0.0
 11
983.736647
 21
-41.975178
 31
0.0
  0
LINE
  5
200
100
AcDbEntity
  8
V0-VYPLNE
  6
CONTINUOUS
 62
    52
100
AcDbLine
 10
1026.203354
 20
-24.280714
 30
0.0
 11
983.736647
 21
-24.280714
 31
0.0
  0
LINE
  5
201
100
AcDbEntity
  8
V0-VYPLNE
  6
CONTINUOUS
 62
    52
100
AcDbLine
 10
1026.203355
 20
-6.58625
 30
0.0
 11
983.736647
 21
-6.58625
 31
0.0
  0
LINE
  5
202
100
AcDbEntity
  8
V0-VYPLNE
  6
CONTINUOUS
 62
    52
100
AcDbLine
 10
1026.203355
 20
11.108214
 30
0.0
 11
983.736644
 21
11.108214
 31
0.0
  0
LINE
  5
203
100
AcDbEntity
  8
V0-VYPLNE
  6
CONTINUOUS
 62
    52
100
AcDbLine
 10
1026.203355
 20
28.802677
 30
0.0
 11
983.736644
 21
28.802677
 31
0.0
  0
LINE
  5
204
100
AcDbEntity
  8
V0-VYPLNE
  6
CONTINUOUS
 62
    52
100
AcDbLine
 10
1026.203355
 20
46.497141
 30
0.0
 11
983.736644
 21
46.497141
 31
0.0
  0
LINE
  5
205
100
AcDbEntity
  8
V0-VYPLNE
  6
CONTINUOUS
 62
    52
100
AcDbLine
 10
1026.203356
 20
64.191605
 30
0.0
 11
983.736644
 21
64.191605
 31
0.0
  0
LINE
  5
206
100
AcDbEntity
  8
V0-VYPLNE
  6
CONTINUOUS
 62
    52
100
AcDbLine
 10
1026.203356
 20
81.886069
 30
0.0
 11
983.736644
 21
81.886069
 31
0.0
  0
LINE
  5
207
100
AcDbEntity
  8
V0-VYPLNE
  6
CONTINUOUS
 62
    52
100
AcDbLine
 10
1026.203356
 20
99.580532
 30
0.0
 11
983.736644
 21
99.580532
 31
0.0
  0
LINE
  5
208
100
AcDbEntity
  8
V0-VYPLNE
  6
CONTINUOUS
 62
    52
100
AcDbLine
 10
1026.203356
 20
117.274996
 30
0.0
 11
983.736644
 21
117.274996
 31
0.0
  0
LINE
  5
209
100
AcDbEntity
  8
V0-VYPLNE
  6
CONTINUOUS
 62
    52
100
AcDbLine
 10
1026.203356
 20
134.96946
 30
0.0
 11
983.736644
 21
134.96946
 31
0.0
  0
LINE
  5
20A
100
AcDbEntity
  8
V0-VYPLNE
  6
CONTINUOUS
 62
    52
100
AcDbLine
 10
1026.203357
 20
152.663924
 30
0.0
 11
983.736644
 21
152.663924
 31
0.0
  0
LINE
  5
20B
100
AcDbEntity
  8
V0-OBRYS
  6
CONTINUOUS
 62
    90
100
AcDbLine
 10
1026.203357
 20
170.358388
 30
0.0
 11
1026.203357
 21
170.358388
 31
0.0
  0
LINE
  5
20C
100
AcDbEntity
  8
V0-VYPLNE
  6
CONTINUOUS
 62
    52
100
AcDbLine
 10
1026.203357
 20
170.358388
 30
0.0
 11
983.736644
 21
170.358388
 31
0.0
  0
LINE
  5
20D
100
AcDbEntity
  8
V0-VYPLNE
  6
CONTINUOUS
 62
    52
100
AcDbLine
 10
1089.903398
 20
134.496368
 30
0.0
 11
1089.903398
 21
-131.368458
 31
0.0
  0
LINE
  5
20F
100
AcDbEntity
  8
V0-VYPLNE
  6
CONTINUOUS
 62
    52
100
AcDbLine
 10
1047.436685
 20
-159.017569
 30
0.0
 11
1047.436685
 21
162.14548
 31
0.0
  0
LINE
  5
211
100
AcDbEntity
  8
V0-VYPLNE
  6
CONTINUOUS
 62
    52
100
AcDbLine
 10
1063.414096
 20
-148.615052
 30
0.0
 11
1047.436669
 21
-148.615052
 31
0.0
  0
LINE
  5
212
100
AcDbEntity
  8
V0-VYPLNE
  6
CONTINUOUS
 62
    52
100
AcDbLine
 10
1089.903395
 20
-130.920588
 30
0.0
 11
1047.436672
 21
-130.920588
 31
0.0
  0
LINE
  5
213
100
AcDbEntity
  8
V0-VYPLNE
  6
CONTINUOUS
 62
    52
100
AcDbLine
 10
1089.903395
 20
-113.226124
 30
0.0
 11
1047.436672
 21
-113.226124
 31
0.0
  0
LINE
  5
214
100
AcDbEntity
  8
V0-VYPLNE
  6
CONTINUOUS
 62
    52
100
AcDbLine
 10
1089.903396
 20
-95.531661
 30
0.0
 11
1047.436672
 21
-95.531661
 31
0.0
  0
LINE
  5
215
100
AcDbEntity
  8
V0-VYPLNE
  6
CONTINUOUS
 62
    52
100
AcDbLine
 10
1089.903396
 20
-77.837197
 30
0.0
 11
1047.436672
 21
-77.837197
 31
0.0
  0
LINE
  5
216
100
AcDbEntity
  8
V0-VYPLNE
  6
CONTINUOUS
 62
    52
100
AcDbLine
 10
1089.903396
 20
-60.142733
 30
0.0
 11
1047.436675
 21
-60.142733
 31
0.0
  0
LINE
  5
217
100
AcDbEntity
  8
V0-VYPLNE
  6
CONTINUOUS
 62
    52
100
AcDbLine
 10
1089.903396
 20
-42.448269
 30
0.0
 11
1047.436675
 21
-42.448269
 31
0.0
  0
LINE
  5
218
100
AcDbEntity
  8
V0-VYPLNE
  6
CONTINUOUS
 62
    52
100
AcDbLine
 10
1089.903397
 20
-24.753806
 30
0.0
 11
1047.436675
 21
-24.753806
 31
0.0
  0
LINE
  5
219
100
AcDbEntity
  8
V0-VYPLNE
  6
CONTINUOUS
 62
    52
100
AcDbLine
 10
1089.903397
 20
-7.059342
 30
0.0
 11
1047.436675
 21
-7.059342
 31
0.0
  0
LINE
  5
21A
100
AcDbEntity
  8
V0-VYPLNE
  6
CONTINUOUS
 62
    52
100
AcDbLine
 10
1089.903397
 20
10.635122
 30
0.0
 11
1047.436675
 21
10.635122
 31
0.0
  0
LINE
  5
21B
100
AcDbEntity
  8
V0-VYPLNE
  6
CONTINUOUS
 62
    52
100
AcDbLine
 10
1089.903397
 20
28.329586
 30
0.0
 11
1047.436679
 21
28.329586
 31
0.0
  0
LINE
  5
21C
100
AcDbEntity
  8
V0-VYPLNE
  6
CONTINUOUS
 62
    52
100
AcDbLine
 10
1089.903397
 20
46.02405
 30
0.0
 11
1047.436679
 21
46.02405
 31
0.0
  0
LINE
  5
21D
100
AcDbEntity
  8
V0-VYPLNE
  6
CONTINUOUS
 62
    52
100
AcDbLine
 10
1089.903398
 20
63.718513
 30
0.0
 11
1047.436679
 21
63.718513
 31
0.0
  0
LINE
  5
21E
100
AcDbEntity
  8
V0-VYPLNE
  6
CONTINUOUS
 62
    52
100
AcDbLine
 10
1089.903398
 20
81.412977
 30
0.0
 11
1047.436679
 21
81.412977
 31
0.0
  0
LINE
  5
21F
100
AcDbEntity
  8
V0-VYPLNE
  6
CONTINUOUS
 62
    52
100
AcDbLine
 10
1089.903398
 20
99.107441
 30
0.0
 11
1047.436685
 21
99.107441
 31
0.0
  0
LINE
  5
220
100
AcDbEntity
  8
V0-VYPLNE
  6
CONTINUOUS
 62
    52
100
AcDbLine
 10
1089.903398
 20
116.801905
 30
0.0
 11
1047.436685
 21
116.801905
 31
0.0
  0
LINE
  5
221
100
AcDbEntity
  8
V0-VYPLNE
  6
CONTINUOUS
 62
    52
100
AcDbLine
 10
1089.903398
 20
134.496368
 30
0.0
 11
1047.436685
 21
134.496368
 31
0.0
  0
LINE
  5
222
100
AcDbEntity
  8
V0-VYPLNE
  6
CONTINUOUS
 62
    52
100
AcDbLine
 10
1062.726188
 20
152.190832
 30
0.0
 11
1047.436685
 21
152.190832
 31
0.0
  0
LINE
  5
227
100
AcDbEntity
  8
V0-VYPLNE
  6
CONTINUOUS
 62
    52
100
AcDbLine
 10
1111.136836
 20
-109.164382
 30
0.0
 11
1111.136836
 21
112.29227
 31
0.0
  0
LINE
  5
228
100
AcDbEntity
  8
V0-VYPLNE
  6
CONTINUOUS
 62
    52
100
AcDbLine
 10
1116.295812
 20
-100.041295
 30
0.0
 11
1111.136833
 21
-100.041295
 31
0.0
  0
LINE
  5
229
100
AcDbEntity
  8
V0-VYPLNE
  6
CONTINUOUS
 62
    52
100
AcDbLine
 10
1126.301785
 20
-82.346831
 30
0.0
 11
1111.136833
 21
-82.346831
 31
0.0
  0
LINE
  5
22A
100
AcDbEntity
  8
V0-VYPLNE
  6
CONTINUOUS
 62
    52
100
AcDbLine
 10
1136.307756
 20
-64.652368
 30
0.0
 11
1111.136834
 21
-64.652368
 31
0.0
  0
LINE
  5
22B
100
AcDbEntity
  8
V0-VYPLNE
  6
CONTINUOUS
 62
    52
100
AcDbLine
 10
1142.488825
 20
-46.957904
 30
0.0
 11
1111.136834
 21
-46.957904
 31
0.0
  0
LINE
  5
22C
100
AcDbEntity
  8
V0-VYPLNE
  6
CONTINUOUS
 62
    52
100
AcDbLine
 10
1145.251503
 20
-29.26344
 30
0.0
 11
1111.136834
 21
-29.26344
 31
0.0
  0
LINE
  5
22D
100
AcDbEntity
  8
V0-VYPLNE
  6
CONTINUOUS
 62
    52
100
AcDbLine
 10
1148.014184
 20
-11.568976
 30
0.0
 11
1111.136834
 21
-11.568976
 31
0.0
  0
LINE
  5
22E
100
AcDbEntity
  8
V0-VYPLNE
  6
CONTINUOUS
 62
    52
100
AcDbLine
 10
1149.209909
 20
6.125487
 30
0.0
 11
1111.136834
 21
6.125487
 31
0.0
  0
LINE
  5
22F
100
AcDbEntity
  8
V0-VYPLNE
  6
CONTINUOUS
 62
    52
100
AcDbLine
 10
1145.894333
 20
23.819951
 30
0.0
 11
1111.136835
 21
23.819951
 31
0.0
  0
LINE
  5
230
100
AcDbEntity
  8
V0-VYPLNE
  6
CONTINUOUS
 62
    52
100
AcDbLine
 10
1142.578761
 20
41.514415
 30
0.0
 11
1111.136835
 21
41.514415
 31
0.0
  0
LINE
  5
231
100
AcDbEntity
  8
V0-VYPLNE
  6
CONTINUOUS
 62
    52
100
AcDbLine
 10
1139.263189
 20
59.208879
 30
0.0
 11
1111.136835
 21
59.208879
 31
0.0
  0
LINE
  5
232
100
AcDbEntity
  8
V0-VYPLNE
  6
CONTINUOUS
 62
    52
100
AcDbLine
 10
1131.99525
 20
76.903342
 30
0.0
 11
1111.136835
 21
76.903342
 31
0.0
  0
LINE
  5
233
100
AcDbEntity
  8
V0-VYPLNE
  6
CONTINUOUS
 62
    52
100
AcDbLine
 10
1121.566043
 20
94.597806
 30
0.0
 11
1111.136835
 21
94.597806
 31
0.0
  0
DIMENSION
  5
26E
100
AcDbEntity
  8
V0-VYPLNE
  6
CONTINUOUS
 62
    52
100
AcDbDimension
  2
*D1
 10
1261.48038
 20
-265.436044
 30
0.0
 11
1245.98038
 21
1.563956
 31
0.0
 70
    32
  3
STANDARD
100
AcDbAlignedDimension
 13
1214.369966
 23
268.563956
 33
0.0
 14
1211.994966
 24
-265.436044
 34
0.0
 50
90.0
100
AcDbRotatedDimension
1001
ACAD
1000
DSTYLE
1002
{
1070
    78
1070
     8
1070
   140
1040
25.0
1070
    74
1070
     0
1070
    73
1070
     0
1070
    77
1070
     1
1070
   173
1070
     1
1070
   147
1040
3.0
1070
    42
1040
0.625
1070
    44
1040
1.25
1070
    43
1040
3.75
1070
   271
1070
     0
1070
   141
1040
2.5
1070
     7
1000
_OPEN
1070
     6
1000
_OPEN
1070
    41
1040
25.0
1070
   273
1070
     8
1070
   274
1070
     4
1070
   143
1040
0.0394
1070
   171
1070
     4
1002
}
  0
DIMENSION
  5
286
100
AcDbEntity
  8
V0-VYPLNE
  6
CONTINUOUS
 62
    52
100
AcDbDimension
  2
*D2
 10
1173.119966
 20
297.336313
 30
0.0
 11
973.119966
 21
312.836313
 31
0.0
 70
    32
  3
STANDARD
100
AcDbAlignedDimension
 13
773.119966
 23
249.979376
 33
0.0
 14
1173.119966
 24
249.979376
 34
0.0
100
AcDbRotatedDimension
1001
ACAD
1000
DSTYLE
1002
{
1070
    78
1070
     8
1070
   140
1040
25.0
1070
    74
1070
     0
1070
    73
1070
     0
1070
    77
1070
     1
1070
   173
1070
     1
1070
   147
1040
3.0
1070
    42
1040
0.625
1070
    44
1040
1.25
1070
    43
1040
3.75
1070
   271
1070
     0
1070
   141
1040
2.5
1070
     7
1000
_OPEN
1070
     6
1000
_OPEN
1070
    41
1040
25.0
1070
   273
1070
     8
1070
   274
1070
     4
1070
   143
1040
0.0394
1070
   171
1070
     4
1002
}
  0
LINE
  5
6A2
100
AcDbEntity
  8
V0-OBRYS
  6
CONTINUOUS
 62
    90
100
AcDbLine
 10
733.619966
 20
1.563956
 30
0.0
 11
733.932761
 21
259.542639
 31
0.0
  0
LINE
  5
6C9
100
AcDbEntity
  8
V0-OBRYS
  6
CONTINUOUS
 62
    90
100
AcDbLine
 10
1201.994966
 20
-255.436044
 30
0.0
 11
1201.994966
 21
258.161345
 31
0.0
  0
LINE
  5
70A
100
AcDbEntity
  8
V0-OBRYS
  6
CONTINUOUS
 62
    90
100
AcDbLine
 10
733.619966
 20
-265.436044
 30
0.0
 11
733.619966
 21
1.563956
 31
0.0
  0
LINE
  5
70B
100
AcDbEntity
  8
V0-OBRYS
  6
CONTINUOUS
 62
    90
100
AcDbLine
 10
1212.619966
 20
-265.436044
 30
0.0
 11
1212.619966
 21
258.161345
 31
0.0
  0
POINT
  5
734
100
AcDbEntity
  8
V0-VYPLNE
  6
CONTINUOUS
 62
    52
100
AcDbPoint
 10
90.0
 20
-757.045859
 30
0.0
  0
POINT
  5
735
100
AcDbEntity
  8
V0-VYPLNE
  6
CONTINUOUS
 62
    52
100
AcDbPoint
 10
90.0
 20
0.0
 30
0.0
  0
POINT
  5
736
100
AcDbEntity
  8
V0-VYPLNE
  6
CONTINUOUS
 62
    52
100
AcDbPoint
 10
973.119966
 20
1.563956
 30
0.0
  0
LINE
  5
8FE
100
AcDbEntity
  8
V0-OBRYS
  6
CONTINUOUS
 62
    90
100
AcDbLine
 10
90.0
 20
-272.667815
 30
0.0
 11
390.0
 21
-272.667815
 31
0.0
  0
LINE
  5
8FF
100
AcDbEntity
  8
V0-OBRYS
  6
CONTINUOUS
 62
    90
100
AcDbLine
 10
743.932761
 20
-255.436044
 30
0.0
 11
1201.994966
 21
-255.436044
 31
0.0
  0
DIMENSION
  5
90C
100
AcDbEntity
  8
V0-VYPLNE
  6
CONTINUOUS
 62
    52
100
AcDbDimension
  2
*D3
 10
1212.619966
 20
-329.922098
 30
0.0
 11
973.119966
 21
-329.922098
 31
0.0
 70
   160
  3
STANDARD
100
AcDbAlignedDimension
 13
733.619966
 23
-265.436044
 33
0.0
 14
1212.619966
 24
-265.436044
 34
0.0
100
AcDbRotatedDimension
1001
ACAD
1000
DSTYLE
1002
{
1070
    78
1070
     8
1070
   140
1040
25.0
1070
    74
1070
     0
1070
    73
1070
     0
1070
    77
1070
     1
1070
   173
1070
     1
1070
   147
1040
3.0
1070
    42
1040
0.625
1070
    44
1040
1.25
1070
    43
1040
3.75
1070
   271
1070
     1
1070
   141
1040
2.5
1070
     7
1000
_OPEN
1070
     6
1000
_OPEN
1070
    41
1040
25.0
1070
   273
1070
     8
1070
   274
1070
     4
1070
   143
1040
0.0394
1070
   171
1070
     4
1002
}
  0
LINE
  5
923
100
AcDbEntity
  8
V0-VYPLNE
  6
DASHDOT
 62
    63
 48
20.0
100
AcDbLine
 10
15.515052
 20
231.332185
 30
0.0
 11
97.765012
 21
231.332185
 31
0.0
  0
LINE
  5
924
100
AcDbEntity
  8
V0-VYPLNE
  6
DASHDOT
 62
    63
 48
20.0
100
AcDbLine
 10
1142.75178
 20
238.563956
 30
0.0
 11
1201.994966
 21
238.563956
 31
0.0
  0
LINE
  5
926
100
AcDbEntity
  8
V0-OBRYS
  6
CONTINUOUS
 62
    90
100
AcDbLine
 10
385.0
 20
-981.803229
 30
0.0
 11
90.0
 21
-981.803229
 31
0.0
  0
LINE
  5
927
100
AcDbEntity
  8
V0-OBRYS
  6
CONTINUOUS
 62
    90
100
AcDbLine
 10
39.130844
 20
-930.747702
 30
0.0
 11
39.130844
 21
-757.348623
 31
0.0
  0
LINE
  5
928
100
AcDbEntity
  8
V0-OBRYS
  6
CONTINUOUS
 62
    90
100
AcDbLine
 10
34.345802
 20
-757.449545
 30
0.0
 11
34.345802
 21
-930.747702
 31
0.0
  0
LINE
  5
929
100
AcDbEntity
  8
V0-OBRYS
  6
CONTINUOUS
 62
    90
100
AcDbLine
 10
25.0
 20
-757.449545
 30
0.0
 11
25.0
 21
-930.747702
 31
0.0
  0
LINE
  5
92A
100
AcDbEntity
  8
V0-OBRYS
  6
CONTINUOUS
 62
    90
100
AcDbLine
 10
90.0
 20
-981.449545
 30
0.0
 11
90.0
 21
-757.449545
 31
0.0
  0
LINE
  5
932
100
AcDbEntity
  8
V0-OBRYS
  6
CONTINUOUS
 62
    90
100
AcDbLine
 10
434.869141
 20
-938.169913
 30
0.0
 11
434.869141
 21
-757.348654
 31
0.0
  0
LINE
  5
933
100
AcDbEntity
  8
V0-OBRYS
  6
CONTINUOUS
 62
    90
100
AcDbLine
 10
439.654205
 20
-757.449545
 30
0.0
 11
439.654205
 21
-938.169913
 31
0.0
  0
LINE
  5
934
100
AcDbEntity
  8
V0-OBRYS
  6
CONTINUOUS
 62
    90
100
AcDbLine
 10
449.0
 20
-757.449545
 30
0.0
 11
449.0
 21
-934.949545
 31
0.0
  0
LINE
  5
935
100
AcDbEntity
  8
V0-OBRYS
  6
CONTINUOUS
 62
    90
100
AcDbLine
 10
385.0
 20
-981.449545
 30
0.0
 11
385.0
 21
-757.449545
 31
0.0
  0
LINE
  5
936
100
AcDbEntity
  8
V0-OBRYS
  6
CONTINUOUS
 62
    90
100
AcDbLine
 10
439.654205
 20
-938.169913
 30
0.0
 11
434.869141
 21
-938.169913
 31
0.0
  0
LINE
  5
937
100
AcDbEntity
  8
V0-OBRYS
  6
CONTINUOUS
 62
    90
100
AcDbLine
 10
434.85376
 20
-934.949545
 30
0.0
 11
385.0
 21
-934.949545
 31
0.0
  0
LINE
  5
938
100
AcDbEntity
  8
V0-OBRYS
  6
CONTINUOUS
 62
    90
100
AcDbLine
 10
439.641052
 20
-934.949545
 30
0.0
 11
449.0
 21
-934.949545
 31
0.0
  0
LINE
  5
95A
100
AcDbEntity
  8
V0-OBRYS
  6
CONTINUOUS
 62
    90
100
AcDbLine
 10
25.0
 20
0.0
 30
0.0
 11
25.0
 21
-177.5
 31
0.0
  0
LINE
  5
95B
100
AcDbEntity
  8
V0-OBRYS
  6
CONTINUOUS
 62
    90
100
AcDbLine
 10
34.345802
 20
0.0
 30
0.0
 11
34.345802
 21
-180.720367
 31
0.0
  0
LINE
  5
95C
100
AcDbEntity
  8
V0-OBRYS
  6
CONTINUOUS
 62
    90
100
AcDbLine
 10
39.130844
 20
-180.720367
 30
0.0
 11
39.130844
 21
0.100907
 31
0.0
  0
LINE
  5
95D
100
AcDbEntity
  8
V0-OBRYS
  6
CONTINUOUS
 62
    90
100
AcDbLine
 10
90.0
 20
0.0
 30
0.0
 11
90.0
 21
-272.667815
 31
0.0
  0
LINE
  5
95E
100
AcDbEntity
  8
V0-OBRYS
  6
CONTINUOUS
 62
    90
100
AcDbLine
 10
39.146248
 20
-177.5
 30
0.0
 11
90.0
 21
-177.5
 31
0.0
  0
LINE
  5
95F
100
AcDbEntity
  8
V0-OBRYS
  6
CONTINUOUS
 62
    90
100
AcDbLine
 10
34.358932
 20
-177.5
 30
0.0
 11
25.0
 21
-177.5
 31
0.0
  0
LINE
  5
960
100
AcDbEntity
  8
V0-OBRYS
  6
CONTINUOUS
 62
    90
100
AcDbLine
 10
34.345802
 20
-180.720367
 30
0.0
 11
39.130844
 21
-180.720367
 31
0.0
  0
LINE
  5
961
100
AcDbEntity
  8
V0-OBRYS
  6
CONTINUOUS
 62
    90
100
AcDbLine
 10
454.0
 20
0.0
 30
0.0
 11
454.0
 21
-177.5
 31
0.0
  0
LINE
  5
962
100
AcDbEntity
  8
V0-OBRYS
  6
CONTINUOUS
 62
    90
100
AcDbLine
 10
444.654205
 20
0.0
 30
0.0
 11
444.654205
 21
-180.720367
 31
0.0
  0
LINE
  5
963
100
AcDbEntity
  8
V0-OBRYS
  6
CONTINUOUS
 62
    90
100
AcDbLine
 10
439.869141
 20
-180.720367
 30
0.0
 11
439.869141
 21
0.100906
 31
0.0
  0
LINE
  5
964
100
AcDbEntity
  8
V0-OBRYS
  6
CONTINUOUS
 62
    90
100
AcDbLine
 10
439.85376
 20
-177.5
 30
0.0
 11
390.0
 21
-177.5
 31
0.0
  0
LINE
  5
965
100
AcDbEntity
  8
V0-OBRYS
  6
CONTINUOUS
 62
    90
100
AcDbLine
 10
444.641052
 20
-177.5
 30
0.0
 11
454.0
 21
-177.5
 31
0.0
  0
LINE
  5
966
100
AcDbEntity
  8
V0-OBRYS
  6
CONTINUOUS
 62
    90
100
AcDbLine
 10
444.654205
 20
-180.720367
 30
0.0
 11
439.869141
 21
-180.720367
 31
0.0
  0
LINE
  5
969
100
AcDbEntity
  8
V0-OBRYS
  6
CONTINUOUS
 62
    90
100
AcDbLine
 10
390.0
 20
-272.667815
 30
0.0
 11
390.0
 21
250.604243
 31
0.0
  0
LINE
  5
96A
100
AcDbEntity
  8
V0-OBRYS
  6
CONTINUOUS
 62
    90
100
AcDbLine
 10
733.619966
 20
-265.436044
 30
0.0
 11
1212.619966
 21
-265.436044
 31
0.0
  0
DIMENSION
  5
984
100
AcDbEntity
  8
V0-VYPLNE
  6
CONTINUOUS
 62
    52
100
AcDbDimension
  2
*D4
 10
518.898196
 20
-177.5
 30
0.0
 11
518.898196
 21
0.0
 31
0.0
 70
   160
  1
%%c<>
  3
STANDARD
100
AcDbAlignedDimension
 13
454.0
 23
177.5
 33
0.0
 14
454.0
 24
-177.5
 34
0.0
 50
90.0
100
AcDbRotatedDimension
1001
ACAD
1000
DSTYLE
1002
{
1070
    78
1070
     8
1070
   140
1040
25.0
1070
    74
1070
     0
1070
    73
1070
     0
1070
    77
1070
     1
1070
   173
1070
     1
1070
   147
1040
3.0
1070
    42
1040
0.625
1070
    44
1040
1.25
1070
    43
1040
3.75
1070
   271
1070
     1
1070
   141
1040
2.5
1070
     7
1000
_OPEN
1070
     6
1000
_OPEN
1070
    41
1040
25.0
1070
   273
1070
     8
1070
   274
1070
     4
1070
   143
1040
0.0394
1070
   171
1070
     4
1002
}
  0
DIMENSION
  5
991
100
AcDbEntity
  8
V0-VYPLNE
  6
CONTINUOUS
 62
    52
100
AcDbDimension
  2
*D5
 10
572.086849
 20
-272.667815
 30
0.0
 11
572.086849
 21
-5.657066
 31
0.0
 70
   160
  3
STANDARD
100
AcDbAlignedDimension
 13
395.0
 23
261.353683
 33
0.0
 14
390.0
 24
-272.667815
 34
0.0
 50
90.0
100
AcDbRotatedDimension
1001
ACAD
1000
DSTYLE
1002
{
1070
    78
1070
     8
1070
   140
1040
25.0
1070
    74
1070
     0
1070
    73
1070
     0
1070
    77
1070
     1
1070
   173
1070
     1
1070
   147
1040
3.0
1070
    42
1040
0.625
1070
    44
1040
1.25
1070
    43
1040
3.75
1070
   271
1070
     1
1070
   141
1040
2.5
1070
     7
1000
_OPEN
1070
     6
1000
_OPEN
1070
    41
1040
25.0
1070
   273
1070
     8
1070
   274
1070
     4
1070
   143
1040
0.0394
1070
   171
1070
     4
1002
}
  0
DIMENSION
  5
A00
100
AcDbEntity
  8
V0-VYPLNE
  6
CONTINUOUS
 62
    52
100
AcDbDimension
  2
*D6
 10
454.625
 20
-360.76832
 30
0.0
 11
240.3125
 21
-360.76832
 31
0.0
 70
   160
  3
STANDARD
100
AcDbAlignedDimension
 13
25.0
 23
-177.5
 33
0.0
 14
454.625
 24
-177.5
 34
0.0
100
AcDbRotatedDimension
1001
ACAD
1000
DSTYLE
1002
{
1070
    78
1070
     8
1070
   140
1040
25.0
1070
    74
1070
     0
1070
    73
1070
     0
1070
    77
1070
     1
1070
   173
1070
     1
1070
   147
1040
3.0
1070
    42
1040
0.625
1070
    44
1040
1.25
1070
    43
1040
3.75
1070
   271
1070
     0
1070
   141
1040
2.5
1070
     7
1000
_OPEN
1070
     6
1000
_OPEN
1070
    41
1040
25.0
1070
   273
1070
     8
1070
   274
1070
     4
1070
   143
1040
0.0394
1070
   171
1070
     4
1002
}
  0
DIMENSION
  5
A24
100
AcDbEntity
  8
V0-VYPLNE
  6
CONTINUOUS
 62
    52
100
AcDbDimension
  2
*D7
 10
90.0
 20
-316.08512
 30
0.0
 11
57.5
 21
-316.08512
 31
0.0
 70
   160
  3
STANDARD
100
AcDbAlignedDimension
 13
25.0
 23
-177.5
 33
0.0
 14
90.0
 24
-272.667815
 34
0.0
100
AcDbRotatedDimension
1001
ACAD
1000
DSTYLE
1002
{
1070
    78
1070
     8
1070
   140
1040
25.0
1070
    74
1070
     0
1070
    73
1070
     0
1070
    77
1070
     1
1070
   173
1070
     1
1070
   147
1040
3.0
1070
    42
1040
0.625
1070
    44
1040
1.25
1070
    43
1040
3.75
1070
   271
1070
     0
1070
   141
1040
2.5
1070
     7
1000
_OPEN
1070
     6
1000
_OPEN
1070
    41
1040
25.0
1070
   273
1070
     8
1070
   274
1070
     4
1070
   143
1040
0.0394
1070
   171
1070
     4
1002
}
  0
CIRCLE
  5
AB2
100
AcDbEntity
  8
V0-OBRYS
  6
CONTINUOUS
 62
    90
100
AcDbCircle
 10
1173.119966
 20
238.563956
 30
0.0
 40
11.0
  0
CIRCLE
  5
AB3
100
AcDbEntity
  8
V0-OBRYS
  6
CONTINUOUS
 62
    90
100
AcDbCircle
 10
773.119966
 20
238.563956
 30
0.0
 40
11.0
  0
LEADER
  5
AB4
100
AcDbEntity
  8
V0-VYPLNE
  6
CONTINUOUS
 62
    52
100
AcDbLeader
  3
STANDARD
 73
     0
 74
     0
 75
     1
 40
25.0
 41
66.666667
 76
     3
 10
1173.119966
 20
250.604376
 30
0.0
 10
1226.078089
 20
297.095926
 30
0.0
 10
1251.078089
 20
297.095926
 30
0.0
 77
    52
340
AB5
1001
ACAD
1000
DSTYLE
1002
{
1070
    78
1070
     8
1070
   140
1040
25.0
1070
    74
1070
     0
1070
    73
1070
     0
1070
    77
1070
     1
1070
   173
1070
     1
1070
   147
1040
3.0
1070
    42
1040
0.625
1070
    44
1040
1.25
1070
    43
1040
3.75
1070
   271
1070
     0
1070
   141
1040
2.5
1070
     7
1000
_OPEN
1070
     6
1000
_OPEN
1070
    41
1040
25.0
1070
   273
1070
     8
1070
   274
1070
     4
1070
   143
1040
0.0394
1070
   171
1070
     4
1002
}
  0
MTEXT
  5
AB5
102
{ACAD_REACTORS
330
AB4
102
}
100
AcDbEntity
  8
V0-VYPLNE
  6
CONTINUOUS
 62
    52
100
AcDbMText
 10
1254.078089
 20
312.595926
 30
0.0
 40
25.0
 41
0.0
 71
     4
 72
     1
  1
\A1;%%c22
  0
LINE
  5
ADB
100
AcDbEntity
  8
V0-VYPLNE
  6
DASHDOT
 62
    63
 48
20.0
100
AcDbLine
 10
738.621048
 20
238.563956
 30
0.0
 11
806.230408
 21
238.563956
 31
0.0
  0
MLINE
  5
AE2
100
AcDbEntity
  8
V0-OBRYS
  6
CONTINUOUS
 62
    90
100
AcDbMline
  2
STANDARD
340
1C
 40
22.0
 70
     1
 71
     1
 72
     2
 73
     2
 10
90.0
 20
231.3321848118305
 30
0.0
210
0.0
220
0.0
230
1.0
 11
90.0
 21
231.3321848118305
 31
0.0
 12
-1.0
 22
0.0
 32
0.0
 13
-2.220446049250313E-16
 23
-1.0
 33
0.0
 74
     2
 41
11.0
 41
0.0
 75
     0
 74
     2
 41
-11.0
 41
0.0
 75
     0
 11
15.60083366321214
 21
231.3321848118305
 31
0.0
 12
-1.0
 22
0.0
 32
0.0
 13
-2.220446049250313E-16
 23
-1.0
 33
0.0
 74
     2
 41
11.0
 41
0.0
 75
     0
 74
     2
 41
-11.0
 41
0.0
 75
     0
  0
LINE
  5
AE3
100
AcDbEntity
  8
V0-OBRYS
  6
CONTINUOUS
 62
    90
100
AcDbLine
 10
15.600834
 20
242.332185
 30
0.0
 11
15.600834
 21
220.332185
 31
0.0
  0
LINE
  5
AE4
100
AcDbEntity
  8
V0-OBRYS
  6
CONTINUOUS
 62
    90
100
AcDbLine
 10
15.600834
 20
-561.747702
 30
0.0
 11
15.600834
 21
-583.747702
 31
0.0
  0
MLINE
  5
AE5
100
AcDbEntity
  8
V0-OBRYS
  6
CONTINUOUS
 62
    90
100
AcDbMline
  2
STANDARD
340
1C
 40
22.0
 70
     1
 71
     1
 72
     2
 73
     2
 10
90.0
 20
-572.7477018303652
 30
0.0
210
0.0
220
0.0
230
1.0
 11
90.0
 21
-572.7477018303652
 31
0.0
 12
-1.0
 22
0.0
 32
0.0
 13
-2.220446049250313E-16
 23
-1.0
 33
0.0
 74
     2
 41
11.0
 41
0.0
 75
     0
 74
     2
 41
-11.0
 41
0.0
 75
     0
 11
15.60083366321214
 21
-572.7477018303652
 31
0.0
 12
-1.0
 22
0.0
 32
0.0
 13
-2.220446049250313E-16
 23
-1.0
 33
0.0
 74
     2
 41
11.0
 41
0.0
 75
     0
 74
     2
 41
-11.0
 41
0.0
 75
     0
  0
LINE
  5
AE6
100
AcDbEntity
  8
V0-VYPLNE
  6
DASHDOT
 62
    63
 48
20.0
100
AcDbLine
 10
15.515052
 20
-572.747702
 30
0.0
 11
97.765012
 21
-572.747702
 31
0.0
  0
LINE
  5
AE7
100
AcDbEntity
  8
V0-VYPLNE
  6
DASHDOT
 62
    63
 48
20.0
100
AcDbLine
 10
15.515052
 20
-941.747702
 30
0.0
 11
97.765012
 21
-941.747702
 31
0.0
  0
MLINE
  5
AE8
100
AcDbEntity
  8
V0-OBRYS
  6
CONTINUOUS
 62
    90
100
AcDbMline
  2
STANDARD
340
1C
 40
-22.0
 70
     1
 71
     1
 72
     2
 73
     2
 10
90.0
 20
-941.7477018303653
 30
0.0
210
0.0
220
0.0
230
1.0
 11
90.0
 21
-941.7477018303653
 31
0.0
 12
-1.0
 22
0.0
 32
0.0
 13
-2.220446049250313E-16
 23
-1.0
 33
0.0
 74
     2
 41
-11.0
 41
0.0
 75
     0
 74
     2
 41
11.0
 41
0.0
 75
     0
 11
15.60083366321214
 21
-941.7477018303653
 31
0.0
 12
-1.0
 22
0.0
 32
0.0
 13
-2.220446049250313E-16
 23
-1.0
 33
0.0
 74
     2
 41
-11.0
 41
0.0
 75
     0
 74
     2
 41
11.0
 41
0.0
 75
     0
  0
LINE
  5
AE9
100
AcDbEntity
  8
V0-OBRYS
  6
CONTINUOUS
 62
    90
100
AcDbLine
 10
15.600834
 20
-952.747702
 30
0.0
 11
15.600834
 21
-930.747702
 31
0.0
  0
ENDSEC
  0
SECTION
  2
OBJECTS
  0
DICTIONARY
  5
C
100
AcDbDictionary
  3
ACAD_GROUP
350
D
  3
ACAD_MLINESTYLE
350
1B
  0
DICTIONARY
  5
D
102
{ACAD_REACTORS
330
C
102
}
100
AcDbDictionary
  0
DICTIONARY
  5
1B
102
{ACAD_REACTORS
330
C
102
}
100
AcDbDictionary
  3
STANDARD
350
1C
  0
MLINESTYLE
  5
1C
102
{ACAD_REACTORS
330
1B
102
}
100
AcDbMlineStyle
  2
STANDARD
 70
     0
  3

 62
   256
 51
90.0
 52
90.0
 71
     2
 49
0.5
 62
   256
  6
BYLAYER
 49
-0.5
 62
   256
  6
BYLAYER
  0
ENDSEC
  0
EOF
