  0
SECTION
  2
HEADER
  9
$ACADVER
  1
AC1014
  9
$ACADMAINTVER
 70
     0
  9
$DWGCODEPAGE
  3
ANSI_1250
  9
$INSBASE
 10
0.0
 20
0.0
 30
0.0
  9
$EXTMIN
 10
0.0
 20
-535.247884
 30
0.0
  9
$EXTMAX
 10
851.240017
 20
225.952485
 30
0.0
  9
$LIMMIN
 10
0.0
 20
0.0
  9
$LIMMAX
 10
420.0
 20
297.0
  9
$ORTHOMODE
 70
     1
  9
$REGENMODE
 70
     1
  9
$FILLMODE
 70
     1
  9
$QTEXTMODE
 70
     0
  9
$MIRRTEXT
 70
     1
  9
$DRAGMODE
 70
     2
  9
$LTSCALE
 40
1.0
  9
$OSMODE
 70
    37
  9
$ATTMODE
 70
     1
  9
$TEXTSIZE
 40
2.5
  9
$TRACEWID
 40
1.0
  9
$TEXTSTYLE
  7
STANDARD
  9
$CLAYER
  8
V0-VYPLNE
  9
$CELTYPE
  6
BYLAYER
  9
$CECOLOR
 62
    41
  9
$CELTSCALE
 40
1.0
  9
$DELOBJ
 70
     1
  9
$DISPSILH
 70
     0
  9
$DIMSCALE
 40
1.0
  9
$DIMASZ
 40
25.0
  9
$DIMEXO
 40
0.625
  9
$DIMDLI
 40
3.75
  9
$DIMRND
 40
0.0
  9
$DIMDLE
 40
0.0
  9
$DIMEXE
 40
1.25
  9
$DIMTP
 40
0.0
  9
$DIMTM
 40
0.0
  9
$DIMTXT
 40
25.0
  9
$DIMCEN
 40
2.5
  9
$DIMTSZ
 40
0.0
  9
$DIMTOL
 70
     0
  9
$DIMLIM
 70
     0
  9
$DIMTIH
 70
     0
  9
$DIMTOH
 70
     0
  9
$DIMSE1
 70
     0
  9
$DIMSE2
 70
     0
  9
$DIMTAD
 70
     1
  9
$DIMZIN
 70
     8
  9
$DIMBLK
  1

  9
$DIMASO
 70
     1
  9
$DIMSHO
 70
     1
  9
$DIMPOST
  1

  9
$DIMAPOST
  1

  9
$DIMALT
 70
     0
  9
$DIMALTD
 70
     4
  9
$DIMALTF
 40
0.0394
  9
$DIMLFAC
 40
1.0
  9
$DIMTOFL
 70
     0
  9
$DIMTVP
 40
0.0
  9
$DIMTIX
 70
     0
  9
$DIMSOXD
 70
     0
  9
$DIMSAH
 70
     1
  9
$DIMBLK1
  1
_OPEN
  9
$DIMBLK2
  1
_OPEN
  9
$DIMSTYLE
  2
STANDARD
  9
$DIMCLRD
 70
     0
  9
$DIMCLRE
 70
     0
  9
$DIMCLRT
 70
     0
  9
$DIMTFAC
 40
1.0
  9
$DIMGAP
 40
3.0
  9
$DIMJUST
 70
     0
  9
$DIMSD1
 70
     0
  9
$DIMSD2
 70
     0
  9
$DIMTOLJ
 70
     1
  9
$DIMTZIN
 70
     0
  9
$DIMALTZ
 70
     0
  9
$DIMALTTZ
 70
     0
  9
$DIMFIT
 70
     3
  9
$DIMUPT
 70
     0
  9
$DIMUNIT
 70
     2
  9
$DIMDEC
 70
     0
  9
$DIMTDEC
 70
     4
  9
$DIMALTU
 70
     8
  9
$DIMALTTD
 70
     4
  9
$DIMTXSTY
  7
STANDARD
  9
$DIMAUNIT
 70
     0
  9
$LUNITS
 70
     2
  9
$LUPREC
 70
     4
  9
$SKETCHINC
 40
1.0
  9
$FILLETRAD
 40
10.0
  9
$AUNITS
 70
     0
  9
$AUPREC
 70
     0
  9
$MENU
  1
.
  9
$ELEVATION
 40
0.0
  9
$PELEVATION
 40
0.0
  9
$THICKNESS
 40
0.0
  9
$LIMCHECK
 70
     0
  9
$BLIPMODE
 70
     0
  9
$CHAMFERA
 40
10.0
  9
$CHAMFERB
 40
10.0
  9
$CHAMFERC
 40
20.0
  9
$CHAMFERD
 40
0.0
  9
$SKPOLY
 70
     0
  9
$TDCREATE
 40
2451201.446247917
  9
$TDUPDATE
 40
2453315.459897292
  9
$TDINDWG
 40
0.0575219907
  9
$TDUSRTIMER
 40
0.0575219907
  9
$USRTIMER
 70
     1
  9
$ANGBASE
 50
0.0
  9
$ANGDIR
 70
     0
  9
$PDMODE
 70
     3
  9
$PDSIZE
 40
15.0
  9
$PLINEWID
 40
0.0
  9
$COORDS
 70
     1
  9
$SPLFRAME
 70
     0
  9
$SPLINETYPE
 70
     6
  9
$SPLINESEGS
 70
     8
  9
$ATTDIA
 70
     0
  9
$ATTREQ
 70
     1
  9
$HANDLING
 70
     1
  9
$HANDSEED
  5
3B1
  9
$SURFTAB1
 70
     6
  9
$SURFTAB2
 70
     6
  9
$SURFTYPE
 70
     6
  9
$SURFU
 70
     6
  9
$SURFV
 70
     6
  9
$UCSNAME
  2

  9
$UCSORG
 10
0.0
 20
0.0
 30
0.0
  9
$UCSXDIR
 10
1.0
 20
0.0
 30
0.0
  9
$UCSYDIR
 10
0.0
 20
1.0
 30
0.0
  9
$PUCSNAME
  2

  9
$PUCSORG
 10
0.0
 20
0.0
 30
0.0
  9
$PUCSXDIR
 10
1.0
 20
0.0
 30
0.0
  9
$PUCSYDIR
 10
0.0
 20
1.0
 30
0.0
  9
$USERI1
 70
     0
  9
$USERI2
 70
     0
  9
$USERI3
 70
     0
  9
$USERI4
 70
     0
  9
$USERI5
 70
     0
  9
$USERR1
 40
0.0
  9
$USERR2
 40
0.0
  9
$USERR3
 40
0.0
  9
$USERR4
 40
0.0
  9
$USERR5
 40
0.0
  9
$WORLDVIEW
 70
     1
  9
$SHADEDGE
 70
     3
  9
$SHADEDIF
 70
    70
  9
$TILEMODE
 70
     1
  9
$MAXACTVP
 70
    48
  9
$PINSBASE
 10
0.0
 20
0.0
 30
0.0
  9
$PLIMCHECK
 70
     0
  9
$PEXTMIN
 10
1.000000E+20
 20
1.000000E+20
 30
1.000000E+20
  9
$PEXTMAX
 10
-1.000000E+20
 20
-1.000000E+20
 30
-1.000000E+20
  9
$PLIMMIN
 10
0.0
 20
0.0
  9
$PLIMMAX
 10
420.0
 20
297.0
  9
$UNITMODE
 70
     0
  9
$VISRETAIN
 70
     1
  9
$PLINEGEN
 70
     0
  9
$PSLTSCALE
 70
     1
  9
$TREEDEPTH
 70
  3020
  9
$PICKSTYLE
 70
     1
  9
$CMLSTYLE
  2
STANDARD
  9
$CMLJUST
 70
     0
  9
$CMLSCALE
 40
20.0
  9
$PROXYGRAPHICS
 70
     1
  9
$MEASUREMENT
 70
     0
  0
ENDSEC
  0
SECTION
  2
CLASSES
  0
ENDSEC
  0
SECTION
  2
TABLES
  0
TABLE
  2
VPORT
  5
12
100
AcDbSymbolTable
 70
     2
  0
VPORT
  5
3B0
100
AcDbSymbolTableRecord
100
AcDbViewportTableRecord
  2
*ACTIVE
 70
     0
 10
0.0
 20
0.0
 11
1.0
 21
1.0
 12
433.172535
 22
-126.116605
 13
0.0
 23
0.0
 14
10.0
 24
10.0
 15
10.0
 25
10.0
 16
0.0
 26
0.0
 36
1.0
 17
0.0
 27
0.0
 37
0.0
 40
833.718461
 41
1.523346
 42
50.0
 43
0.0
 44
0.0
 50
0.0
 51
0.0
 71
     0
 72
   100
 73
     1
 74
     1
 75
     0
 76
     0
 77
     0
 78
     0
  0
ENDTAB
  0
TABLE
  2
LTYPE
  5
D
100
AcDbSymbolTable
 70
     5
  0
LTYPE
  5
E
100
AcDbSymbolTableRecord
100
AcDbLinetypeTableRecord
  2
BYBLOCK
 70
     0
  3

 72
    65
 73
     0
 40
0.0
  0
LTYPE
  5
F
100
AcDbSymbolTableRecord
100
AcDbLinetypeTableRecord
  2
BYLAYER
 70
     0
  3

 72
    65
 73
     0
 40
0.0
  0
LTYPE
  5
5
100
AcDbSymbolTableRecord
100
AcDbLinetypeTableRecord
  2
CONTINUOUS
 70
     0
  3
Solid line
 72
    65
 73
     0
 40
0.0
  0
LTYPE
  5
A3
100
AcDbSymbolTableRecord
100
AcDbLinetypeTableRecord
  2
DASHED
 70
     0
  3
__ __ __ __ __ __ __ __ __ __ __ __ __ __ __
 72
    65
 73
     2
 40
0.75
 49
0.5
 74
     0
 49
-0.25
 74
     0
  0
LTYPE
  5
27
100
AcDbSymbolTableRecord
100
AcDbLinetypeTableRecord
  2
BORDER
 70
     0
  3
__ __ . __ __ . __ __ . __ __ . __ __ . __ __
 72
    65
 73
     6
 40
1.75
 49
0.5
 74
     0
 49
-0.25
 74
     0
 49
0.5
 74
     0
 49
-0.25
 74
     0
 49
0.0
 74
     0
 49
-0.25
 74
     0
  0
LTYPE
  5
26
100
AcDbSymbolTableRecord
100
AcDbLinetypeTableRecord
  2
DASHDOT
 70
     0
  3
__ . __ . __ . __ . __ . __ . __ . __ . __ . __
 72
    65
 73
     4
 40
1.0
 49
0.5
 74
     0
 49
-0.25
 74
     0
 49
0.0
 74
     0
 49
-0.25
 74
     0
  0
LTYPE
  5
217
100
AcDbSymbolTableRecord
100
AcDbLinetypeTableRecord
  2
DOT
 70
     0
  3
Dot . . . . . . . . . . . . . . . . . . . . . .
 72
    65
 73
     2
 40
6.35
 49
0.0
 74
     0
 49
-6.35
 74
     0
  0
ENDTAB
  0
TABLE
  2
LAYER
  5
A
100
AcDbSymbolTable
 70
     7
  0
LAYER
  5
4
100
AcDbSymbolTableRecord
100
AcDbLayerTableRecord
  2
0
 70
     0
 62
     7
  6
CONTINUOUS
  0
LAYER
  5
10A
100
AcDbSymbolTableRecord
100
AcDbLayerTableRecord
  2
POPIS-NAZVY
 70
     0
 62
   210
  6
CONTINUOUS
  0
LAYER
  5
116
100
AcDbSymbolTableRecord
100
AcDbLayerTableRecord
  2
DEFPOINTS
 70
     0
 62
     7
  6
CONTINUOUS
  0
LAYER
  5
218
100
AcDbSymbolTableRecord
100
AcDbLayerTableRecord
  2
V0-OBRYS
 70
     0
 62
    90
  6
CONTINUOUS
  0
LAYER
  5
219
100
AcDbSymbolTableRecord
100
AcDbLayerTableRecord
  2
V0-VYPLNE
 70
     0
 62
    52
  6
CONTINUOUS
  0
LAYER
  5
21A
100
AcDbSymbolTableRecord
100
AcDbLayerTableRecord
  2
V0-NAZVY
 70
     0
 62
   210
  6
CONTINUOUS
  0
LAYER
  5
21B
100
AcDbSymbolTableRecord
100
AcDbLayerTableRecord
  2
V0-ZBYTEK
 70
     0
 62
    51
  6
CONTINUOUS
  0
ENDTAB
  0
TABLE
  2
STYLE
  5
B
100
AcDbSymbolTable
 70
     7
  0
STYLE
  5
C
100
AcDbSymbolTableRecord
100
AcDbTextStyleTableRecord
  2
STANDARD
 70
     0
 40
0.0
 41
1.0
 50
0.0
 71
     0
 42
2.5
  3
txt
  4

  0
STYLE
  5
2B
100
AcDbSymbolTableRecord
100
AcDbTextStyleTableRecord
  2
SIMPLEX
 70
     0
 40
0.0
 41
1.0
 50
0.0
 71
     0
 42
0.2
  3
SIMPLEX
  4

  0
STYLE
  5
21D
100
AcDbSymbolTableRecord
100
AcDbTextStyleTableRecord
  2
ED
 70
     0
 40
20.0
 41
1.0
 50
0.0
 71
     0
 42
2.5
  3
ISOCP.shx
  4

  0
STYLE
  5
21E
100
AcDbSymbolTableRecord
100
AcDbTextStyleTableRecord
  2
EDVENT
 70
     0
 40
10.0
 41
1.0
 50
0.0
 71
     0
 42
2.5
  3
ISOCP.shx
  4

  0
STYLE
  5
21F
100
AcDbSymbolTableRecord
100
AcDbTextStyleTableRecord
  2
E
 70
     0
 40
25.0
 41
1.0
 50
0.0
 71
     0
 42
2.5
  3
ISOCP.shx
  4

  0
STYLE
  5
220
100
AcDbSymbolTableRecord
100
AcDbTextStyleTableRecord
  2
ED-VENT
 70
     0
 40
25.0
 41
1.0
 50
0.0
 71
     0
 42
2.5
  3
ISOCP.shx
  4

  0
STYLE
  5
221
100
AcDbSymbolTableRecord
100
AcDbTextStyleTableRecord
  2
ED2
 70
     0
 40
25.0
 41
1.0
 50
0.0
 71
     0
 42
2.5
  3
ISOCP.shx
  4

  0
ENDTAB
  0
TABLE
  2
VIEW
  5
10
100
AcDbSymbolTable
 70
     0
  0
ENDTAB
  0
TABLE
  2
UCS
  5
11
100
AcDbSymbolTable
 70
     0
  0
ENDTAB
  0
TABLE
  2
APPID
  5
14
100
AcDbSymbolTable
 70
     1
  0
APPID
  5
15
100
AcDbSymbolTableRecord
100
AcDbRegAppTableRecord
  2
ACAD
 70
     0
  0
ENDTAB
  0
TABLE
  2
DIMSTYLE
  5
16
100
AcDbSymbolTable
 70
     3
  0
DIMSTYLE
105
1D
102
{ACAD_REACTORS
330
11B
330
128
330
135
330
158
330
304
330
312
102
}
100
AcDbSymbolTableRecord
100
AcDbDimStyleTableRecord
  2
STANDARD
 70
     0
  3

  4

  5

  6

  7

 40
1.0
 41
0.18
 42
0.0625
 43
0.38
 44
0.18
 45
0.0
 46
0.0
 47
0.0
 48
0.0
140
0.18
141
0.09
142
0.0
143
25.4
144
1.0
145
0.0
146
1.0
147
0.09
 71
     0
 72
     0
 73
     1
 74
     1
 75
     0
 76
     0
 77
     0
 78
     0
170
     0
171
     2
172
     0
173
     0
174
     0
175
     0
176
     0
177
     0
178
     0
270
     2
271
     4
272
     4
273
     2
274
     2
340
C
275
     0
280
     0
281
     0
282
     0
283
     1
284
     0
285
     0
286
     0
287
     3
288
     0
  0
DIMSTYLE
105
222
100
AcDbSymbolTableRecord
100
AcDbDimStyleTableRecord
  2
ED
 70
     0
  3

  4

  5

  6
_OPEN
  7
_OPEN
 40
0.0
 41
15.0
 42
0.625
 43
3.75
 44
1.25
 45
0.0
 46
0.0
 47
0.0
 48
0.0
140
15.0
141
2.5
142
0.0
143
0.0394
144
1.0
145
0.0
146
1.0
147
3.0
 71
     0
 72
     0
 73
     0
 74
     0
 75
     0
 76
     0
 77
     1
 78
     8
170
     0
171
     4
172
     1
173
     1
174
     0
175
     0
176
     0
177
     0
178
     0
270
     2
271
     0
272
     1
273
     8
274
     4
340
21D
275
     0
280
     0
281
     0
282
     0
283
     1
284
     8
285
     0
286
     0
287
     3
288
     0
  0
DIMSTYLE
105
223
100
AcDbSymbolTableRecord
100
AcDbDimStyleTableRecord
  2
ED2
 70
     0
  3

  4

  5

  6
_OPEN
  7
_OPEN
 40
0.0
 41
25.0
 42
0.625
 43
3.75
 44
1.25
 45
0.0
 46
0.0
 47
0.0
 48
0.0
140
30.0
141
2.5
142
0.0
143
0.0394
144
1.0
145
0.0
146
1.0
147
5.0
 71
     0
 72
     0
 73
     0
 74
     0
 75
     0
 76
     0
 77
     1
 78
     8
170
     0
171
     4
172
     1
173
     1
174
     0
175
     0
176
     0
177
     0
178
     0
270
     2
271
     0
272
     1
273
     8
274
     4
340
21D
275
     0
280
     0
281
     0
282
     0
283
     1
284
     8
285
     0
286
     0
287
     3
288
     0
  0
ENDTAB
  0
TABLE
  2
BLOCK_RECORD
  5
1
100
AcDbSymbolTable
 70
    14
  0
BLOCK_RECORD
  5
2
100
AcDbSymbolTableRecord
100
AcDbBlockTableRecord
  2
*MODEL_SPACE
  0
BLOCK_RECORD
  5
7
100
AcDbSymbolTableRecord
100
AcDbBlockTableRecord
  2
*PAPER_SPACE
  0
BLOCK_RECORD
  5
1E
100
AcDbSymbolTableRecord
100
AcDbBlockTableRecord
  2
_OPEN
  0
BLOCK_RECORD
  5
10E
100
AcDbSymbolTableRecord
100
AcDbBlockTableRecord
  2
*D1
  0
BLOCK_RECORD
  5
11C
100
AcDbSymbolTableRecord
100
AcDbBlockTableRecord
  2
*D2
  0
BLOCK_RECORD
  5
129
100
AcDbSymbolTableRecord
100
AcDbBlockTableRecord
  2
*D3
  0
BLOCK_RECORD
  5
14C
100
AcDbSymbolTableRecord
100
AcDbBlockTableRecord
  2
*D4
  0
BLOCK_RECORD
  5
224
100
AcDbSymbolTableRecord
100
AcDbBlockTableRecord
  2
ABBB
  0
BLOCK_RECORD
  5
2F8
100
AcDbSymbolTableRecord
100
AcDbBlockTableRecord
  2
*D8
  0
BLOCK_RECORD
  5
305
100
AcDbSymbolTableRecord
100
AcDbBlockTableRecord
  2
*D9
  0
ENDTAB
  0
ENDSEC
  0
SECTION
  2
BLOCKS
  0
BLOCK
  5
3
100
AcDbEntity
  8
0
100
AcDbBlockBegin
  2
*MODEL_SPACE
 70
     0
 10
0.0
 20
0.0
 30
0.0
  3
*MODEL_SPACE
  1

  0
ENDBLK
  5
6
100
AcDbEntity
  8
0
100
AcDbBlockEnd
  0
BLOCK
  5
8
100
AcDbEntity
 67
     1
  8
0
100
AcDbBlockBegin
  2
*PAPER_SPACE
 70
     0
 10
0.0
 20
0.0
 30
0.0
  3
*PAPER_SPACE
  1

  0
ENDBLK
  5
9
100
AcDbEntity
 67
     1
  8
0
100
AcDbBlockEnd
  0
BLOCK
  5
22
100
AcDbEntity
  8
0
100
AcDbBlockBegin
  2
_OPEN
 70
     0
 10
0.0
 20
0.0
 30
0.0
  3
_OPEN
  1

  0
LINE
  5
1F
100
AcDbEntity
  8
0
  6
BYBLOCK
 62
     0
100
AcDbLine
 10
-1.0
 20
0.166667
 30
0.0
 11
0.0
 21
0.0
 31
0.0
  0
LINE
  5
20
100
AcDbEntity
  8
0
  6
BYBLOCK
 62
     0
100
AcDbLine
 10
0.0
 20
0.0
 30
0.0
 11
-1.0
 21
-0.166667
 31
0.0
  0
LINE
  5
21
100
AcDbEntity
  8
0
  6
BYBLOCK
 62
     0
100
AcDbLine
 10
0.0
 20
0.0
 30
0.0
 11
-1.0
 21
0.0
 31
0.0
  0
ENDBLK
  5
23
100
AcDbEntity
  8
0
100
AcDbBlockEnd
  0
BLOCK
  5
35D
100
AcDbEntity
  8
0
100
AcDbBlockBegin
  2
*D1
 70
     1
 10
0.0
 20
0.0
 30
0.0
  3
*D1
  1

  0
LINE
  5
35E
100
AcDbEntity
  8
0
  6
BYBLOCK
 62
     0
100
AcDbLine
 10
395.625
 20
152.853683
 30
0.0
 11
510.197318
 21
152.853683
 31
0.0
  0
LINE
  5
35F
100
AcDbEntity
  8
0
  6
BYBLOCK
 62
     0
100
AcDbLine
 10
390.625
 20
-152.5
 30
0.0
 11
510.197318
 21
-152.5
 31
0.0
  0
LINE
  5
360
100
AcDbEntity
  8
0
  6
BYBLOCK
 62
     0
100
AcDbLine
 10
508.947318
 20
127.853683
 30
0.0
 11
508.947318
 21
-127.5
 31
0.0
  0
INSERT
  5
361
100
AcDbEntity
  8
0
  6
BYBLOCK
 62
     0
100
AcDbBlockReference
  2
_OPEN
 10
508.947318
 20
152.853683
 30
0.0
 41
25.0
 42
25.0
 43
25.0
 50
90.0
  0
INSERT
  5
362
100
AcDbEntity
  8
0
  6
BYBLOCK
 62
     0
100
AcDbBlockReference
  2
_OPEN
 10
508.947318
 20
-152.5
 30
0.0
 41
25.0
 42
25.0
 43
25.0
 50
270.0
  0
MTEXT
  5
363
100
AcDbEntity
  8
0
  6
BYBLOCK
 62
     0
100
AcDbMText
 10
493.447318
 20
0.176842
 30
0.0
 40
25.0
 41
0.0
 71
     5
 72
     1
  1
\A1;305
 11
0.0
 21
1.0
 31
0.0
  0
POINT
  5
364
100
AcDbEntity
  8
DEFPOINTS
  6
BYBLOCK
 62
     0
100
AcDbPoint
 10
395.0
 20
152.853683
 30
0.0
  0
POINT
  5
365
100
AcDbEntity
  8
DEFPOINTS
  6
BYBLOCK
 62
     0
100
AcDbPoint
 10
390.0
 20
-152.5
 30
0.0
  0
POINT
  5
366
100
AcDbEntity
  8
DEFPOINTS
  6
BYBLOCK
 62
     0
100
AcDbPoint
 10
508.947318
 20
-152.5
 30
0.0
  0
ENDBLK
  5
367
100
AcDbEntity
  8
0
100
AcDbBlockEnd
  0
BLOCK
  5
2B1
100
AcDbEntity
  8
0
100
AcDbBlockBegin
  2
*D2
 70
     1
 10
0.0
 20
0.0
 30
0.0
  3
*D2
  1

  0
LINE
  5
2B2
100
AcDbEntity
  8
0
  6
BYBLOCK
 62
     0
100
AcDbLine
 10
430.625
 20
80.0
 30
0.0
 11
471.108695
 21
80.0
 31
0.0
  0
LINE
  5
2B3
100
AcDbEntity
  8
0
  6
BYBLOCK
 62
     0
100
AcDbLine
 10
430.625
 20
-80.0
 30
0.0
 11
471.108695
 21
-80.0
 31
0.0
  0
LINE
  5
2B4
100
AcDbEntity
  8
0
  6
BYBLOCK
 62
     0
100
AcDbLine
 10
469.858695
 20
55.0
 30
0.0
 11
469.858695
 21
-55.0
 31
0.0
  0
INSERT
  5
2B5
100
AcDbEntity
  8
0
  6
BYBLOCK
 62
     0
100
AcDbBlockReference
  2
_OPEN
 10
469.858695
 20
80.0
 30
0.0
 41
25.0
 42
25.0
 43
25.0
 50
90.0
  0
INSERT
  5
2B6
100
AcDbEntity
  8
0
  6
BYBLOCK
 62
     0
100
AcDbBlockReference
  2
_OPEN
 10
469.858695
 20
-80.0
 30
0.0
 41
25.0
 42
25.0
 43
25.0
 50
270.0
  0
MTEXT
  5
2B7
100
AcDbEntity
  8
0
  6
BYBLOCK
 62
     0
100
AcDbMText
 10
454.358695
 20
0.0
 30
0.0
 40
25.0
 41
0.0
 71
     5
 72
     1
  1
\A1;\U+2205160
 11
0.0
 21
1.0
 31
0.0
  0
POINT
  5
2B8
100
AcDbEntity
  8
DEFPOINTS
  6
BYBLOCK
 62
     0
100
AcDbPoint
 10
430.0
 20
80.0
 30
0.0
  0
POINT
  5
2B9
100
AcDbEntity
  8
DEFPOINTS
  6
BYBLOCK
 62
     0
100
AcDbPoint
 10
430.0
 20
-80.0
 30
0.0
  0
POINT
  5
2BA
100
AcDbEntity
  8
DEFPOINTS
  6
BYBLOCK
 62
     0
100
AcDbPoint
 10
469.858695
 20
-80.0
 30
0.0
  0
ENDBLK
  5
2BB
100
AcDbEntity
  8
0
100
AcDbBlockEnd
  0
BLOCK
  5
141
100
AcDbEntity
  8
0
100
AcDbBlockBegin
  2
*D3
 70
     1
 10
0.0
 20
0.0
 30
0.0
  3
*D3
  1

  0
LINE
  5
142
100
AcDbEntity
  8
0
  6
BYBLOCK
 62
     0
100
AcDbLine
 10
568.5
 20
-163.125
 30
0.0
 11
568.5
 21
-208.18761
 31
0.0
  0
LINE
  5
143
100
AcDbEntity
  8
0
  6
BYBLOCK
 62
     0
100
AcDbLine
 10
826.5
 20
-163.125
 30
0.0
 11
826.5
 21
-208.18761
 31
0.0
  0
LINE
  5
144
100
AcDbEntity
  8
0
  6
BYBLOCK
 62
     0
100
AcDbLine
 10
593.5
 20
-206.93761
 30
0.0
 11
801.5
 21
-206.93761
 31
0.0
  0
INSERT
  5
145
100
AcDbEntity
  8
0
  6
BYBLOCK
 62
     0
100
AcDbBlockReference
  2
_OPEN
 10
568.5
 20
-206.93761
 30
0.0
 41
25.0
 42
25.0
 43
25.0
 50
180.0
  0
INSERT
  5
146
100
AcDbEntity
  8
0
  6
BYBLOCK
 62
     0
100
AcDbBlockReference
  2
_OPEN
 10
826.5
 20
-206.93761
 30
0.0
 41
25.0
 42
25.0
 43
25.0
  0
MTEXT
  5
147
100
AcDbEntity
  8
0
  6
BYBLOCK
 62
     0
100
AcDbMText
 10
697.5
 20
-191.43761
 30
0.0
 40
25.0
 41
0.0
 71
     5
 72
     1
  1
\A1;258
  0
POINT
  5
148
100
AcDbEntity
  8
DEFPOINTS
  6
BYBLOCK
 62
     0
100
AcDbPoint
 10
568.5
 20
-162.5
 30
0.0
  0
POINT
  5
149
100
AcDbEntity
  8
DEFPOINTS
  6
BYBLOCK
 62
     0
100
AcDbPoint
 10
826.5
 20
-162.5
 30
0.0
  0
POINT
  5
14A
100
AcDbEntity
  8
DEFPOINTS
  6
BYBLOCK
 62
     0
100
AcDbPoint
 10
826.5
 20
-206.93761
 30
0.0
  0
ENDBLK
  5
14B
100
AcDbEntity
  8
0
100
AcDbBlockEnd
  0
BLOCK
  5
164
100
AcDbEntity
  8
0
100
AcDbBlockBegin
  2
*D4
 70
     1
 10
0.0
 20
0.0
 30
0.0
  3
*D4
  1

  0
LINE
  5
165
100
AcDbEntity
  8
0
  6
BYBLOCK
 62
     0
100
AcDbLine
 10
590.0
 20
139.540421
 30
0.0
 11
590.0
 21
199.202485
 31
0.0
  0
LINE
  5
166
100
AcDbEntity
  8
0
  6
BYBLOCK
 62
     0
100
AcDbLine
 10
805.0
 20
139.540421
 30
0.0
 11
805.0
 21
199.202485
 31
0.0
  0
LINE
  5
167
100
AcDbEntity
  8
0
  6
BYBLOCK
 62
     0
100
AcDbLine
 10
615.0
 20
197.952485
 30
0.0
 11
780.0
 21
197.952485
 31
0.0
  0
INSERT
  5
168
100
AcDbEntity
  8
0
  6
BYBLOCK
 62
     0
100
AcDbBlockReference
  2
_OPEN
 10
590.0
 20
197.952485
 30
0.0
 41
25.0
 42
25.0
 43
25.0
 50
180.0
  0
INSERT
  5
169
100
AcDbEntity
  8
0
  6
BYBLOCK
 62
     0
100
AcDbBlockReference
  2
_OPEN
 10
805.0
 20
197.952485
 30
0.0
 41
25.0
 42
25.0
 43
25.0
  0
MTEXT
  5
16A
100
AcDbEntity
  8
0
  6
BYBLOCK
 62
     0
100
AcDbMText
 10
697.5
 20
213.452485
 30
0.0
 40
25.0
 41
0.0
 71
     5
 72
     1
  1
\A1;215
  0
POINT
  5
16B
100
AcDbEntity
  8
DEFPOINTS
  6
BYBLOCK
 62
     0
100
AcDbPoint
 10
590.0
 20
138.915421
 30
0.0
  0
POINT
  5
16C
100
AcDbEntity
  8
DEFPOINTS
  6
BYBLOCK
 62
     0
100
AcDbPoint
 10
805.0
 20
138.915421
 30
0.0
  0
POINT
  5
16D
100
AcDbEntity
  8
DEFPOINTS
  6
BYBLOCK
 62
     0
100
AcDbPoint
 10
805.0
 20
197.952485
 30
0.0
  0
ENDBLK
  5
16E
100
AcDbEntity
  8
0
100
AcDbBlockEnd
  0
BLOCK
  5
225
100
AcDbEntity
  8
0
100
AcDbBlockBegin
  2
ABBB
 70
     0
 10
0.0
 20
0.0
 30
0.0
  3
ABBB
  1

  0
ENDBLK
  5
226
100
AcDbEntity
  8
0
100
AcDbBlockEnd
  0
BLOCK
  5
32C
100
AcDbEntity
  8
0
100
AcDbBlockBegin
  2
*D8
 70
     1
 10
0.0
 20
0.0
 30
0.0
  3
*D8
  1

  0
LINE
  5
32D
100
AcDbEntity
  8
0
  6
BYBLOCK
 62
     0
100
AcDbLine
 10
50.0
 20
-80.625
 30
0.0
 11
50.0
 21
-228.018229
 31
0.0
  0
LINE
  5
32E
100
AcDbEntity
  8
0
  6
BYBLOCK
 62
     0
100
AcDbLine
 10
430.0
 20
-80.625
 30
0.0
 11
430.0
 21
-228.018229
 31
0.0
  0
LINE
  5
32F
100
AcDbEntity
  8
0
  6
BYBLOCK
 62
     0
100
AcDbLine
 10
75.0
 20
-226.768229
 30
0.0
 11
405.0
 21
-226.768229
 31
0.0
  0
INSERT
  5
330
100
AcDbEntity
  8
0
  6
BYBLOCK
 62
     0
100
AcDbBlockReference
  2
_OPEN
 10
50.0
 20
-226.768229
 30
0.0
 41
25.0
 42
25.0
 43
25.0
 50
180.0
  0
INSERT
  5
331
100
AcDbEntity
  8
0
  6
BYBLOCK
 62
     0
100
AcDbBlockReference
  2
_OPEN
 10
430.0
 20
-226.768229
 30
0.0
 41
25.0
 42
25.0
 43
25.0
  0
MTEXT
  5
332
100
AcDbEntity
  8
0
  6
BYBLOCK
 62
     0
100
AcDbMText
 10
240.0
 20
-211.268229
 30
0.0
 40
25.0
 41
0.0
 71
     5
 72
     1
  1
\A1;380
  0
POINT
  5
333
100
AcDbEntity
  8
DEFPOINTS
  6
BYBLOCK
 62
     0
100
AcDbPoint
 10
50.0
 20
-80.0
 30
0.0
  0
POINT
  5
334
100
AcDbEntity
  8
DEFPOINTS
  6
BYBLOCK
 62
     0
100
AcDbPoint
 10
430.0
 20
-80.0
 30
0.0
  0
POINT
  5
335
100
AcDbEntity
  8
DEFPOINTS
  6
BYBLOCK
 62
     0
100
AcDbPoint
 10
430.0
 20
-226.768229
 30
0.0
  0
ENDBLK
  5
336
100
AcDbEntity
  8
0
100
AcDbBlockEnd
  0
BLOCK
  5
337
100
AcDbEntity
  8
0
100
AcDbBlockBegin
  2
*D9
 70
     1
 10
0.0
 20
0.0
 30
0.0
  3
*D9
  1

  0
LINE
  5
338
100
AcDbEntity
  8
0
  6
BYBLOCK
 62
     0
100
AcDbLine
 10
50.0
 20
-81.25
 30
0.0
 11
50.0
 21
-192.003697
 31
0.0
  0
LINE
  5
339
100
AcDbEntity
  8
0
  6
BYBLOCK
 62
     0
100
AcDbLine
 10
90.0
 20
-80.625
 30
0.0
 11
90.0
 21
-192.003697
 31
0.0
  0
LINE
  5
33A
100
AcDbEntity
  8
0
  6
BYBLOCK
 62
     0
100
AcDbLine
 10
25.0
 20
-190.753697
 30
0.0
 11
0.0
 21
-190.753697
 31
0.0
  0
LINE
  5
33B
100
AcDbEntity
  8
0
  6
BYBLOCK
 62
     0
100
AcDbLine
 10
115.0
 20
-190.753697
 30
0.0
 11
140.0
 21
-190.753697
 31
0.0
  0
INSERT
  5
33C
100
AcDbEntity
  8
0
  6
BYBLOCK
 62
     0
100
AcDbBlockReference
  2
_OPEN
 10
50.0
 20
-190.753697
 30
0.0
 41
25.0
 42
25.0
 43
25.0
  0
INSERT
  5
33D
100
AcDbEntity
  8
0
  6
BYBLOCK
 62
     0
100
AcDbBlockReference
  2
_OPEN
 10
90.0
 20
-190.753697
 30
0.0
 41
25.0
 42
25.0
 43
25.0
 50
180.0
  0
MTEXT
  5
33E
100
AcDbEntity
  8
0
  6
BYBLOCK
 62
     0
100
AcDbMText
 10
70.0
 20
-175.253697
 30
0.0
 40
25.0
 41
0.0
 71
     5
 72
     1
  1
\A1;40
  0
POINT
  5
33F
100
AcDbEntity
  8
DEFPOINTS
  6
BYBLOCK
 62
     0
100
AcDbPoint
 10
50.0
 20
-80.625
 30
0.0
  0
POINT
  5
340
100
AcDbEntity
  8
DEFPOINTS
  6
BYBLOCK
 62
     0
100
AcDbPoint
 10
90.0
 20
-80.0
 30
0.0
  0
POINT
  5
341
100
AcDbEntity
  8
DEFPOINTS
  6
BYBLOCK
 62
     0
100
AcDbPoint
 10
90.0
 20
-190.753697
 30
0.0
  0
ENDBLK
  5
342
100
AcDbEntity
  8
0
100
AcDbBlockEnd
  0
ENDSEC
  0
SECTION
  2
ENTITIES
  0
LINE
  5
24
100
AcDbEntity
  8
V0-VYPLNE
  6
DASHDOT
 62
    63
 48
50.0
100
AcDbLine
 10
427.973831
 20
0.0
 30
0.0
 11
42.080452
 21
0.0
 31
0.0
  0
LINE
  5
28
100
AcDbEntity
  8
V0-VYPLNE
  6
DASHDOT
 62
    63
 48
50.0
100
AcDbLine
 10
445.195923
 20
-406.247884
 30
0.0
 11
42.080452
 21
-406.247884
 31
0.0
  0
TEXT
  5
29
100
AcDbEntity
  8
V0-ZBYTEK
  6
CONTINUOUS
 62
    51
100
AcDbText
 10
572.67036
 20
-379.023309
 30
0.0
 40
15.0
  1
PRO KRUHOVA POTRUBI
  7
SIMPLEX
 72
     1
 11
707.313217
 21
-379.023309
 31
0.0
100
AcDbText
  0
TEXT
  5
2C
100
AcDbEntity
  8
V0-ZBYTEK
  6
CONTINUOUS
 62
   130
100
AcDbText
 10
563.144779
 20
-344.8088
 30
0.0
 40
25.0
  1
VODNI OHRIVAC
  7
SIMPLEX
 72
     1
 11
707.192398
 21
-344.8088
 31
0.0
100
AcDbText
  0
LINE
  5
2D
100
AcDbEntity
  8
V0-VYPLNE
  6
CONTINUOUS
 62
    52
100
AcDbLine
 10
245.557556
 20
-405.828847
 30
0.0
 11
245.557556
 21
-377.438955
 31
0.0
  0
LINE
  5
2E
100
AcDbEntity
  8
V0-VYPLNE
  6
CONTINUOUS
 62
    52
100
AcDbLine
 10
245.557556
 20
-377.438955
 30
0.0
 11
279.635498
 21
-407.498861
 31
0.0
  0
LINE
  5
2F
100
AcDbEntity
  8
V0-VYPLNE
  6
CONTINUOUS
 62
    52
100
AcDbLine
 10
243.934814
 20
-0.572205
 30
0.0
 11
243.934814
 21
27.817688
 31
0.0
  0
LINE
  5
30
100
AcDbEntity
  8
V0-VYPLNE
  6
CONTINUOUS
 62
    52
100
AcDbLine
 10
243.934814
 20
27.817688
 30
0.0
 11
278.012756
 21
-2.242249
 31
0.0
  0
LINE
  5
31
100
AcDbEntity
  8
V0-VYPLNE
  6
CONTINUOUS
 62
    52
100
AcDbLine
 10
243.934814
 20
0.0
 30
0.0
 11
243.934814
 21
-28.389893
 31
0.0
  0
LINE
  5
32
100
AcDbEntity
  8
V0-VYPLNE
  6
CONTINUOUS
 62
    52
100
AcDbLine
 10
243.934814
 20
-28.389893
 30
0.0
 11
278.012756
 21
1.669983
 31
0.0
  0
LINE
  5
3A
100
AcDbEntity
  8
V0-OBRYS
  6
CONTINUOUS
 62
    90
100
AcDbLine
 10
90.0
 20
125.353683
 30
0.0
 11
50.0
 21
125.353683
 31
0.0
  0
LINE
  5
3B
100
AcDbEntity
  8
V0-OBRYS
  6
CONTINUOUS
 62
    90
100
AcDbLine
 10
90.0
 20
130.353683
 30
0.0
 11
50.0
 21
130.353683
 31
0.0
  0
LINE
  5
3C
100
AcDbEntity
  8
V0-OBRYS
  6
CONTINUOUS
 62
    90
100
AcDbLine
 10
50.0
 20
130.353683
 30
0.0
 11
50.0
 21
125.353683
 31
0.0
  0
LINE
  5
3D
100
AcDbEntity
  8
V0-OBRYS
  6
CONTINUOUS
 62
    90
100
AcDbLine
 10
90.0
 20
0.0
 30
0.0
 11
90.0
 21
142.853683
 31
0.0
  0
LINE
  5
3E
100
AcDbEntity
  8
V0-OBRYS
  6
CONTINUOUS
 62
    90
100
AcDbLine
 10
84.513985
 20
152.5
 30
0.0
 11
85.0
 21
152.5
 31
0.0
  0
LINE
  5
3F
100
AcDbEntity
  8
V0-OBRYS
  6
CONTINUOUS
 62
    90
100
AcDbLine
 10
85.0
 20
152.5
 30
0.0
 11
85.0
 21
142.853683
 31
0.0
  0
LINE
  5
40
100
AcDbEntity
  8
V0-OBRYS
  6
CONTINUOUS
 62
    90
100
AcDbLine
 10
395.0
 20
152.5
 30
0.0
 11
395.0
 21
142.853683
 31
0.0
  0
LINE
  5
41
100
AcDbEntity
  8
V0-OBRYS
  6
CONTINUOUS
 62
    90
100
AcDbLine
 10
85.0
 20
142.853683
 30
0.0
 11
395.0
 21
142.853683
 31
0.0
  0
LINE
  5
42
100
AcDbEntity
  8
V0-OBRYS
  6
CONTINUOUS
 62
    90
100
AcDbLine
 10
395.0
 20
152.853683
 30
0.0
 11
85.0
 21
152.853683
 31
0.0
  0
LINE
  5
43
100
AcDbEntity
  8
V0-VYPLNE
  6
DASHDOT
 62
    63
 48
50.0
100
AcDbLine
 10
95.379578
 20
127.853683
 30
0.0
 11
42.700928
 21
127.853683
 31
0.0
  0
LINE
  5
44
100
AcDbEntity
  8
V0-OBRYS
  6
CONTINUOUS
 62
    90
100
AcDbLine
 10
90.0
 20
-152.5
 30
0.0
 11
90.0
 21
0.0
 31
0.0
  0
LINE
  5
45
100
AcDbEntity
  8
V0-OBRYS
  6
CONTINUOUS
 62
    90
100
AcDbLine
 10
90.0
 20
-152.5
 30
0.0
 11
390.0
 21
-152.5
 31
0.0
  0
LINE
  5
46
100
AcDbEntity
  8
V0-OBRYS
  6
CONTINUOUS
 62
    90
100
AcDbLine
 10
390.0
 20
-152.5
 30
0.0
 11
390.0
 21
142.853683
 31
0.0
  0
LINE
  5
47
100
AcDbEntity
  8
V0-OBRYS
  6
CONTINUOUS
 62
    90
100
AcDbLine
 10
50.0
 20
0.0
 30
0.0
 11
50.0
 21
80.0
 31
0.0
  0
LINE
  5
48
100
AcDbEntity
  8
V0-OBRYS
  6
CONTINUOUS
 62
    90
100
AcDbLine
 10
59.345802
 20
0.0
 30
0.0
 11
59.345802
 21
83.220367
 31
0.0
  0
LINE
  5
49
100
AcDbEntity
  8
V0-OBRYS
  6
CONTINUOUS
 62
    90
100
AcDbLine
 10
59.345802
 20
83.220367
 30
0.0
 11
64.130844
 21
83.220367
 31
0.0
  0
LINE
  5
4A
100
AcDbEntity
  8
V0-OBRYS
  6
CONTINUOUS
 62
    90
100
AcDbLine
 10
64.130844
 20
83.220367
 30
0.0
 11
64.130844
 21
-0.100907
 31
0.0
  0
LINE
  5
4B
100
AcDbEntity
  8
V0-OBRYS
  6
CONTINUOUS
 62
    90
100
AcDbLine
 10
59.358932
 20
80.0
 30
0.0
 11
50.0
 21
80.0
 31
0.0
  0
LINE
  5
4C
100
AcDbEntity
  8
V0-OBRYS
  6
CONTINUOUS
 62
    90
100
AcDbLine
 10
64.146248
 20
80.0
 30
0.0
 11
90.0
 21
80.0
 31
0.0
  0
LINE
  5
4D
100
AcDbEntity
  8
V0-OBRYS
  6
CONTINUOUS
 62
    90
100
AcDbLine
 10
430.0
 20
0.0
 30
0.0
 11
430.0
 21
80.0
 31
0.0
  0
LINE
  5
4E
100
AcDbEntity
  8
V0-OBRYS
  6
CONTINUOUS
 62
    90
100
AcDbLine
 10
420.654205
 20
0.0
 30
0.0
 11
420.654205
 21
83.220367
 31
0.0
  0
LINE
  5
4F
100
AcDbEntity
  8
V0-OBRYS
  6
CONTINUOUS
 62
    90
100
AcDbLine
 10
420.654205
 20
83.220367
 30
0.0
 11
415.869141
 21
83.220367
 31
0.0
  0
LINE
  5
50
100
AcDbEntity
  8
V0-OBRYS
  6
CONTINUOUS
 62
    90
100
AcDbLine
 10
415.869141
 20
83.220367
 30
0.0
 11
415.869141
 21
-0.100906
 31
0.0
  0
LINE
  5
51
100
AcDbEntity
  8
V0-OBRYS
  6
CONTINUOUS
 62
    90
100
AcDbLine
 10
420.641052
 20
80.0
 30
0.0
 11
430.0
 21
80.0
 31
0.0
  0
LINE
  5
52
100
AcDbEntity
  8
V0-OBRYS
  6
CONTINUOUS
 62
    90
100
AcDbLine
 10
415.85376
 20
80.0
 30
0.0
 11
390.0
 21
80.0
 31
0.0
  0
LINE
  5
53
100
AcDbEntity
  8
V0-OBRYS
  6
CONTINUOUS
 62
    90
100
AcDbLine
 10
50.0
 20
0.0
 30
0.0
 11
50.0
 21
-80.0
 31
0.0
  0
LINE
  5
54
100
AcDbEntity
  8
V0-OBRYS
  6
CONTINUOUS
 62
    90
100
AcDbLine
 10
59.345802
 20
0.0
 30
0.0
 11
59.345802
 21
-83.220367
 31
0.0
  0
LINE
  5
55
100
AcDbEntity
  8
V0-OBRYS
  6
CONTINUOUS
 62
    90
100
AcDbLine
 10
59.345802
 20
-83.220367
 30
0.0
 11
64.130844
 21
-83.220367
 31
0.0
  0
LINE
  5
56
100
AcDbEntity
  8
V0-OBRYS
  6
CONTINUOUS
 62
    90
100
AcDbLine
 10
64.130844
 20
-83.220367
 30
0.0
 11
64.130844
 21
0.100907
 31
0.0
  0
LINE
  5
57
100
AcDbEntity
  8
V0-OBRYS
  6
CONTINUOUS
 62
    90
100
AcDbLine
 10
59.358932
 20
-80.0
 30
0.0
 11
50.0
 21
-80.0
 31
0.0
  0
LINE
  5
58
100
AcDbEntity
  8
V0-OBRYS
  6
CONTINUOUS
 62
    90
100
AcDbLine
 10
64.146248
 20
-80.0
 30
0.0
 11
90.0
 21
-80.0
 31
0.0
  0
LINE
  5
59
100
AcDbEntity
  8
V0-OBRYS
  6
CONTINUOUS
 62
    90
100
AcDbLine
 10
430.0
 20
0.0
 30
0.0
 11
430.0
 21
-80.0
 31
0.0
  0
LINE
  5
5A
100
AcDbEntity
  8
V0-OBRYS
  6
CONTINUOUS
 62
    90
100
AcDbLine
 10
420.654205
 20
0.0
 30
0.0
 11
420.654205
 21
-83.220367
 31
0.0
  0
LINE
  5
5B
100
AcDbEntity
  8
V0-OBRYS
  6
CONTINUOUS
 62
    90
100
AcDbLine
 10
420.654205
 20
-83.220367
 30
0.0
 11
415.869141
 21
-83.220367
 31
0.0
  0
LINE
  5
5C
100
AcDbEntity
  8
V0-OBRYS
  6
CONTINUOUS
 62
    90
100
AcDbLine
 10
415.869141
 20
-83.220367
 30
0.0
 11
415.869141
 21
0.100906
 31
0.0
  0
LINE
  5
5D
100
AcDbEntity
  8
V0-OBRYS
  6
CONTINUOUS
 62
    90
100
AcDbLine
 10
420.641052
 20
-80.0
 30
0.0
 11
430.0
 21
-80.0
 31
0.0
  0
LINE
  5
5E
100
AcDbEntity
  8
V0-OBRYS
  6
CONTINUOUS
 62
    90
100
AcDbLine
 10
415.85376
 20
-80.0
 30
0.0
 11
390.0
 21
-80.0
 31
0.0
  0
LINE
  5
5F
100
AcDbEntity
  8
V0-OBRYS
  6
CONTINUOUS
 62
    90
100
AcDbLine
 10
390.0
 20
-277.247884
 30
0.0
 11
90.0
 21
-277.247884
 31
0.0
  0
LINE
  5
60
100
AcDbEntity
  8
V0-OBRYS
  6
CONTINUOUS
 62
    90
100
AcDbLine
 10
90.0
 20
-277.601568
 30
0.0
 11
90.0
 21
-406.247884
 31
0.0
  0
LINE
  5
61
100
AcDbEntity
  8
V0-OBRYS
  6
CONTINUOUS
 62
    90
100
AcDbLine
 10
390.0
 20
-277.601568
 30
0.0
 11
390.0
 21
-406.247884
 31
0.0
  0
LINE
  5
63
100
AcDbEntity
  8
V0-OBRYS
  6
CONTINUOUS
 62
    90
100
AcDbLine
 10
50.0
 20
-406.247884
 30
0.0
 11
50.0
 21
-326.247884
 31
0.0
  0
LINE
  5
64
100
AcDbEntity
  8
V0-OBRYS
  6
CONTINUOUS
 62
    90
100
AcDbLine
 10
59.345802
 20
-406.247884
 30
0.0
 11
59.345802
 21
-323.027517
 31
0.0
  0
LINE
  5
65
100
AcDbEntity
  8
V0-OBRYS
  6
CONTINUOUS
 62
    90
100
AcDbLine
 10
59.345802
 20
-323.027517
 30
0.0
 11
64.130844
 21
-323.027517
 31
0.0
  0
LINE
  5
66
100
AcDbEntity
  8
V0-OBRYS
  6
CONTINUOUS
 62
    90
100
AcDbLine
 10
64.130844
 20
-323.027517
 30
0.0
 11
64.130844
 21
-406.348806
 31
0.0
  0
LINE
  5
67
100
AcDbEntity
  8
V0-OBRYS
  6
CONTINUOUS
 62
    90
100
AcDbLine
 10
59.358932
 20
-326.247884
 30
0.0
 11
50.0
 21
-326.247884
 31
0.0
  0
LINE
  5
68
100
AcDbEntity
  8
V0-OBRYS
  6
CONTINUOUS
 62
    90
100
AcDbLine
 10
430.0
 20
-406.247884
 30
0.0
 11
430.0
 21
-326.247884
 31
0.0
  0
LINE
  5
69
100
AcDbEntity
  8
V0-OBRYS
  6
CONTINUOUS
 62
    90
100
AcDbLine
 10
420.654205
 20
-406.247884
 30
0.0
 11
420.654205
 21
-323.027517
 31
0.0
  0
LINE
  5
6A
100
AcDbEntity
  8
V0-OBRYS
  6
CONTINUOUS
 62
    90
100
AcDbLine
 10
420.654205
 20
-323.027517
 30
0.0
 11
415.869141
 21
-323.027517
 31
0.0
  0
LINE
  5
6B
100
AcDbEntity
  8
V0-OBRYS
  6
CONTINUOUS
 62
    90
100
AcDbLine
 10
415.869141
 20
-323.027517
 30
0.0
 11
415.869141
 21
-406.348775
 31
0.0
  0
LINE
  5
6C
100
AcDbEntity
  8
V0-OBRYS
  6
CONTINUOUS
 62
    90
100
AcDbLine
 10
420.641052
 20
-326.247884
 30
0.0
 11
430.0
 21
-326.247884
 31
0.0
  0
LINE
  5
6D
100
AcDbEntity
  8
V0-OBRYS
  6
CONTINUOUS
 62
    90
100
AcDbLine
 10
50.0
 20
-406.247884
 30
0.0
 11
50.0
 21
-486.247884
 31
0.0
  0
LINE
  5
6E
100
AcDbEntity
  8
V0-OBRYS
  6
CONTINUOUS
 62
    90
100
AcDbLine
 10
59.345802
 20
-406.247884
 30
0.0
 11
59.345802
 21
-489.468252
 31
0.0
  0
LINE
  5
6F
100
AcDbEntity
  8
V0-OBRYS
  6
CONTINUOUS
 62
    90
100
AcDbLine
 10
59.345802
 20
-489.468252
 30
0.0
 11
64.130844
 21
-489.468252
 31
0.0
  0
LINE
  5
70
100
AcDbEntity
  8
V0-OBRYS
  6
CONTINUOUS
 62
    90
100
AcDbLine
 10
64.130844
 20
-489.468252
 30
0.0
 11
64.130844
 21
-406.146963
 31
0.0
  0
LINE
  5
71
100
AcDbEntity
  8
V0-OBRYS
  6
CONTINUOUS
 62
    90
100
AcDbLine
 10
59.358932
 20
-486.247884
 30
0.0
 11
50.0
 21
-486.247884
 31
0.0
  0
LINE
  5
72
100
AcDbEntity
  8
V0-OBRYS
  6
CONTINUOUS
 62
    90
100
AcDbLine
 10
430.0
 20
-406.247884
 30
0.0
 11
430.0
 21
-486.247884
 31
0.0
  0
LINE
  5
73
100
AcDbEntity
  8
V0-OBRYS
  6
CONTINUOUS
 62
    90
100
AcDbLine
 10
420.654205
 20
-406.247884
 30
0.0
 11
420.654205
 21
-489.468252
 31
0.0
  0
LINE
  5
74
100
AcDbEntity
  8
V0-OBRYS
  6
CONTINUOUS
 62
    90
100
AcDbLine
 10
420.654205
 20
-489.468252
 30
0.0
 11
415.869141
 21
-489.468252
 31
0.0
  0
LINE
  5
75
100
AcDbEntity
  8
V0-OBRYS
  6
CONTINUOUS
 62
    90
100
AcDbLine
 10
415.869141
 20
-489.468252
 30
0.0
 11
415.869141
 21
-406.146993
 31
0.0
  0
LINE
  5
76
100
AcDbEntity
  8
V0-OBRYS
  6
CONTINUOUS
 62
    90
100
AcDbLine
 10
420.641052
 20
-486.247884
 30
0.0
 11
430.0
 21
-486.247884
 31
0.0
  0
LINE
  5
77
100
AcDbEntity
  8
V0-OBRYS
  6
CONTINUOUS
 62
    90
100
AcDbLine
 10
390.0
 20
-535.247884
 30
0.0
 11
90.0
 21
-535.247884
 31
0.0
  0
LINE
  5
78
100
AcDbEntity
  8
V0-OBRYS
  6
CONTINUOUS
 62
    90
100
AcDbLine
 10
90.0
 20
-534.894185
 30
0.0
 11
90.0
 21
-406.247884
 31
0.0
  0
LINE
  5
79
100
AcDbEntity
  8
V0-OBRYS
  6
CONTINUOUS
 62
    90
100
AcDbLine
 10
390.0
 20
-534.894185
 30
0.0
 11
390.0
 21
-406.247884
 31
0.0
  0
LINE
  5
7A
100
AcDbEntity
  8
V0-VYPLNE
  6
CONTINUOUS
 62
    52
100
AcDbLine
 10
245.557556
 20
-406.666921
 30
0.0
 11
245.557556
 21
-435.056814
 31
0.0
  0
LINE
  5
7B
100
AcDbEntity
  8
V0-VYPLNE
  6
CONTINUOUS
 62
    52
100
AcDbLine
 10
245.557556
 20
-435.056814
 30
0.0
 11
279.635498
 21
-404.996908
 31
0.0
  0
LINE
  5
7C
100
AcDbEntity
  8
V0-OBRYS
  6
CONTINUOUS
 62
    90
100
AcDbLine
 10
50.0
 20
-296.247884
 30
0.0
 11
50.0
 21
-301.247884
 31
0.0
  0
LINE
  5
7D
100
AcDbEntity
  8
V0-OBRYS
  6
CONTINUOUS
 62
    90
100
AcDbLine
 10
90.0
 20
-301.247884
 30
0.0
 11
50.0
 21
-301.247884
 31
0.0
  0
LINE
  5
7E
100
AcDbEntity
  8
V0-OBRYS
  6
CONTINUOUS
 62
    90
100
AcDbLine
 10
90.0
 20
-296.247884
 30
0.0
 11
50.0
 21
-296.247884
 31
0.0
  0
LINE
  5
7F
100
AcDbEntity
  8
V0-VYPLNE
  6
DASHDOT
 62
    63
 48
50.0
100
AcDbLine
 10
90.0
 20
-298.747884
 30
0.0
 11
42.700928
 21
-298.747884
 31
0.0
  0
LINE
  5
80
100
AcDbEntity
  8
V0-OBRYS
  6
CONTINUOUS
 62
    90
100
AcDbLine
 10
50.0
 20
-516.247884
 30
0.0
 11
50.0
 21
-511.247884
 31
0.0
  0
LINE
  5
81
100
AcDbEntity
  8
V0-OBRYS
  6
CONTINUOUS
 62
    90
100
AcDbLine
 10
90.0
 20
-511.247884
 30
0.0
 11
50.0
 21
-511.247884
 31
0.0
  0
LINE
  5
82
100
AcDbEntity
  8
V0-OBRYS
  6
CONTINUOUS
 62
    90
100
AcDbLine
 10
90.0
 20
-516.247884
 30
0.0
 11
50.0
 21
-516.247884
 31
0.0
  0
LINE
  5
83
100
AcDbEntity
  8
V0-VYPLNE
  6
DASHDOT
 62
    63
 48
50.0
100
AcDbLine
 10
90.0
 20
-513.747884
 30
0.0
 11
42.700928
 21
-513.747884
 31
0.0
  0
LINE
  5
84
100
AcDbEntity
  8
V0-OBRYS
  6
CONTINUOUS
 62
    90
100
AcDbLine
 10
64.146248
 20
-326.247884
 30
0.0
 11
90.0
 21
-326.247884
 31
0.0
  0
LINE
  5
85
100
AcDbEntity
  8
V0-OBRYS
  6
CONTINUOUS
 62
    90
100
AcDbLine
 10
64.146248
 20
-486.247884
 30
0.0
 11
90.0
 21
-486.247884
 31
0.0
  0
LINE
  5
86
100
AcDbEntity
  8
V0-OBRYS
  6
CONTINUOUS
 62
    90
100
AcDbLine
 10
415.85376
 20
-326.247884
 30
0.0
 11
390.0
 21
-326.247884
 31
0.0
  0
LINE
  5
87
100
AcDbEntity
  8
V0-OBRYS
  6
CONTINUOUS
 62
    90
100
AcDbLine
 10
415.85376
 20
-486.247884
 30
0.0
 11
390.0
 21
-486.247884
 31
0.0
  0
TEXT
  5
88
100
AcDbEntity
  8
V0-NAZVY
  6
CONTINUOUS
 62
   210
100
AcDbText
 10
185.378704
 20
50.0
 30
0.0
 40
20.0
  1
MBW-160
  7
SIMPLEX
 72
     1
 11
254.426323
 21
50.0
 31
0.0
100
AcDbText
  0
TEXT
  5
89
100
AcDbEntity
  8
V0-NAZVY
  6
CONTINUOUS
 62
   210
100
AcDbText
 10
185.378704
 20
-366.247884
 30
0.0
 40
20.0
  1
MBW-160
  7
SIMPLEX
 72
     1
 11
254.426323
 21
-366.247884
 31
0.0
100
AcDbText
  0
TEXT
  5
8A
100
AcDbEntity
  8
V0-NAZVY
  6
CONTINUOUS
 62
   210
100
AcDbText
 10
607.699506
 20
-295.930932
 30
0.0
 40
30.0
  1
MBW-160
  7
SIMPLEX
 72
     1
 11
711.270935
 21
-295.930932
 31
0.0
100
AcDbText
  0
LINE
  5
8B
100
AcDbEntity
  8
V0-OBRYS
  6
CONTINUOUS
 62
    90
100
AcDbLine
 10
565.5
 20
152.5
 30
0.0
 11
565.5
 21
143.057465
 31
0.0
  0
LINE
  5
8C
100
AcDbEntity
  8
V0-OBRYS
  6
CONTINUOUS
 62
    90
100
AcDbLine
 10
565.5
 20
152.5
 30
0.0
 11
700.0
 21
152.5
 31
0.0
  0
LINE
  5
8D
100
AcDbEntity
  8
V0-OBRYS
  6
CONTINUOUS
 62
    90
100
AcDbLine
 10
565.5
 20
142.5
 30
0.0
 11
700.0
 21
142.5
 31
0.0
  0
LINE
  5
8E
100
AcDbEntity
  8
V0-OBRYS
  6
CONTINUOUS
 62
    90
100
AcDbLine
 10
568.5
 20
-162.5
 30
0.0
 11
700.0
 21
-162.5
 31
0.0
  0
LINE
  5
8F
100
AcDbEntity
  8
V0-OBRYS
  6
CONTINUOUS
 62
    90
100
AcDbLine
 10
700.0
 20
-152.5
 30
0.0
 11
578.5
 21
-152.5
 31
0.0
  0
LINE
  5
90
100
AcDbEntity
  8
V0-OBRYS
  6
CONTINUOUS
 62
    90
100
AcDbLine
 10
568.5
 20
-162.5
 30
0.0
 11
568.5
 21
142.5
 31
0.0
  0
LINE
  5
91
100
AcDbEntity
  8
V0-OBRYS
  6
CONTINUOUS
 62
    90
100
AcDbLine
 10
578.5
 20
-152.5
 30
0.0
 11
578.5
 21
142.5
 31
0.0
  0
LINE
  5
92
100
AcDbEntity
  8
V0-OBRYS
  6
CONTINUOUS
 62
    90
100
AcDbLine
 10
829.5
 20
152.5
 30
0.0
 11
829.5
 21
143.057465
 31
0.0
  0
LINE
  5
93
100
AcDbEntity
  8
V0-OBRYS
  6
CONTINUOUS
 62
    90
100
AcDbLine
 10
829.5
 20
152.5
 30
0.0
 11
700.0
 21
152.5
 31
0.0
  0
LINE
  5
94
100
AcDbEntity
  8
V0-OBRYS
  6
CONTINUOUS
 62
    90
100
AcDbLine
 10
829.5
 20
142.5
 30
0.0
 11
700.0
 21
142.5
 31
0.0
  0
LINE
  5
95
100
AcDbEntity
  8
V0-OBRYS
  6
CONTINUOUS
 62
    90
100
AcDbLine
 10
826.5
 20
-162.5
 30
0.0
 11
700.0
 21
-162.5
 31
0.0
  0
LINE
  5
96
100
AcDbEntity
  8
V0-OBRYS
  6
CONTINUOUS
 62
    90
100
AcDbLine
 10
700.0
 20
-152.5
 30
0.0
 11
816.5
 21
-152.5
 31
0.0
  0
LINE
  5
97
100
AcDbEntity
  8
V0-OBRYS
  6
CONTINUOUS
 62
    90
100
AcDbLine
 10
826.5
 20
-162.5
 30
0.0
 11
826.5
 21
142.5
 31
0.0
  0
LINE
  5
98
100
AcDbEntity
  8
V0-OBRYS
  6
CONTINUOUS
 62
    90
100
AcDbLine
 10
816.5
 20
-152.5
 30
0.0
 11
816.5
 21
142.5
 31
0.0
  0
TEXT
  5
99
100
AcDbEntity
  8
V0-NAZVY
  6
CONTINUOUS
 62
   210
100
AcDbText
 10
635.928051
 20
106.730011
 30
0.0
 40
20.0
  1
MBW-160
  7
SIMPLEX
 72
     1
 11
704.97567
 21
106.730011
 31
0.0
100
AcDbText
  0
CIRCLE
  5
9A
100
AcDbEntity
  8
V0-OBRYS
  6
CONTINUOUS
 62
    90
100
AcDbCircle
 10
700.0
 20
0.0
 30
0.0
 40
80.0
  0
CIRCLE
  5
9B
100
AcDbEntity
  8
V0-OBRYS
  6
CONTINUOUS
 62
    90
100
AcDbCircle
 10
700.0
 20
0.0
 30
0.0
 40
86.070984
  0
LINE
  5
FB
100
AcDbEntity
  8
V0-VYPLNE
  6
DASHDOT
 62
    63
 48
50.0
100
AcDbLine
 10
596.314453
 20
0.0
 30
0.0
 11
800.491333
 21
0.0
 31
0.0
  0
LINE
  5
FD
100
AcDbEntity
  8
V0-VYPLNE
  6
DASHDOT
 62
    63
 48
50.0
100
AcDbLine
 10
700.0
 20
86.070984
 30
0.0
 11
700.0
 21
-86.070984
 31
0.0
  0
CIRCLE
  5
FF
100
AcDbEntity
  8
V0-OBRYS
  6
CONTINUOUS
 62
    90
100
AcDbCircle
 10
590.0
 20
127.5
 30
0.0
 40
3.832092
  0
CIRCLE
  5
100
100
AcDbEntity
  8
V0-OBRYS
  6
CONTINUOUS
 62
    90
100
AcDbCircle
 10
590.0
 20
127.5
 30
0.0
 40
5.0
  0
LINE
  5
101
100
AcDbEntity
  8
V0-VYPLNE
  6
DASHDOT
 62
    63
 48
50.0
100
AcDbLine
 10
590.0
 20
138.915421
 30
0.0
 11
590.0
 21
113.201599
 31
0.0
  0
LINE
  5
102
100
AcDbEntity
  8
V0-VYPLNE
  6
DASHDOT
 62
    63
 48
50.0
100
AcDbLine
 10
570.008972
 20
127.5
 30
0.0
 11
603.694031
 21
127.5
 31
0.0
  0
CIRCLE
  5
103
100
AcDbEntity
  8
V0-OBRYS
  6
CONTINUOUS
 62
    90
100
AcDbCircle
 10
805.0
 20
127.5
 30
0.0
 40
3.832092
  0
CIRCLE
  5
104
100
AcDbEntity
  8
V0-OBRYS
  6
CONTINUOUS
 62
    90
100
AcDbCircle
 10
805.0
 20
127.5
 30
0.0
 40
5.0
  0
LINE
  5
106
100
AcDbEntity
  8
V0-VYPLNE
  6
DASHDOT
 62
    63
 48
50.0
100
AcDbLine
 10
824.991028
 20
127.5
 30
0.0
 11
788.805969
 21
127.5
 31
0.0
  0
DIMENSION
  5
11B
100
AcDbEntity
  8
V0-VYPLNE
  6
CONTINUOUS
 62
    41
100
AcDbDimension
  2
*D1
 10
508.947318
 20
-152.5
 30
0.0
 11
493.447318
 21
0.176842
 31
0.0
 70
    32
  3
STANDARD
100
AcDbAlignedDimension
 13
395.0
 23
152.853683
 33
0.0
 14
390.0
 24
-152.5
 34
0.0
 50
90.0
100
AcDbRotatedDimension
1001
ACAD
1000
DSTYLE
1002
{
1070
    78
1070
     8
1070
   140
1040
25.0
1070
    74
1070
     0
1070
    73
1070
     0
1070
    77
1070
     1
1070
   173
1070
     1
1070
   147
1040
3.0
1070
    42
1040
0.625
1070
    44
1040
1.25
1070
    43
1040
3.75
1070
   271
1070
     0
1070
   141
1040
2.5
1070
     7
1000
_OPEN
1070
     6
1000
_OPEN
1070
    41
1040
25.0
1070
   273
1070
     8
1070
   274
1070
     4
1070
   143
1040
0.0394
1070
   171
1070
     4
1002
}
  0
DIMENSION
  5
128
100
AcDbEntity
  8
V0-VYPLNE
  6
CONTINUOUS
 62
    41
100
AcDbDimension
  2
*D2
 10
469.858695
 20
-80.0
 30
0.0
 11
454.358695
 21
0.0
 31
0.0
 70
    32
  1
%%c<>
  3
STANDARD
100
AcDbAlignedDimension
 13
430.0
 23
80.0
 33
0.0
 14
430.0
 24
-80.0
 34
0.0
 50
90.0
100
AcDbRotatedDimension
1001
ACAD
1000
DSTYLE
1002
{
1070
    78
1070
     8
1070
   140
1040
25.0
1070
    74
1070
     0
1070
    73
1070
     0
1070
    77
1070
     1
1070
   173
1070
     1
1070
   147
1040
3.0
1070
    42
1040
0.625
1070
    44
1040
1.25
1070
    43
1040
3.75
1070
   271
1070
     0
1070
   141
1040
2.5
1070
     7
1000
_OPEN
1070
     6
1000
_OPEN
1070
    41
1040
25.0
1070
   273
1070
     8
1070
   274
1070
     4
1070
   143
1040
0.0394
1070
   171
1070
     4
1002
}
  0
DIMENSION
  5
135
100
AcDbEntity
  8
V0-VYPLNE
  6
CONTINUOUS
 62
    41
100
AcDbDimension
  2
*D3
 10
826.5
 20
-206.93761
 30
0.0
 11
697.5
 21
-191.43761
 31
0.0
 70
    32
  3
STANDARD
100
AcDbAlignedDimension
 13
568.5
 23
-162.5
 33
0.0
 14
826.5
 24
-162.5
 34
0.0
100
AcDbRotatedDimension
1001
ACAD
1000
DSTYLE
1002
{
1070
    78
1070
     8
1070
   140
1040
25.0
1070
    74
1070
     0
1070
    73
1070
     0
1070
    77
1070
     1
1070
   173
1070
     1
1070
   147
1040
3.0
1070
    42
1040
0.625
1070
    44
1040
1.25
1070
    43
1040
3.75
1070
   271
1070
     0
1070
   141
1040
2.5
1070
     7
1000
_OPEN
1070
     6
1000
_OPEN
1070
    41
1040
25.0
1070
   273
1070
     8
1070
   274
1070
     4
1070
   143
1040
0.0394
1070
   171
1070
     4
1002
}
  0
DIMENSION
  5
158
100
AcDbEntity
  8
V0-VYPLNE
  6
CONTINUOUS
 62
    41
100
AcDbDimension
  2
*D4
 10
805.0
 20
197.952485
 30
0.0
 11
697.5
 21
213.452485
 31
0.0
 70
    32
  3
STANDARD
100
AcDbAlignedDimension
 13
590.0
 23
138.915421
 33
0.0
 14
805.0
 24
138.915421
 34
0.0
100
AcDbRotatedDimension
1001
ACAD
1000
DSTYLE
1002
{
1070
    78
1070
     8
1070
   140
1040
25.0
1070
    74
1070
     0
1070
    73
1070
     0
1070
    77
1070
     1
1070
   173
1070
     1
1070
   147
1040
3.0
1070
    42
1040
0.625
1070
    44
1040
1.25
1070
    43
1040
3.75
1070
   271
1070
     0
1070
   141
1040
2.5
1070
     7
1000
_OPEN
1070
     6
1000
_OPEN
1070
    41
1040
25.0
1070
   273
1070
     8
1070
   274
1070
     4
1070
   143
1040
0.0394
1070
   171
1070
     4
1002
}
  0
LEADER
  5
16F
100
AcDbEntity
  8
V0-VYPLNE
  6
CONTINUOUS
 62
    41
100
AcDbLeader
  3
STANDARD
 73
     0
 75
     1
 40
25.0
 41
54.166667
 76
     3
 10
585.067268
 20
128.072977
 30
0.0
 10
546.291093
 20
189.563044
 30
0.0
 10
521.291093
 20
189.563044
 30
0.0
 77
    41
340
170
1001
ACAD
1000
DSTYLE
1002
{
1070
    78
1070
     8
1070
   140
1040
25.0
1070
    74
1070
     0
1070
    73
1070
     0
1070
    77
1070
     1
1070
   173
1070
     1
1070
   147
1040
3.0
1070
    42
1040
0.625
1070
    44
1040
1.25
1070
    43
1040
3.75
1070
   271
1070
     0
1070
   141
1040
2.5
1070
     7
1000
_OPEN
1070
     6
1000
_OPEN
1070
    41
1040
25.0
1070
   273
1070
     8
1070
   274
1070
     4
1070
   143
1040
0.0394
1070
   171
1070
     4
1002
}
  0
MTEXT
  5
170
102
{ACAD_REACTORS
330
16F
102
}
100
AcDbEntity
  8
V0-VYPLNE
  6
CONTINUOUS
 62
    41
100
AcDbMText
 10
518.291093
 20
205.063044
 30
0.0
 40
25.0
 41
0.0
 71
     6
 72
     1
  1
\A1;%%c10
  0
INSERT
  5
228
100
AcDbEntity
  8
POPIS-NAZVY
100
AcDbBlockReference
  2
ABBB
 10
-90.534352
 20
73.491587
 30
0.0
  0
POINT
  5
229
100
AcDbEntity
  8
V0-VYPLNE
100
AcDbPoint
 10
90.0
 20
0.0
 30
0.0
  0
POINT
  5
22A
100
AcDbEntity
  8
V0-VYPLNE
100
AcDbPoint
 10
90.0
 20
-406.247884
 30
0.0
  0
POINT
  5
22B
100
AcDbEntity
  8
V0-VYPLNE
100
AcDbPoint
 10
700.0
 20
0.0
 30
0.0
  0
LINE
  5
22C
100
AcDbEntity
  8
V0-VYPLNE
  6
CONTINUOUS
 62
    52
100
AcDbLine
 10
676.0
 20
76.31514
 30
0.0
 11
675.845215
 21
76.351834
 31
0.0
  0
LINE
  5
22D
100
AcDbEntity
  8
V0-VYPLNE
  6
CONTINUOUS
 62
    52
100
AcDbLine
 10
675.845215
 20
76.351834
 30
0.0
 11
676.0
 21
76.31514
 31
0.0
  0
LINE
  5
22E
100
AcDbEntity
  8
V0-VYPLNE
  6
CONTINUOUS
 62
    52
100
AcDbLine
 10
676.0
 20
76.31514
 30
0.0
 11
676.0
 21
-76.315136
 31
0.0
  0
LINE
  5
230
100
AcDbEntity
  8
V0-VYPLNE
  6
CONTINUOUS
 62
    52
100
AcDbLine
 10
695.2
 20
-79.855871
 30
0.0
 11
695.2
 21
79.855875
 31
0.0
  0
LINE
  5
232
100
AcDbEntity
  8
V0-VYPLNE
  6
CONTINUOUS
 62
    52
100
AcDbLine
 10
676.000002
 20
-75.684862
 30
0.0
 11
695.199999
 21
-75.684862
 31
0.0
  0
LINE
  5
233
100
AcDbEntity
  8
V0-VYPLNE
  6
CONTINUOUS
 62
    52
100
AcDbLine
 10
676.000002
 20
-67.684862
 30
0.0
 11
695.199999
 21
-67.684862
 31
0.0
  0
LINE
  5
234
100
AcDbEntity
  8
V0-VYPLNE
  6
CONTINUOUS
 62
    52
100
AcDbLine
 10
676.000002
 20
-59.684862
 30
0.0
 11
695.199999
 21
-59.684862
 31
0.0
  0
LINE
  5
235
100
AcDbEntity
  8
V0-VYPLNE
  6
CONTINUOUS
 62
    52
100
AcDbLine
 10
676.000002
 20
-51.684862
 30
0.0
 11
695.199999
 21
-51.684862
 31
0.0
  0
LINE
  5
236
100
AcDbEntity
  8
V0-VYPLNE
  6
CONTINUOUS
 62
    52
100
AcDbLine
 10
676.000001
 20
-43.684862
 30
0.0
 11
695.199999
 21
-43.684862
 31
0.0
  0
LINE
  5
237
100
AcDbEntity
  8
V0-VYPLNE
  6
CONTINUOUS
 62
    52
100
AcDbLine
 10
676.000001
 20
-35.684862
 30
0.0
 11
695.199999
 21
-35.684862
 31
0.0
  0
LINE
  5
238
100
AcDbEntity
  8
V0-VYPLNE
  6
CONTINUOUS
 62
    52
100
AcDbLine
 10
676.000001
 20
-27.684862
 30
0.0
 11
695.199999
 21
-27.684862
 31
0.0
  0
LINE
  5
239
100
AcDbEntity
  8
V0-VYPLNE
  6
CONTINUOUS
 62
    52
100
AcDbLine
 10
676.000001
 20
-19.684862
 30
0.0
 11
695.199999
 21
-19.684862
 31
0.0
  0
LINE
  5
23A
100
AcDbEntity
  8
V0-VYPLNE
  6
CONTINUOUS
 62
    52
100
AcDbLine
 10
676.000001
 20
-11.684862
 30
0.0
 11
695.199999
 21
-11.684862
 31
0.0
  0
LINE
  5
23B
100
AcDbEntity
  8
V0-VYPLNE
  6
CONTINUOUS
 62
    52
100
AcDbLine
 10
676.000001
 20
-3.684861
 30
0.0
 11
695.199999
 21
-3.684861
 31
0.0
  0
LINE
  5
23C
100
AcDbEntity
  8
V0-VYPLNE
  6
CONTINUOUS
 62
    52
100
AcDbLine
 10
676.000001
 20
4.315139
 30
0.0
 11
695.2
 21
4.315139
 31
0.0
  0
LINE
  5
23D
100
AcDbEntity
  8
V0-VYPLNE
  6
CONTINUOUS
 62
    52
100
AcDbLine
 10
676.000001
 20
12.315139
 30
0.0
 11
695.2
 21
12.315139
 31
0.0
  0
LINE
  5
23E
100
AcDbEntity
  8
V0-VYPLNE
  6
CONTINUOUS
 62
    52
100
AcDbLine
 10
676.000001
 20
20.315139
 30
0.0
 11
695.2
 21
20.315139
 31
0.0
  0
LINE
  5
23F
100
AcDbEntity
  8
V0-VYPLNE
  6
CONTINUOUS
 62
    52
100
AcDbLine
 10
676.000001
 20
28.315139
 30
0.0
 11
695.2
 21
28.315139
 31
0.0
  0
LINE
  5
240
100
AcDbEntity
  8
V0-VYPLNE
  6
CONTINUOUS
 62
    52
100
AcDbLine
 10
676.0
 20
36.315139
 30
0.0
 11
695.2
 21
36.315139
 31
0.0
  0
LINE
  5
241
100
AcDbEntity
  8
V0-VYPLNE
  6
CONTINUOUS
 62
    52
100
AcDbLine
 10
676.0
 20
44.315139
 30
0.0
 11
695.2
 21
44.315139
 31
0.0
  0
LINE
  5
242
100
AcDbEntity
  8
V0-VYPLNE
  6
CONTINUOUS
 62
    52
100
AcDbLine
 10
676.0
 20
52.315139
 30
0.0
 11
695.2
 21
52.315139
 31
0.0
  0
LINE
  5
243
100
AcDbEntity
  8
V0-VYPLNE
  6
CONTINUOUS
 62
    52
100
AcDbLine
 10
676.0
 20
60.31514
 30
0.0
 11
695.2
 21
60.31514
 31
0.0
  0
LINE
  5
244
100
AcDbEntity
  8
V0-VYPLNE
  6
CONTINUOUS
 62
    52
100
AcDbLine
 10
676.0
 20
68.31514
 30
0.0
 11
695.2
 21
68.31514
 31
0.0
  0
LINE
  5
245
100
AcDbEntity
  8
V0-VYPLNE
  6
CONTINUOUS
 62
    52
100
AcDbLine
 10
676.0
 20
76.31514
 30
0.0
 11
676.0
 21
76.31514
 31
0.0
  0
LINE
  5
246
100
AcDbEntity
  8
V0-VYPLNE
  6
CONTINUOUS
 62
    52
100
AcDbLine
 10
676.0
 20
76.31514
 30
0.0
 11
695.2
 21
76.31514
 31
0.0
  0
LINE
  5
24B
100
AcDbEntity
  8
V0-VYPLNE
  6
CONTINUOUS
 62
    52
100
AcDbLine
 10
637.599976
 20
-50.062362
 30
0.0
 11
637.599976
 21
50.062359
 31
0.0
  0
LINE
  5
24C
100
AcDbEntity
  8
V0-VYPLNE
  6
CONTINUOUS
 62
    52
100
AcDbLine
 10
635.267505
 20
-45.937643
 30
0.0
 11
637.599977
 21
-45.937643
 31
0.0
  0
LINE
  5
24D
100
AcDbEntity
  8
V0-VYPLNE
  6
CONTINUOUS
 62
    52
100
AcDbLine
 10
630.743616
 20
-37.937642
 30
0.0
 11
637.599977
 21
-37.937642
 31
0.0
  0
LINE
  5
24E
100
AcDbEntity
  8
V0-VYPLNE
  6
CONTINUOUS
 62
    52
100
AcDbLine
 10
626.219729
 20
-29.937642
 30
0.0
 11
637.599977
 21
-29.937642
 31
0.0
  0
LINE
  5
24F
100
AcDbEntity
  8
V0-VYPLNE
  6
CONTINUOUS
 62
    52
100
AcDbLine
 10
623.425151
 20
-21.937642
 30
0.0
 11
637.599976
 21
-21.937642
 31
0.0
  0
LINE
  5
250
100
AcDbEntity
  8
V0-VYPLNE
  6
CONTINUOUS
 62
    52
100
AcDbLine
 10
622.176092
 20
-13.937642
 30
0.0
 11
637.599976
 21
-13.937642
 31
0.0
  0
LINE
  5
251
100
AcDbEntity
  8
V0-VYPLNE
  6
CONTINUOUS
 62
    52
100
AcDbLine
 10
620.927032
 20
-5.937642
 30
0.0
 11
637.599976
 21
-5.937642
 31
0.0
  0
LINE
  5
252
100
AcDbEntity
  8
V0-VYPLNE
  6
CONTINUOUS
 62
    52
100
AcDbLine
 10
620.386422
 20
2.062358
 30
0.0
 11
637.599976
 21
2.062358
 31
0.0
  0
LINE
  5
253
100
AcDbEntity
  8
V0-VYPLNE
  6
CONTINUOUS
 62
    52
100
AcDbLine
 10
621.885457
 20
10.062358
 30
0.0
 11
637.599976
 21
10.062358
 31
0.0
  0
LINE
  5
254
100
AcDbEntity
  8
V0-VYPLNE
  6
CONTINUOUS
 62
    52
100
AcDbLine
 10
623.384489
 20
18.062358
 30
0.0
 11
637.599976
 21
18.062358
 31
0.0
  0
LINE
  5
255
100
AcDbEntity
  8
V0-VYPLNE
  6
CONTINUOUS
 62
    52
100
AcDbLine
 10
624.883522
 20
26.062358
 30
0.0
 11
637.599976
 21
26.062358
 31
0.0
  0
LINE
  5
256
100
AcDbEntity
  8
V0-VYPLNE
  6
CONTINUOUS
 62
    52
100
AcDbLine
 10
628.169494
 20
34.062359
 30
0.0
 11
637.599976
 21
34.062359
 31
0.0
  0
LINE
  5
257
100
AcDbEntity
  8
V0-VYPLNE
  6
CONTINUOUS
 62
    52
100
AcDbLine
 10
632.884735
 20
42.062359
 30
0.0
 11
637.599976
 21
42.062359
 31
0.0
  0
LINE
  5
258
100
AcDbEntity
  8
V0-VYPLNE
  6
CONTINUOUS
 62
    52
100
AcDbLine
 10
647.200012
 20
60.101246
 30
0.0
 11
647.200012
 21
-60.101246
 31
0.0
  0
LINE
  5
25A
100
AcDbEntity
  8
V0-VYPLNE
  6
CONTINUOUS
 62
    52
100
AcDbLine
 10
666.400012
 20
-72.60193
 30
0.0
 11
666.400012
 21
72.60193
 31
0.0
  0
LINE
  5
25C
100
AcDbEntity
  8
V0-VYPLNE
  6
CONTINUOUS
 62
    52
100
AcDbLine
 10
659.176325
 20
-67.898756
 30
0.0
 11
666.40002
 21
-67.898756
 31
0.0
  0
LINE
  5
25D
100
AcDbEntity
  8
V0-VYPLNE
  6
CONTINUOUS
 62
    52
100
AcDbLine
 10
647.200014
 20
-59.898756
 30
0.0
 11
666.400019
 21
-59.898756
 31
0.0
  0
LINE
  5
25E
100
AcDbEntity
  8
V0-VYPLNE
  6
CONTINUOUS
 62
    52
100
AcDbLine
 10
647.200014
 20
-51.898756
 30
0.0
 11
666.400019
 21
-51.898756
 31
0.0
  0
LINE
  5
25F
100
AcDbEntity
  8
V0-VYPLNE
  6
CONTINUOUS
 62
    52
100
AcDbLine
 10
647.200013
 20
-43.898756
 30
0.0
 11
666.400019
 21
-43.898756
 31
0.0
  0
LINE
  5
260
100
AcDbEntity
  8
V0-VYPLNE
  6
CONTINUOUS
 62
    52
100
AcDbLine
 10
647.200013
 20
-35.898756
 30
0.0
 11
666.400019
 21
-35.898756
 31
0.0
  0
LINE
  5
261
100
AcDbEntity
  8
V0-VYPLNE
  6
CONTINUOUS
 62
    52
100
AcDbLine
 10
647.200013
 20
-27.898755
 30
0.0
 11
666.400017
 21
-27.898755
 31
0.0
  0
LINE
  5
262
100
AcDbEntity
  8
V0-VYPLNE
  6
CONTINUOUS
 62
    52
100
AcDbLine
 10
647.200013
 20
-19.898755
 30
0.0
 11
666.400017
 21
-19.898755
 31
0.0
  0
LINE
  5
263
100
AcDbEntity
  8
V0-VYPLNE
  6
CONTINUOUS
 62
    52
100
AcDbLine
 10
647.200013
 20
-11.898755
 30
0.0
 11
666.400017
 21
-11.898755
 31
0.0
  0
LINE
  5
264
100
AcDbEntity
  8
V0-VYPLNE
  6
CONTINUOUS
 62
    52
100
AcDbLine
 10
647.200013
 20
-3.898755
 30
0.0
 11
666.400017
 21
-3.898755
 31
0.0
  0
LINE
  5
265
100
AcDbEntity
  8
V0-VYPLNE
  6
CONTINUOUS
 62
    52
100
AcDbLine
 10
647.200013
 20
4.101245
 30
0.0
 11
666.400017
 21
4.101245
 31
0.0
  0
LINE
  5
266
100
AcDbEntity
  8
V0-VYPLNE
  6
CONTINUOUS
 62
    52
100
AcDbLine
 10
647.200013
 20
12.101245
 30
0.0
 11
666.400016
 21
12.101245
 31
0.0
  0
LINE
  5
267
100
AcDbEntity
  8
V0-VYPLNE
  6
CONTINUOUS
 62
    52
100
AcDbLine
 10
647.200013
 20
20.101245
 30
0.0
 11
666.400016
 21
20.101245
 31
0.0
  0
LINE
  5
268
100
AcDbEntity
  8
V0-VYPLNE
  6
CONTINUOUS
 62
    52
100
AcDbLine
 10
647.200013
 20
28.101245
 30
0.0
 11
666.400016
 21
28.101245
 31
0.0
  0
LINE
  5
269
100
AcDbEntity
  8
V0-VYPLNE
  6
CONTINUOUS
 62
    52
100
AcDbLine
 10
647.200012
 20
36.101246
 30
0.0
 11
666.400016
 21
36.101246
 31
0.0
  0
LINE
  5
26A
100
AcDbEntity
  8
V0-VYPLNE
  6
CONTINUOUS
 62
    52
100
AcDbLine
 10
647.200012
 20
44.101246
 30
0.0
 11
666.400012
 21
44.101246
 31
0.0
  0
LINE
  5
26B
100
AcDbEntity
  8
V0-VYPLNE
  6
CONTINUOUS
 62
    52
100
AcDbLine
 10
647.200012
 20
52.101246
 30
0.0
 11
666.400012
 21
52.101246
 31
0.0
  0
LINE
  5
26C
100
AcDbEntity
  8
V0-VYPLNE
  6
CONTINUOUS
 62
    52
100
AcDbLine
 10
647.200012
 20
60.101246
 30
0.0
 11
666.400012
 21
60.101246
 31
0.0
  0
LINE
  5
26D
100
AcDbEntity
  8
V0-VYPLNE
  6
CONTINUOUS
 62
    52
100
AcDbLine
 10
659.487341
 20
68.101246
 30
0.0
 11
666.400012
 21
68.101246
 31
0.0
  0
LINE
  5
272
100
AcDbEntity
  8
V0-VYPLNE
  6
CONTINUOUS
 62
    52
100
AcDbLine
 10
762.400024
 20
-50.062366
 30
0.0
 11
762.400024
 21
50.062355
 31
0.0
  0
LINE
  5
273
100
AcDbEntity
  8
V0-VYPLNE
  6
CONTINUOUS
 62
    52
100
AcDbLine
 10
764.732495
 20
-45.937646
 30
0.0
 11
762.400023
 21
-45.937646
 31
0.0
  0
LINE
  5
274
100
AcDbEntity
  8
V0-VYPLNE
  6
CONTINUOUS
 62
    52
100
AcDbLine
 10
769.256384
 20
-37.937646
 30
0.0
 11
762.400023
 21
-37.937646
 31
0.0
  0
LINE
  5
275
100
AcDbEntity
  8
V0-VYPLNE
  6
CONTINUOUS
 62
    52
100
AcDbLine
 10
773.780271
 20
-29.937646
 30
0.0
 11
762.400023
 21
-29.937646
 31
0.0
  0
LINE
  5
276
100
AcDbEntity
  8
V0-VYPLNE
  6
CONTINUOUS
 62
    52
100
AcDbLine
 10
776.574849
 20
-21.937646
 30
0.0
 11
762.400024
 21
-21.937646
 31
0.0
  0
LINE
  5
277
100
AcDbEntity
  8
V0-VYPLNE
  6
CONTINUOUS
 62
    52
100
AcDbLine
 10
777.823908
 20
-13.937646
 30
0.0
 11
762.400024
 21
-13.937646
 31
0.0
  0
LINE
  5
278
100
AcDbEntity
  8
V0-VYPLNE
  6
CONTINUOUS
 62
    52
100
AcDbLine
 10
779.072968
 20
-5.937646
 30
0.0
 11
762.400024
 21
-5.937646
 31
0.0
  0
LINE
  5
279
100
AcDbEntity
  8
V0-VYPLNE
  6
CONTINUOUS
 62
    52
100
AcDbLine
 10
779.613578
 20
2.062354
 30
0.0
 11
762.400024
 21
2.062354
 31
0.0
  0
LINE
  5
27A
100
AcDbEntity
  8
V0-VYPLNE
  6
CONTINUOUS
 62
    52
100
AcDbLine
 10
778.114543
 20
10.062354
 30
0.0
 11
762.400024
 21
10.062354
 31
0.0
  0
LINE
  5
27B
100
AcDbEntity
  8
V0-VYPLNE
  6
CONTINUOUS
 62
    52
100
AcDbLine
 10
776.615511
 20
18.062355
 30
0.0
 11
762.400024
 21
18.062355
 31
0.0
  0
LINE
  5
27C
100
AcDbEntity
  8
V0-VYPLNE
  6
CONTINUOUS
 62
    52
100
AcDbLine
 10
775.116478
 20
26.062355
 30
0.0
 11
762.400024
 21
26.062355
 31
0.0
  0
LINE
  5
27D
100
AcDbEntity
  8
V0-VYPLNE
  6
CONTINUOUS
 62
    52
100
AcDbLine
 10
771.830506
 20
34.062355
 30
0.0
 11
762.400024
 21
34.062355
 31
0.0
  0
LINE
  5
27E
100
AcDbEntity
  8
V0-VYPLNE
  6
CONTINUOUS
 62
    52
100
AcDbLine
 10
767.115265
 20
42.062355
 30
0.0
 11
762.400024
 21
42.062355
 31
0.0
  0
LINE
  5
27F
100
AcDbEntity
  8
V0-VYPLNE
  6
CONTINUOUS
 62
    52
100
AcDbLine
 10
752.799988
 20
60.101246
 30
0.0
 11
752.799988
 21
-60.101246
 31
0.0
  0
LINE
  5
281
100
AcDbEntity
  8
V0-VYPLNE
  6
CONTINUOUS
 62
    52
100
AcDbLine
 10
733.599988
 20
-72.60193
 30
0.0
 11
733.599988
 21
72.60193
 31
0.0
  0
LINE
  5
283
100
AcDbEntity
  8
V0-VYPLNE
  6
CONTINUOUS
 62
    52
100
AcDbLine
 10
740.823675
 20
-67.898756
 30
0.0
 11
733.59998
 21
-67.898756
 31
0.0
  0
LINE
  5
284
100
AcDbEntity
  8
V0-VYPLNE
  6
CONTINUOUS
 62
    52
100
AcDbLine
 10
752.799986
 20
-59.898756
 30
0.0
 11
733.599981
 21
-59.898756
 31
0.0
  0
LINE
  5
285
100
AcDbEntity
  8
V0-VYPLNE
  6
CONTINUOUS
 62
    52
100
AcDbLine
 10
752.799986
 20
-51.898756
 30
0.0
 11
733.599981
 21
-51.898756
 31
0.0
  0
LINE
  5
286
100
AcDbEntity
  8
V0-VYPLNE
  6
CONTINUOUS
 62
    52
100
AcDbLine
 10
752.799987
 20
-43.898756
 30
0.0
 11
733.599981
 21
-43.898756
 31
0.0
  0
LINE
  5
287
100
AcDbEntity
  8
V0-VYPLNE
  6
CONTINUOUS
 62
    52
100
AcDbLine
 10
752.799987
 20
-35.898756
 30
0.0
 11
733.599981
 21
-35.898756
 31
0.0
  0
LINE
  5
288
100
AcDbEntity
  8
V0-VYPLNE
  6
CONTINUOUS
 62
    52
100
AcDbLine
 10
752.799987
 20
-27.898755
 30
0.0
 11
733.599983
 21
-27.898755
 31
0.0
  0
LINE
  5
289
100
AcDbEntity
  8
V0-VYPLNE
  6
CONTINUOUS
 62
    52
100
AcDbLine
 10
752.799987
 20
-19.898755
 30
0.0
 11
733.599983
 21
-19.898755
 31
0.0
  0
LINE
  5
28A
100
AcDbEntity
  8
V0-VYPLNE
  6
CONTINUOUS
 62
    52
100
AcDbLine
 10
752.799987
 20
-11.898755
 30
0.0
 11
733.599983
 21
-11.898755
 31
0.0
  0
LINE
  5
28B
100
AcDbEntity
  8
V0-VYPLNE
  6
CONTINUOUS
 62
    52
100
AcDbLine
 10
752.799987
 20
-3.898755
 30
0.0
 11
733.599983
 21
-3.898755
 31
0.0
  0
LINE
  5
28C
100
AcDbEntity
  8
V0-VYPLNE
  6
CONTINUOUS
 62
    52
100
AcDbLine
 10
752.799987
 20
4.101245
 30
0.0
 11
733.599983
 21
4.101245
 31
0.0
  0
LINE
  5
28D
100
AcDbEntity
  8
V0-VYPLNE
  6
CONTINUOUS
 62
    52
100
AcDbLine
 10
752.799987
 20
12.101245
 30
0.0
 11
733.599984
 21
12.101245
 31
0.0
  0
LINE
  5
28E
100
AcDbEntity
  8
V0-VYPLNE
  6
CONTINUOUS
 62
    52
100
AcDbLine
 10
752.799987
 20
20.101245
 30
0.0
 11
733.599984
 21
20.101245
 31
0.0
  0
LINE
  5
28F
100
AcDbEntity
  8
V0-VYPLNE
  6
CONTINUOUS
 62
    52
100
AcDbLine
 10
752.799987
 20
28.101245
 30
0.0
 11
733.599984
 21
28.101245
 31
0.0
  0
LINE
  5
290
100
AcDbEntity
  8
V0-VYPLNE
  6
CONTINUOUS
 62
    52
100
AcDbLine
 10
752.799988
 20
36.101246
 30
0.0
 11
733.599984
 21
36.101246
 31
0.0
  0
LINE
  5
291
100
AcDbEntity
  8
V0-VYPLNE
  6
CONTINUOUS
 62
    52
100
AcDbLine
 10
752.799988
 20
44.101246
 30
0.0
 11
733.599988
 21
44.101246
 31
0.0
  0
LINE
  5
292
100
AcDbEntity
  8
V0-VYPLNE
  6
CONTINUOUS
 62
    52
100
AcDbLine
 10
752.799988
 20
52.101246
 30
0.0
 11
733.599988
 21
52.101246
 31
0.0
  0
LINE
  5
293
100
AcDbEntity
  8
V0-VYPLNE
  6
CONTINUOUS
 62
    52
100
AcDbLine
 10
752.799988
 20
60.101246
 30
0.0
 11
733.599988
 21
60.101246
 31
0.0
  0
LINE
  5
294
100
AcDbEntity
  8
V0-VYPLNE
  6
CONTINUOUS
 62
    52
100
AcDbLine
 10
740.512659
 20
68.101246
 30
0.0
 11
733.599988
 21
68.101246
 31
0.0
  0
LINE
  5
295
100
AcDbEntity
  8
V0-VYPLNE
  6
CONTINUOUS
 62
    52
100
AcDbLine
 10
724.0
 20
76.31514
 30
0.0
 11
724.154785
 21
76.351834
 31
0.0
  0
LINE
  5
296
100
AcDbEntity
  8
V0-VYPLNE
  6
CONTINUOUS
 62
    52
100
AcDbLine
 10
724.154785
 20
76.351834
 30
0.0
 11
724.0
 21
76.31514
 31
0.0
  0
LINE
  5
297
100
AcDbEntity
  8
V0-VYPLNE
  6
CONTINUOUS
 62
    52
100
AcDbLine
 10
724.0
 20
76.31514
 30
0.0
 11
724.0
 21
-76.315136
 31
0.0
  0
LINE
  5
299
100
AcDbEntity
  8
V0-VYPLNE
  6
CONTINUOUS
 62
    52
100
AcDbLine
 10
704.8
 20
-79.855871
 30
0.0
 11
704.8
 21
79.855875
 31
0.0
  0
LINE
  5
29B
100
AcDbEntity
  8
V0-VYPLNE
  6
CONTINUOUS
 62
    52
100
AcDbLine
 10
723.999998
 20
-75.684862
 30
0.0
 11
704.800001
 21
-75.684862
 31
0.0
  0
LINE
  5
29C
100
AcDbEntity
  8
V0-VYPLNE
  6
CONTINUOUS
 62
    52
100
AcDbLine
 10
723.999998
 20
-67.684862
 30
0.0
 11
704.800001
 21
-67.684862
 31
0.0
  0
LINE
  5
29D
100
AcDbEntity
  8
V0-VYPLNE
  6
CONTINUOUS
 62
    52
100
AcDbLine
 10
723.999998
 20
-59.684862
 30
0.0
 11
704.800001
 21
-59.684862
 31
0.0
  0
LINE
  5
29E
100
AcDbEntity
  8
V0-VYPLNE
  6
CONTINUOUS
 62
    52
100
AcDbLine
 10
723.999998
 20
-51.684862
 30
0.0
 11
704.800001
 21
-51.684862
 31
0.0
  0
LINE
  5
29F
100
AcDbEntity
  8
V0-VYPLNE
  6
CONTINUOUS
 62
    52
100
AcDbLine
 10
723.999999
 20
-43.684862
 30
0.0
 11
704.800001
 21
-43.684862
 31
0.0
  0
LINE
  5
2A0
100
AcDbEntity
  8
V0-VYPLNE
  6
CONTINUOUS
 62
    52
100
AcDbLine
 10
723.999999
 20
-35.684862
 30
0.0
 11
704.800001
 21
-35.684862
 31
0.0
  0
LINE
  5
2A1
100
AcDbEntity
  8
V0-VYPLNE
  6
CONTINUOUS
 62
    52
100
AcDbLine
 10
723.999999
 20
-27.684862
 30
0.0
 11
704.800001
 21
-27.684862
 31
0.0
  0
LINE
  5
2A2
100
AcDbEntity
  8
V0-VYPLNE
  6
CONTINUOUS
 62
    52
100
AcDbLine
 10
723.999999
 20
-19.684862
 30
0.0
 11
704.800001
 21
-19.684862
 31
0.0
  0
LINE
  5
2A3
100
AcDbEntity
  8
V0-VYPLNE
  6
CONTINUOUS
 62
    52
100
AcDbLine
 10
723.999999
 20
-11.684862
 30
0.0
 11
704.800001
 21
-11.684862
 31
0.0
  0
LINE
  5
2A4
100
AcDbEntity
  8
V0-VYPLNE
  6
CONTINUOUS
 62
    52
100
AcDbLine
 10
723.999999
 20
-3.684861
 30
0.0
 11
704.800001
 21
-3.684861
 31
0.0
  0
LINE
  5
2A5
100
AcDbEntity
  8
V0-VYPLNE
  6
CONTINUOUS
 62
    52
100
AcDbLine
 10
723.999999
 20
4.315139
 30
0.0
 11
704.8
 21
4.315139
 31
0.0
  0
LINE
  5
2A6
100
AcDbEntity
  8
V0-VYPLNE
  6
CONTINUOUS
 62
    52
100
AcDbLine
 10
723.999999
 20
12.315139
 30
0.0
 11
704.8
 21
12.315139
 31
0.0
  0
LINE
  5
2A7
100
AcDbEntity
  8
V0-VYPLNE
  6
CONTINUOUS
 62
    52
100
AcDbLine
 10
723.999999
 20
20.315139
 30
0.0
 11
704.8
 21
20.315139
 31
0.0
  0
LINE
  5
2A8
100
AcDbEntity
  8
V0-VYPLNE
  6
CONTINUOUS
 62
    52
100
AcDbLine
 10
723.999999
 20
28.315139
 30
0.0
 11
704.8
 21
28.315139
 31
0.0
  0
LINE
  5
2A9
100
AcDbEntity
  8
V0-VYPLNE
  6
CONTINUOUS
 62
    52
100
AcDbLine
 10
724.0
 20
36.315139
 30
0.0
 11
704.8
 21
36.315139
 31
0.0
  0
LINE
  5
2AA
100
AcDbEntity
  8
V0-VYPLNE
  6
CONTINUOUS
 62
    52
100
AcDbLine
 10
724.0
 20
44.315139
 30
0.0
 11
704.8
 21
44.315139
 31
0.0
  0
LINE
  5
2AB
100
AcDbEntity
  8
V0-VYPLNE
  6
CONTINUOUS
 62
    52
100
AcDbLine
 10
724.0
 20
52.315139
 30
0.0
 11
704.8
 21
52.315139
 31
0.0
  0
LINE
  5
2AC
100
AcDbEntity
  8
V0-VYPLNE
  6
CONTINUOUS
 62
    52
100
AcDbLine
 10
724.0
 20
60.31514
 30
0.0
 11
704.8
 21
60.31514
 31
0.0
  0
LINE
  5
2AD
100
AcDbEntity
  8
V0-VYPLNE
  6
CONTINUOUS
 62
    52
100
AcDbLine
 10
724.0
 20
68.31514
 30
0.0
 11
704.8
 21
68.31514
 31
0.0
  0
LINE
  5
2AE
100
AcDbEntity
  8
V0-VYPLNE
  6
CONTINUOUS
 62
    52
100
AcDbLine
 10
724.0
 20
76.31514
 30
0.0
 11
724.0
 21
76.31514
 31
0.0
  0
LINE
  5
2AF
100
AcDbEntity
  8
V0-VYPLNE
  6
CONTINUOUS
 62
    52
100
AcDbLine
 10
724.0
 20
76.31514
 30
0.0
 11
704.8
 21
76.31514
 31
0.0
  0
LINE
  5
2B0
100
AcDbEntity
  8
V0-VYPLNE
  6
DASHDOT
 62
    63
 48
50.0
100
AcDbLine
 10
805.0
 20
138.915421
 30
0.0
 11
805.0
 21
113.201599
 31
0.0
  0
DIMENSION
  5
304
100
AcDbEntity
  8
V0-VYPLNE
 62
    41
100
AcDbDimension
  2
*D8
 10
430.0
 20
-226.768229
 30
0.0
 11
240.0
 21
-226.768229
 31
0.0
 70
   160
  3
STANDARD
100
AcDbAlignedDimension
 13
50.0
 23
-80.0
 33
0.0
 14
430.0
 24
-80.0
 34
0.0
100
AcDbRotatedDimension
1001
ACAD
1000
DSTYLE
1002
{
1070
    78
1070
     8
1070
   140
1040
25.0
1070
    74
1070
     0
1070
    73
1070
     0
1070
    77
1070
     1
1070
   173
1070
     1
1070
   147
1040
3.0
1070
    42
1040
0.625
1070
    44
1040
1.25
1070
    43
1040
3.75
1070
   271
1070
     0
1070
   141
1040
2.5
1070
     7
1000
_OPEN
1070
     6
1000
_OPEN
1070
    41
1040
25.0
1070
   273
1070
     8
1070
   274
1070
     4
1070
   143
1040
0.0394
1070
   171
1070
     4
1002
}
  0
DIMENSION
  5
312
100
AcDbEntity
  8
V0-VYPLNE
 62
    41
100
AcDbDimension
  2
*D9
 10
90.0
 20
-190.753697
 30
0.0
 11
70.0
 21
-190.753697
 31
0.0
 70
   160
  3
STANDARD
100
AcDbAlignedDimension
 13
50.0
 23
-80.625
 33
0.0
 14
90.0
 24
-80.0
 34
0.0
100
AcDbRotatedDimension
1001
ACAD
1000
DSTYLE
1002
{
1070
    78
1070
     8
1070
   140
1040
25.0
1070
    74
1070
     0
1070
    73
1070
     0
1070
    77
1070
     1
1070
   173
1070
     1
1070
   147
1040
3.0
1070
    42
1040
0.625
1070
    44
1040
1.25
1070
    43
1040
3.75
1070
   271
1070
     0
1070
   141
1040
2.5
1070
     7
1000
_OPEN
1070
     6
1000
_OPEN
1070
    41
1040
25.0
1070
   273
1070
     8
1070
   274
1070
     4
1070
   143
1040
0.0394
1070
   171
1070
     4
1002
}
  0
ENDSEC
  0
SECTION
  2
OBJECTS
  0
DICTIONARY
  5
1A
100
AcDbDictionary
  3
ACAD_GROUP
350
18
  3
ACAD_MLINESTYLE
350
19
  0
DICTIONARY
  5
18
102
{ACAD_REACTORS
330
1A
102
}
100
AcDbDictionary
  0
DICTIONARY
  5
19
102
{ACAD_REACTORS
330
1A
102
}
100
AcDbDictionary
  3
STANDARD
350
1C
  0
MLINESTYLE
  5
1C
102
{ACAD_REACTORS
330
19
102
}
100
AcDbMlineStyle
  2
STANDARD
 70
     0
  3

 62
   256
 51
90.0
 52
90.0
 71
     2
 49
0.5
 62
   256
  6
BYLAYER
 49
-0.5
 62
   256
  6
BYLAYER
  0
ENDSEC
  0
EOF
