  0
SECTION
  2
HEADER
  9
$ACADVER
  1
AC1014
  9
$ACADMAINTVER
 70
     0
  9
$DWGCODEPAGE
  3
ANSI_1250
  9
$INSBASE
 10
0.0
 20
0.0
 30
0.0
  9
$EXTMIN
 10
572.372216
 20
-1398.398343
 30
0.0
  9
$EXTMAX
 10
2153.963002
 20
431.132418
 30
0.0
  9
$LIMMIN
 10
0.0
 20
0.0
  9
$LIMMAX
 10
420.0
 20
297.0
  9
$ORTHOMODE
 70
     0
  9
$REGENMODE
 70
     1
  9
$FILLMODE
 70
     1
  9
$QTEXTMODE
 70
     0
  9
$MIRRTEXT
 70
     1
  9
$DRAGMODE
 70
     2
  9
$LTSCALE
 40
1.0
  9
$OSMODE
 70
    15
  9
$ATTMODE
 70
     1
  9
$TEXTSIZE
 40
10.0
  9
$TRACEWID
 40
1.0
  9
$TEXTSTYLE
  7
ED30
  9
$CLAYER
  8
V0-VYPLNE
  9
$CELTYPE
  6
DASHED
  9
$CECOLOR
 62
    52
  9
$CELTSCALE
 40
1.0
  9
$DELOBJ
 70
     1
  9
$DISPSILH
 70
     0
  9
$DIMSCALE
 40
0.0
  9
$DIMASZ
 40
35.0
  9
$DIMEXO
 40
1.0
  9
$DIMDLI
 40
3.75
  9
$DIMRND
 40
0.0
  9
$DIMDLE
 40
0.0
  9
$DIMEXE
 40
1.25
  9
$DIMTP
 40
0.0
  9
$DIMTM
 40
0.0
  9
$DIMTXT
 40
40.0
  9
$DIMCEN
 40
3.0
  9
$DIMTSZ
 40
0.0
  9
$DIMTOL
 70
     0
  9
$DIMLIM
 70
     0
  9
$DIMTIH
 70
     0
  9
$DIMTOH
 70
     0
  9
$DIMSE1
 70
     0
  9
$DIMSE2
 70
     0
  9
$DIMTAD
 70
     1
  9
$DIMZIN
 70
     8
  9
$DIMBLK
  1

  9
$DIMASO
 70
     1
  9
$DIMSHO
 70
     1
  9
$DIMPOST
  1

  9
$DIMAPOST
  1

  9
$DIMALT
 70
     0
  9
$DIMALTD
 70
     4
  9
$DIMALTF
 40
0.0394
  9
$DIMLFAC
 40
1.0
  9
$DIMTOFL
 70
     1
  9
$DIMTVP
 40
0.0
  9
$DIMTIX
 70
     0
  9
$DIMSOXD
 70
     0
  9
$DIMSAH
 70
     1
  9
$DIMBLK1
  1
_OPEN
  9
$DIMBLK2
  1
_OPEN
  9
$DIMSTYLE
  2
ED40
  9
$DIMCLRD
 70
     0
  9
$DIMCLRE
 70
     0
  9
$DIMCLRT
 70
     0
  9
$DIMTFAC
 40
1.0
  9
$DIMGAP
 40
3.0
  9
$DIMJUST
 70
     0
  9
$DIMSD1
 70
     0
  9
$DIMSD2
 70
     0
  9
$DIMTOLJ
 70
     1
  9
$DIMTZIN
 70
     8
  9
$DIMALTZ
 70
     0
  9
$DIMALTTZ
 70
     0
  9
$DIMFIT
 70
     3
  9
$DIMUPT
 70
     0
  9
$DIMUNIT
 70
     2
  9
$DIMDEC
 70
     0
  9
$DIMTDEC
 70
     1
  9
$DIMALTU
 70
     8
  9
$DIMALTTD
 70
     4
  9
$DIMTXSTY
  7
ED40
  9
$DIMAUNIT
 70
     0
  9
$LUNITS
 70
     2
  9
$LUPREC
 70
     4
  9
$SKETCHINC
 40
1.0
  9
$FILLETRAD
 40
5.0
  9
$AUNITS
 70
     0
  9
$AUPREC
 70
     0
  9
$MENU
  1
.
  9
$ELEVATION
 40
0.0
  9
$PELEVATION
 40
0.0
  9
$THICKNESS
 40
0.0
  9
$LIMCHECK
 70
     0
  9
$BLIPMODE
 70
     0
  9
$CHAMFERA
 40
10.0
  9
$CHAMFERB
 40
10.0
  9
$CHAMFERC
 40
20.0
  9
$CHAMFERD
 40
0.0
  9
$SKPOLY
 70
     1
  9
$TDCREATE
 40
2451196.643769328
  9
$TDUPDATE
 40
2453311.781300613
  9
$TDINDWG
 40
0.3446907986
  9
$TDUSRTIMER
 40
0.3446907986
  9
$USRTIMER
 70
     1
  9
$ANGBASE
 50
0.0
  9
$ANGDIR
 70
     0
  9
$PDMODE
 70
     3
  9
$PDSIZE
 40
25.0
  9
$PLINEWID
 40
0.0
  9
$COORDS
 70
     1
  9
$SPLFRAME
 70
     0
  9
$SPLINETYPE
 70
     6
  9
$SPLINESEGS
 70
     8
  9
$ATTDIA
 70
     0
  9
$ATTREQ
 70
     1
  9
$HANDLING
 70
     1
  9
$HANDSEED
  5
12E4
  9
$SURFTAB1
 70
     6
  9
$SURFTAB2
 70
     6
  9
$SURFTYPE
 70
     6
  9
$SURFU
 70
     6
  9
$SURFV
 70
     6
  9
$UCSNAME
  2

  9
$UCSORG
 10
727.5522535047794
 20
0.0
 30
0.0
  9
$UCSXDIR
 10
1.0
 20
0.0
 30
0.0
  9
$UCSYDIR
 10
0.0
 20
1.0
 30
0.0
  9
$PUCSNAME
  2

  9
$PUCSORG
 10
0.0
 20
0.0
 30
0.0
  9
$PUCSXDIR
 10
1.0
 20
0.0
 30
0.0
  9
$PUCSYDIR
 10
0.0
 20
1.0
 30
0.0
  9
$USERI1
 70
     0
  9
$USERI2
 70
     0
  9
$USERI3
 70
     2
  9
$USERI4
 70
     2
  9
$USERI5
 70
     6
  9
$USERR1
 40
281.0
  9
$USERR2
 40
321.0
  9
$USERR3
 40
0.0
  9
$USERR4
 40
0.0
  9
$USERR5
 40
0.0
  9
$WORLDVIEW
 70
     1
  9
$SHADEDGE
 70
     3
  9
$SHADEDIF
 70
    70
  9
$TILEMODE
 70
     1
  9
$MAXACTVP
 70
    48
  9
$PINSBASE
 10
0.0
 20
0.0
 30
0.0
  9
$PLIMCHECK
 70
     0
  9
$PEXTMIN
 10
1.000000E+20
 20
1.000000E+20
 30
1.000000E+20
  9
$PEXTMAX
 10
-1.000000E+20
 20
-1.000000E+20
 30
-1.000000E+20
  9
$PLIMMIN
 10
0.0
 20
0.0
  9
$PLIMMAX
 10
420.0
 20
297.0
  9
$UNITMODE
 70
     0
  9
$VISRETAIN
 70
     1
  9
$PLINEGEN
 70
     0
  9
$PSLTSCALE
 70
     0
  9
$TREEDEPTH
 70
  3020
  9
$PICKSTYLE
 70
     1
  9
$CMLSTYLE
  2
STANDARD
  9
$CMLJUST
 70
     0
  9
$CMLSCALE
 40
1.0
  9
$PROXYGRAPHICS
 70
     1
  9
$MEASUREMENT
 70
     1
  0
ENDSEC
  0
SECTION
  2
CLASSES
  0
CLASS
  1
DICTIONARYVAR
  2
AcDbDictionaryVar
  3
"AutoCAD"
 90
        0
280
     0
281
     0
  0
CLASS
  1
LWPOLYLINE
  2
AcDbPolyline
  3
"AutoCAD"
 90
        0
280
     0
281
     1
  0
CLASS
  1
HATCH
  2
AcDbHatch
  3
"ACAD_SEDONA"
 90
        0
280
     0
281
     1
  0
ENDSEC
  0
SECTION
  2
TABLES
  0
TABLE
  2
VPORT
  5
8
100
AcDbSymbolTable
 70
     8
  0
VPORT
  5
12E3
100
AcDbSymbolTableRecord
100
AcDbViewportTableRecord
  2
*ACTIVE
 70
     0
 10
0.0
 20
0.0
 11
1.0
 21
1.0
 12
1460.198257
 22
-514.50668
 13
0.0
 23
0.0
 14
10.0
 24
10.0
 15
10.0
 25
10.0
 16
0.0
 26
0.0
 36
1.0
 17
0.0
 27
0.0
 37
0.0
 40
1845.654993
 41
1.550584
 42
50.0
 43
0.0
 44
0.0
 50
0.0
 51
0.0
 71
     0
 72
   100
 73
     1
 74
     1
 75
     0
 76
     0
 77
     0
 78
     0
  0
ENDTAB
  0
TABLE
  2
LTYPE
  5
5
100
AcDbSymbolTable
 70
     3
  0
LTYPE
  5
14
100
AcDbSymbolTableRecord
100
AcDbLinetypeTableRecord
  2
BYBLOCK
 70
     0
  3

 72
    65
 73
     0
 40
0.0
  0
LTYPE
  5
15
100
AcDbSymbolTableRecord
100
AcDbLinetypeTableRecord
  2
BYLAYER
 70
     0
  3

 72
    65
 73
     0
 40
0.0
  0
LTYPE
  5
16
100
AcDbSymbolTableRecord
100
AcDbLinetypeTableRecord
  2
CONTINUOUS
 70
     0
  3
Solid line
 72
    65
 73
     0
 40
0.0
  0
LTYPE
  5
7F
100
AcDbSymbolTableRecord
100
AcDbLinetypeTableRecord
  2
DASHDOT
 70
     0
  3
Dash dot __ . __ . __ . __ . __ . __ . __ . __
 72
    65
 73
     4
 40
25.4
 49
12.7
 74
     0
 49
-6.35
 74
     0
 49
0.0
 74
     0
 49
-6.35
 74
     0
  0
LTYPE
  5
80
100
AcDbSymbolTableRecord
100
AcDbLinetypeTableRecord
  2
DASHED
 70
     0
  3
Dashed __ __ __ __ __ __ __ __ __ __ __ __ __ _
 72
    65
 73
     2
 40
19.05
 49
12.7
 74
     0
 49
-6.35
 74
     0
  0
ENDTAB
  0
TABLE
  2
LAYER
  5
2
100
AcDbSymbolTable
 70
     6
  0
LAYER
  5
F
100
AcDbSymbolTableRecord
100
AcDbLayerTableRecord
  2
0
 70
     0
 62
     7
  6
CONTINUOUS
  0
LAYER
  5
9E
100
AcDbSymbolTableRecord
100
AcDbLayerTableRecord
  2
DEFPOINTS
 70
     0
 62
     7
  6
CONTINUOUS
  0
LAYER
  5
377
100
AcDbSymbolTableRecord
100
AcDbLayerTableRecord
  2
V0-OBRYS
 70
     0
 62
    90
  6
CONTINUOUS
  0
LAYER
  5
378
100
AcDbSymbolTableRecord
100
AcDbLayerTableRecord
  2
V0-VYPLNE
 70
     0
 62
    63
  6
DASHDOT
  0
LAYER
  5
37A
100
AcDbSymbolTableRecord
100
AcDbLayerTableRecord
  2
V0-NAZVY
 70
     0
 62
   210
  6
CONTINUOUS
  0
LAYER
  5
559
100
AcDbSymbolTableRecord
100
AcDbLayerTableRecord
  2
V0-ZBYTEK
 70
     0
 62
    51
  6
CONTINUOUS
  0
ENDTAB
  0
TABLE
  2
STYLE
  5
3
100
AcDbSymbolTable
 70
     6
  0
STYLE
  5
10
100
AcDbSymbolTableRecord
100
AcDbTextStyleTableRecord
  2
STANDARD
 70
     0
 40
7.0
 41
1.0
 50
0.0
 71
     0
 42
20.0
  3
ISOCP.shx
  4

  0
STYLE
  5
331
100
AcDbSymbolTableRecord
100
AcDbTextStyleTableRecord
  2
ED30
 70
     0
 40
30.0
 41
1.0
 50
0.0
 71
     0
 42
2.5
  3
ISOCP.shx
  4

  0
STYLE
  5
5D2
100
AcDbSymbolTableRecord
100
AcDbTextStyleTableRecord
  2
ED20
 70
     0
 40
20.0
 41
1.0
 50
0.0
 71
     0
 42
20.0
  3
isocp.shx
  4

  0
STYLE
  5
64F
100
AcDbSymbolTableRecord
100
AcDbTextStyleTableRecord
  2
ED40
 70
     0
 40
40.0
 41
1.0
 50
0.0
 71
     0
 42
20.0
  3
isocp.shx
  4

  0
STYLE
  5
650
100
AcDbSymbolTableRecord
100
AcDbTextStyleTableRecord
  2
ED10
 70
     0
 40
10.0
 41
1.0
 50
0.0
 71
     0
 42
10.0
  3
isocp.shx
  4

  0
STYLE
  5
ECA
100
AcDbSymbolTableRecord
100
AcDbTextStyleTableRecord
  2
ED15
 70
     0
 40
15.0
 41
1.0
 50
0.0
 71
     0
 42
30.0
  3
isocp.shx
  4

  0
ENDTAB
  0
TABLE
  2
VIEW
  5
6
100
AcDbSymbolTable
 70
     0
  0
ENDTAB
  0
TABLE
  2
UCS
  5
7
100
AcDbSymbolTable
 70
     0
  0
ENDTAB
  0
TABLE
  2
APPID
  5
9
100
AcDbSymbolTable
 70
     3
  0
APPID
  5
11
100
AcDbSymbolTableRecord
100
AcDbRegAppTableRecord
  2
ACAD
 70
     0
  0
APPID
  5
113D
100
AcDbSymbolTableRecord
100
AcDbRegAppTableRecord
  2
CONTENTBLOCKICON
 70
     0
  0
APPID
  5
113E
100
AcDbSymbolTableRecord
100
AcDbRegAppTableRecord
  2
CONTENTBLOCKDESCRIPTION
 70
     0
  0
ENDTAB
  0
TABLE
  2
DIMSTYLE
  5
A
100
AcDbSymbolTable
 70
     6
  0
DIMSTYLE
105
1D
100
AcDbSymbolTableRecord
100
AcDbDimStyleTableRecord
  2
STANDARD
 70
     0
  3

  4

  5

  6
_OPEN
  7
_OPEN
 40
0.0
 41
15.0
 42
0.625
 43
3.75
 44
1.25
 45
0.0
 46
0.0
 47
0.0
 48
0.0
140
15.0
141
2.5
142
0.0
143
0.0394
144
1.0
145
0.0
146
1.0
147
3.0
 71
     0
 72
     0
 73
     0
 74
     0
 75
     0
 76
     0
 77
     1
 78
     8
170
     0
171
     4
172
     1
173
     1
174
     0
175
     0
176
     0
177
     0
178
     0
270
     2
271
     0
272
     1
273
     8
274
     4
340
331
275
     0
280
     0
281
     0
282
     0
283
     1
284
     8
285
     0
286
     0
287
     3
288
     0
  0
DIMSTYLE
105
397
100
AcDbSymbolTableRecord
100
AcDbDimStyleTableRecord
  2
ED40
 70
     0
  3

  4

  5

  6
_OPEN
  7
_OPEN
 40
0.0
 41
35.0
 42
1.0
 43
3.75
 44
1.25
 45
0.0
 46
0.0
 47
0.0
 48
0.0
140
40.0
141
3.0
142
0.0
143
0.0394
144
1.0
145
0.0
146
1.0
147
3.0
 71
     0
 72
     0
 73
     0
 74
     0
 75
     0
 76
     0
 77
     1
 78
     8
170
     0
171
     4
172
     1
173
     1
174
     0
175
     0
176
     0
177
     0
178
     0
270
     2
271
     0
272
     1
273
     8
274
     4
340
64F
275
     0
280
     0
281
     0
282
     0
283
     1
284
     8
285
     0
286
     0
287
     3
288
     0
  0
DIMSTYLE
105
656
102
{ACAD_REACTORS
330
A42
330
A3E
102
}
100
AcDbSymbolTableRecord
100
AcDbDimStyleTableRecord
  2
ED30
 70
     0
  3

  4

  5

  6
_OPEN
  7
_OPEN
 40
0.0
 41
25.0
 42
1.0
 43
3.75
 44
1.25
 45
0.0
 46
0.0
 47
0.0
 48
0.0
140
30.0
141
3.0
142
0.0
143
0.0394
144
1.0
145
0.0
146
1.0
147
2.0
 71
     0
 72
     0
 73
     0
 74
     0
 75
     0
 76
     0
 77
     1
 78
     8
170
     0
171
     4
172
     1
173
     1
174
     0
175
     0
176
     0
177
     0
178
     0
270
     2
271
     0
272
     1
273
     8
274
     4
340
331
275
     0
280
     0
281
     0
282
     0
283
     1
284
     8
285
     0
286
     0
287
     3
288
     0
  0
DIMSTYLE
105
657
100
AcDbSymbolTableRecord
100
AcDbDimStyleTableRecord
  2
ED20
 70
     0
  3

  4

  5

  6
_OPEN
  7
_OPEN
 40
0.0
 41
20.0
 42
1.0
 43
3.75
 44
1.25
 45
0.0
 46
0.0
 47
0.0
 48
0.0
140
20.0
141
3.0
142
0.0
143
0.0394
144
1.0
145
0.0
146
1.0
147
1.5
 71
     0
 72
     0
 73
     0
 74
     0
 75
     0
 76
     0
 77
     1
 78
     8
170
     0
171
     4
172
     1
173
     1
174
     0
175
     0
176
     0
177
     0
178
     0
270
     2
271
     0
272
     1
273
     8
274
     4
340
5D2
275
     0
280
     0
281
     0
282
     0
283
     1
284
     8
285
     0
286
     0
287
     3
288
     0
  0
DIMSTYLE
105
658
102
{ACAD_REACTORS
330
BA3
330
C16
102
}
100
AcDbSymbolTableRecord
100
AcDbDimStyleTableRecord
  2
ED10
 70
     0
  3

  4

  5

  6
_OPEN
  7
_OPEN
 40
0.0
 41
15.0
 42
1.0
 43
3.75
 44
1.25
 45
0.0
 46
0.0
 47
0.0
 48
0.0
140
10.0
141
3.0
142
0.0
143
0.0394
144
1.0
145
0.0
146
1.0
147
1.5
 71
     0
 72
     0
 73
     0
 74
     0
 75
     0
 76
     0
 77
     1
 78
     8
170
     0
171
     4
172
     1
173
     1
174
     0
175
     0
176
    41
177
    41
178
    41
270
     2
271
     0
272
     1
273
     8
274
     4
340
5D2
275
     0
280
     0
281
     0
282
     0
283
     1
284
     8
285
     0
286
     0
287
     3
288
     0
  0
DIMSTYLE
105
ECB
100
AcDbSymbolTableRecord
100
AcDbDimStyleTableRecord
  2
ED15
 70
     0
  3

  4

  5

  6
_OPEN
  7
_OPEN
 40
0.0
 41
15.0
 42
1.0
 43
3.75
 44
1.25
 45
0.0
 46
0.0
 47
0.0
 48
0.0
140
15.0
141
3.0
142
0.0
143
0.0394
144
1.0
145
0.0
146
1.0
147
1.5
 71
     0
 72
     0
 73
     0
 74
     0
 75
     0
 76
     0
 77
     1
 78
     8
170
     0
171
     4
172
     1
173
     1
174
     0
175
     0
176
     0
177
     0
178
     0
270
     2
271
     0
272
     1
273
     8
274
     4
340
ECA
275
     0
280
     0
281
     0
282
     0
283
     1
284
     8
285
     0
286
     0
287
     3
288
     0
  0
ENDTAB
  0
TABLE
  2
BLOCK_RECORD
  5
1
100
AcDbSymbolTable
 70
    10
  0
BLOCK_RECORD
  5
1A
100
AcDbSymbolTableRecord
100
AcDbBlockTableRecord
  2
*MODEL_SPACE
  0
BLOCK_RECORD
  5
17
100
AcDbSymbolTableRecord
100
AcDbBlockTableRecord
  2
*PAPER_SPACE
  0
BLOCK_RECORD
  5
90
100
AcDbSymbolTableRecord
100
AcDbBlockTableRecord
  2
_OPEN
  0
BLOCK_RECORD
  5
A52
100
AcDbSymbolTableRecord
100
AcDbBlockTableRecord
  2
*D1
  0
BLOCK_RECORD
  5
A5E
100
AcDbSymbolTableRecord
100
AcDbBlockTableRecord
  2
*D2
  0
BLOCK_RECORD
  5
B97
100
AcDbSymbolTableRecord
100
AcDbBlockTableRecord
  2
*D3
  0
BLOCK_RECORD
  5
C0A
100
AcDbSymbolTableRecord
100
AcDbBlockTableRecord
  2
*D4
  0
BLOCK_RECORD
  5
FD6
100
AcDbSymbolTableRecord
100
AcDbBlockTableRecord
  2
*D5
  0
BLOCK_RECORD
  5
FE2
100
AcDbSymbolTableRecord
100
AcDbBlockTableRecord
  2
*D6
  0
BLOCK_RECORD
  5
FEE
100
AcDbSymbolTableRecord
100
AcDbBlockTableRecord
  2
*D7
  0
ENDTAB
  0
ENDSEC
  0
SECTION
  2
BLOCKS
  0
BLOCK
  5
1B
100
AcDbEntity
  8
0
100
AcDbBlockBegin
  2
*MODEL_SPACE
 70
     0
 10
0.0
 20
0.0
 30
0.0
  3
*MODEL_SPACE
  1

  0
ENDBLK
  5
1C
100
AcDbEntity
  8
0
100
AcDbBlockEnd
  0
BLOCK
  5
18
100
AcDbEntity
 67
     1
  8
0
100
AcDbBlockBegin
  2
*PAPER_SPACE
 70
     0
 10
0.0
 20
0.0
 30
0.0
  3
*PAPER_SPACE
  1

  0
ENDBLK
  5
19
100
AcDbEntity
 67
     1
  8
0
100
AcDbBlockEnd
  0
BLOCK
  5
91
100
AcDbEntity
  8
0
100
AcDbBlockBegin
  2
_OPEN
 70
     0
 10
0.0
 20
0.0
 30
0.0
  3
_OPEN
  1

  0
LINE
  5
92
100
AcDbEntity
  8
0
  6
BYBLOCK
 62
     0
100
AcDbLine
 10
-1.0
 20
0.166667
 30
0.0
 11
0.0
 21
0.0
 31
0.0
  0
LINE
  5
93
100
AcDbEntity
  8
0
  6
BYBLOCK
 62
     0
100
AcDbLine
 10
0.0
 20
0.0
 30
0.0
 11
-1.0
 21
-0.166667
 31
0.0
  0
LINE
  5
94
100
AcDbEntity
  8
0
  6
BYBLOCK
 62
     0
100
AcDbLine
 10
0.0
 20
0.0
 30
0.0
 11
-1.0
 21
0.0
 31
0.0
  0
ENDBLK
  5
95
100
AcDbEntity
  8
0
100
AcDbBlockEnd
  0
BLOCK
  5
12D4
100
AcDbEntity
  8
0
100
AcDbBlockBegin
  2
*D1
 70
     1
 10
0.0
 20
0.0
 30
0.0
  3
*D1
  1

  0
LINE
  5
12D5
100
AcDbEntity
  8
0
  6
BYBLOCK
 62
     0
100
AcDbLine
 10
686.552254
 20
280.0
 30
0.0
 11
613.917491
 21
280.0
 31
0.0
  0
LINE
  5
12D6
100
AcDbEntity
  8
0
  6
BYBLOCK
 62
     0
100
AcDbLine
 10
686.552254
 20
-280.0
 30
0.0
 11
613.917491
 21
-280.0
 31
0.0
  0
LINE
  5
12D7
100
AcDbEntity
  8
0
  6
BYBLOCK
 62
     0
100
AcDbLine
 10
615.167491
 20
245.0
 30
0.0
 11
615.167491
 21
-245.0
 31
0.0
  0
INSERT
  5
12D8
100
AcDbEntity
  8
0
  6
BYBLOCK
 62
     0
100
AcDbBlockReference
  2
_OPEN
 10
615.167491
 20
280.0
 30
0.0
 41
35.0
 42
35.0
 43
35.0
 50
90.0
  0
INSERT
  5
12D9
100
AcDbEntity
  8
0
  6
BYBLOCK
 62
     0
100
AcDbBlockReference
  2
_OPEN
 10
615.167491
 20
-280.0
 30
0.0
 41
35.0
 42
35.0
 43
35.0
 50
270.0
  0
MTEXT
  5
12DA
100
AcDbEntity
  8
0
  6
BYBLOCK
 62
     0
100
AcDbMText
 10
592.167491
 20
-1.802349
 30
0.0
 40
40.0
 41
0.0
 71
     5
 72
     1
  1
\A1;\U+2205560
  7
ED40
 11
0.0
 21
1.0
 31
0.0
  0
POINT
  5
12DB
100
AcDbEntity
  8
DEFPOINTS
  6
BYBLOCK
 62
     0
100
AcDbPoint
 10
687.552254
 20
280.0
 30
0.0
  0
POINT
  5
12DC
100
AcDbEntity
  8
DEFPOINTS
  6
BYBLOCK
 62
     0
100
AcDbPoint
 10
687.552254
 20
-280.0
 30
0.0
  0
POINT
  5
12DD
100
AcDbEntity
  8
DEFPOINTS
  6
BYBLOCK
 62
     0
100
AcDbPoint
 10
615.167491
 20
-280.0
 30
0.0
  0
ENDBLK
  5
12DE
100
AcDbEntity
  8
0
100
AcDbBlockEnd
  0
BLOCK
  5
E7F
100
AcDbEntity
  8
0
100
AcDbBlockBegin
  2
*D2
 70
     1
 10
0.0
 20
0.0
 30
0.0
  3
*D2
  1

  0
LINE
  5
E80
100
AcDbEntity
  8
0
  6
BYBLOCK
 62
     0
100
AcDbLine
 10
687.552254
 20
-201.0
 30
0.0
 11
687.552254
 21
-272.942088
 31
0.0
  0
LINE
  5
E81
100
AcDbEntity
  8
0
  6
BYBLOCK
 62
     0
100
AcDbLine
 10
767.552254
 20
-201.0
 30
0.0
 11
767.552254
 21
-272.942088
 31
0.0
  0
LINE
  5
E82
100
AcDbEntity
  8
0
  6
BYBLOCK
 62
     0
100
AcDbLine
 10
722.552254
 20
-271.692088
 30
0.0
 11
732.552254
 21
-271.692088
 31
0.0
  0
INSERT
  5
E83
100
AcDbEntity
  8
0
  6
BYBLOCK
 62
     0
100
AcDbBlockReference
  2
_OPEN
 10
687.552254
 20
-271.692088
 30
0.0
 41
35.0
 42
35.0
 43
35.0
 50
180.0
  0
INSERT
  5
E84
100
AcDbEntity
  8
0
  6
BYBLOCK
 62
     0
100
AcDbBlockReference
  2
_OPEN
 10
767.552254
 20
-271.692088
 30
0.0
 41
35.0
 42
35.0
 43
35.0
  0
MTEXT
  5
E85
100
AcDbEntity
  8
0
  6
BYBLOCK
 62
     0
100
AcDbMText
 10
727.247562
 20
-248.692088
 30
0.0
 40
40.0
 41
0.0
 71
     5
 72
     1
  1
\A1;80
  7
ED40
  0
POINT
  5
E86
100
AcDbEntity
  8
DEFPOINTS
  6
BYBLOCK
 62
     0
100
AcDbPoint
 10
687.552254
 20
-200.0
 30
0.0
  0
POINT
  5
E87
100
AcDbEntity
  8
DEFPOINTS
  6
BYBLOCK
 62
     0
100
AcDbPoint
 10
767.552254
 20
-200.0
 30
0.0
  0
POINT
  5
E88
100
AcDbEntity
  8
DEFPOINTS
  6
BYBLOCK
 62
     0
100
AcDbPoint
 10
767.552254
 20
-271.692088
 30
0.0
  0
ENDBLK
  5
E89
100
AcDbEntity
  8
0
100
AcDbBlockEnd
  0
BLOCK
  5
E69
100
AcDbEntity
  8
0
100
AcDbBlockBegin
  2
*D3
 70
     1
 10
0.0
 20
0.0
 30
0.0
  3
*D3
  1

  0
LINE
  5
E6A
100
AcDbEntity
  8
0
  6
BYBLOCK
 62
     0
100
AcDbLine
 10
687.552254
 20
-202.0
 30
0.0
 11
687.552254
 21
-332.847923
 31
0.0
  0
LINE
  5
E6B
100
AcDbEntity
  8
0
  6
BYBLOCK
 62
     0
100
AcDbLine
 10
1287.547962
 20
-202.0
 30
0.0
 11
1287.547962
 21
-332.847923
 31
0.0
  0
LINE
  5
E6C
100
AcDbEntity
  8
0
  6
BYBLOCK
 62
     0
100
AcDbLine
 10
722.552254
 20
-331.597923
 30
0.0
 11
1252.547962
 21
-331.597923
 31
0.0
  0
INSERT
  5
E6D
100
AcDbEntity
  8
0
  6
BYBLOCK
 62
     0
100
AcDbBlockReference
  2
_OPEN
 10
687.552254
 20
-331.597923
 30
0.0
 41
35.0
 42
35.0
 43
35.0
 50
180.0
  0
INSERT
  5
E6E
100
AcDbEntity
  8
0
  6
BYBLOCK
 62
     0
100
AcDbBlockReference
  2
_OPEN
 10
1287.547962
 20
-331.597923
 30
0.0
 41
35.0
 42
35.0
 43
35.0
  0
MTEXT
  5
E6F
100
AcDbEntity
  8
0
  6
BYBLOCK
 62
     0
100
AcDbMText
 10
987.550108
 20
-308.597923
 30
0.0
 40
40.0
 41
0.0
 71
     5
 72
     1
  1
\A1;600
  7
ED40
  0
POINT
  5
E70
100
AcDbEntity
  8
DEFPOINTS
  6
BYBLOCK
 62
     0
100
AcDbPoint
 10
687.552254
 20
-201.0
 30
0.0
  0
POINT
  5
E71
100
AcDbEntity
  8
DEFPOINTS
  6
BYBLOCK
 62
     0
100
AcDbPoint
 10
1287.547962
 20
-201.0
 30
0.0
  0
POINT
  5
E72
100
AcDbEntity
  8
DEFPOINTS
  6
BYBLOCK
 62
     0
100
AcDbPoint
 10
1287.547962
 20
-331.597923
 30
0.0
  0
ENDBLK
  5
E73
100
AcDbEntity
  8
0
100
AcDbBlockEnd
  0
BLOCK
  5
E74
100
AcDbEntity
  8
0
100
AcDbBlockBegin
  2
*D4
 70
     1
 10
0.0
 20
0.0
 30
0.0
  3
*D4
  1

  0
LINE
  5
E75
100
AcDbEntity
  8
0
  6
BYBLOCK
 62
     0
100
AcDbLine
 10
767.552254
 20
-201.0
 30
0.0
 11
767.552254
 21
-272.942088
 31
0.0
  0
LINE
  5
E76
100
AcDbEntity
  8
0
  6
BYBLOCK
 62
     0
100
AcDbLine
 10
1207.552254
 20
-201.0
 30
0.0
 11
1207.552254
 21
-272.942088
 31
0.0
  0
LINE
  5
E77
100
AcDbEntity
  8
0
  6
BYBLOCK
 62
     0
100
AcDbLine
 10
802.552254
 20
-271.692088
 30
0.0
 11
1172.552254
 21
-271.692088
 31
0.0
  0
INSERT
  5
E78
100
AcDbEntity
  8
0
  6
BYBLOCK
 62
     0
100
AcDbBlockReference
  2
_OPEN
 10
767.552254
 20
-271.692088
 30
0.0
 41
35.0
 42
35.0
 43
35.0
 50
180.0
  0
INSERT
  5
E79
100
AcDbEntity
  8
0
  6
BYBLOCK
 62
     0
100
AcDbBlockReference
  2
_OPEN
 10
1207.552254
 20
-271.692088
 30
0.0
 41
35.0
 42
35.0
 43
35.0
  0
MTEXT
  5
E7A
100
AcDbEntity
  8
0
  6
BYBLOCK
 62
     0
100
AcDbMText
 10
987.552254
 20
-248.692088
 30
0.0
 40
40.0
 41
0.0
 71
     5
 72
     1
  1
\A1;440
  7
ED40
  0
POINT
  5
E7B
100
AcDbEntity
  8
DEFPOINTS
  6
BYBLOCK
 62
     0
100
AcDbPoint
 10
767.552254
 20
-200.0
 30
0.0
  0
POINT
  5
E7C
100
AcDbEntity
  8
DEFPOINTS
  6
BYBLOCK
 62
     0
100
AcDbPoint
 10
1207.552254
 20
-200.0
 30
0.0
  0
POINT
  5
E7D
100
AcDbEntity
  8
DEFPOINTS
  6
BYBLOCK
 62
     0
100
AcDbPoint
 10
1207.552254
 20
-271.692088
 30
0.0
  0
ENDBLK
  5
E7E
100
AcDbEntity
  8
0
100
AcDbBlockEnd
  0
BLOCK
  5
103D
100
AcDbEntity
  8
0
100
AcDbBlockBegin
  2
*D5
 70
     1
 10
0.0
 20
0.0
 30
0.0
  3
*D5
  1

  0
LINE
  5
103E
100
AcDbEntity
  8
0
  6
BYBLOCK
 62
     0
100
AcDbLine
 10
987.552254
 20
243.0
 30
0.0
 11
987.552254
 21
304.68318
 31
0.0
  0
LINE
  5
103F
100
AcDbEntity
  8
0
  6
BYBLOCK
 62
     0
100
AcDbLine
 10
1122.552254
 20
246.0
 30
0.0
 11
1122.552254
 21
304.68318
 31
0.0
  0
LINE
  5
1040
100
AcDbEntity
  8
0
  6
BYBLOCK
 62
     0
100
AcDbLine
 10
1022.552254
 20
303.43318
 30
0.0
 11
1087.552254
 21
303.43318
 31
0.0
  0
INSERT
  5
1041
100
AcDbEntity
  8
0
  6
BYBLOCK
 62
     0
100
AcDbBlockReference
  2
_OPEN
 10
987.552254
 20
303.43318
 30
0.0
 41
35.0
 42
35.0
 43
35.0
 50
180.0
  0
INSERT
  5
1042
100
AcDbEntity
  8
0
  6
BYBLOCK
 62
     0
100
AcDbBlockReference
  2
_OPEN
 10
1122.552254
 20
303.43318
 30
0.0
 41
35.0
 42
35.0
 43
35.0
  0
MTEXT
  5
1043
100
AcDbEntity
  8
0
  6
BYBLOCK
 62
     0
100
AcDbMText
 10
1047.096777
 20
326.43318
 30
0.0
 40
40.0
 41
0.0
 71
     5
 72
     1
  1
\A1;135
  7
ED40
  0
POINT
  5
1044
100
AcDbEntity
  8
DEFPOINTS
  6
BYBLOCK
 62
     0
100
AcDbPoint
 10
987.552254
 20
242.0
 30
0.0
  0
POINT
  5
1045
100
AcDbEntity
  8
DEFPOINTS
  6
BYBLOCK
 62
     0
100
AcDbPoint
 10
1122.552254
 20
245.0
 30
0.0
  0
POINT
  5
1046
100
AcDbEntity
  8
DEFPOINTS
  6
BYBLOCK
 62
     0
100
AcDbPoint
 10
1122.552254
 20
303.43318
 30
0.0
  0
ENDBLK
  5
1047
100
AcDbEntity
  8
0
100
AcDbBlockEnd
  0
BLOCK
  5
12BC
100
AcDbEntity
  8
0
100
AcDbBlockBegin
  2
*D6
 70
     1
 10
0.0
 20
0.0
 30
0.0
  3
*D6
  1

  0
LINE
  5
12BD
100
AcDbEntity
  8
0
  6
BYBLOCK
 62
     0
100
AcDbLine
 10
1123.552254
 20
325.0
 30
0.0
 11
1362.621394
 21
325.0
 31
0.0
  0
LINE
  5
12BE
100
AcDbEntity
  8
0
  6
BYBLOCK
 62
     0
100
AcDbLine
 10
1088.552254
 20
280.0
 30
0.0
 11
1362.621394
 21
280.0
 31
0.0
  0
LINE
  5
12BF
100
AcDbEntity
  8
0
  6
BYBLOCK
 62
     0
100
AcDbLine
 10
1361.371394
 20
360.0
 30
0.0
 11
1361.371394
 21
395.0
 31
0.0
  0
LINE
  5
12C0
100
AcDbEntity
  8
0
  6
BYBLOCK
 62
     0
100
AcDbLine
 10
1361.371394
 20
245.0
 30
0.0
 11
1361.371394
 21
99.343146
 31
0.0
  0
LINE
  5
12C1
100
AcDbEntity
  8
0
  6
BYBLOCK
 62
     0
100
AcDbLine
 10
1361.371394
 20
325.0
 30
0.0
 11
1361.371394
 21
280.0
 31
0.0
  0
INSERT
  5
12C2
100
AcDbEntity
  8
0
  6
BYBLOCK
 62
     0
100
AcDbBlockReference
  2
_OPEN
 10
1361.371394
 20
325.0
 30
0.0
 41
35.0
 42
35.0
 43
35.0
 50
270.0
  0
INSERT
  5
12C3
100
AcDbEntity
  8
0
  6
BYBLOCK
 62
     0
100
AcDbBlockReference
  2
_OPEN
 10
1361.371394
 20
280.0
 30
0.0
 41
35.0
 42
35.0
 43
35.0
 50
90.0
  0
MTEXT
  5
12C4
100
AcDbEntity
  8
0
  6
BYBLOCK
 62
     0
100
AcDbMText
 10
1338.371394
 20
127.171573
 30
0.0
 40
40.0
 41
0.0
 71
     5
 72
     1
  1
\A1;45
  7
ED40
 11
0.0
 21
1.0
 31
0.0
  0
POINT
  5
12C5
100
AcDbEntity
  8
DEFPOINTS
  6
BYBLOCK
 62
     0
100
AcDbPoint
 10
1122.552254
 20
325.0
 30
0.0
  0
POINT
  5
12C6
100
AcDbEntity
  8
DEFPOINTS
  6
BYBLOCK
 62
     0
100
AcDbPoint
 10
1087.552254
 20
280.0
 30
0.0
  0
POINT
  5
12C7
100
AcDbEntity
  8
DEFPOINTS
  6
BYBLOCK
 62
     0
100
AcDbPoint
 10
1361.371394
 20
280.0
 30
0.0
  0
ENDBLK
  5
12C8
100
AcDbEntity
  8
0
100
AcDbBlockEnd
  0
BLOCK
  5
1253
100
AcDbEntity
  8
0
100
AcDbBlockBegin
  2
*D7
 70
     1
 10
0.0
 20
0.0
 30
0.0
  3
*D7
  1

  0
LINE
  5
1254
100
AcDbEntity
  8
0
  6
BYBLOCK
 62
     0
100
AcDbLine
 10
2019.922078
 20
265.436716
 30
0.0
 11
2019.922078
 21
332.885193
 31
0.0
  0
LINE
  5
1255
100
AcDbEntity
  8
0
  6
BYBLOCK
 62
     0
100
AcDbLine
 10
2132.422078
 20
265.436716
 30
0.0
 11
2132.422078
 21
332.885193
 31
0.0
  0
LINE
  5
1256
100
AcDbEntity
  8
0
  6
BYBLOCK
 62
     0
100
AcDbLine
 10
2054.922078
 20
331.635193
 30
0.0
 11
2097.422078
 21
331.635193
 31
0.0
  0
INSERT
  5
1257
100
AcDbEntity
  8
0
  6
BYBLOCK
 62
     0
100
AcDbBlockReference
  2
_OPEN
 10
2019.922078
 20
331.635193
 30
0.0
 41
35.0
 42
35.0
 43
35.0
 50
180.0
  0
INSERT
  5
1258
100
AcDbEntity
  8
0
  6
BYBLOCK
 62
     0
100
AcDbBlockReference
  2
_OPEN
 10
2132.422078
 20
331.635193
 30
0.0
 41
35.0
 42
35.0
 43
35.0
  0
MTEXT
  5
1259
100
AcDbEntity
  8
0
  6
BYBLOCK
 62
     0
100
AcDbMText
 10
2076.172078
 20
354.635193
 30
0.0
 40
40.0
 41
0.0
 71
     5
 72
     1
  1
\A1;113
  7
ED40
  0
POINT
  5
125A
100
AcDbEntity
  8
DEFPOINTS
  6
BYBLOCK
 62
     0
100
AcDbPoint
 10
2019.922078
 20
264.436716
 30
0.0
  0
POINT
  5
125B
100
AcDbEntity
  8
DEFPOINTS
  6
BYBLOCK
 62
     0
100
AcDbPoint
 10
2132.422078
 20
264.436716
 30
0.0
  0
POINT
  5
125C
100
AcDbEntity
  8
DEFPOINTS
  6
BYBLOCK
 62
     0
100
AcDbPoint
 10
2132.422078
 20
331.635193
 30
0.0
  0
ENDBLK
  5
125D
100
AcDbEntity
  8
0
100
AcDbBlockEnd
  0
ENDSEC
  0
SECTION
  2
ENTITIES
  0
DIMENSION
  5
A3E
100
AcDbEntity
  8
V0-VYPLNE
  6
CONTINUOUS
 62
    41
100
AcDbDimension
  2
*D2
 10
767.552254
 20
-351.692088
 30
0.0
 11
727.247562
 21
-351.692088
 31
0.0
 12
0.0
 22
-80.0
 32
0.0
 70
   160
  3
ED40
100
AcDbAlignedDimension
 13
687.552254
 23
-280.0
 33
0.0
 14
767.552254
 24
-280.0
 34
0.0
100
AcDbRotatedDimension
1001
ACAD
1000
DSTYLE
1002
{
1070
    40
1040
1.0
1002
}
  0
LINE
  5
A3F
100
AcDbEntity
  8
V0-OBRYS
  6
CONTINUOUS
 62
    90
100
AcDbLine
 10
687.552254
 20
-280.0
 30
0.0
 11
767.552254
 21
-280.0
 31
0.0
  0
LINE
  5
A40
100
AcDbEntity
  8
V0-OBRYS
  6
CONTINUOUS
 62
    90
100
AcDbLine
 10
687.552254
 20
280.0
 30
0.0
 11
767.552254
 21
280.0
 31
0.0
  0
LINE
  5
A41
100
AcDbEntity
  8
V0-VYPLNE
  6
DASHDOT
 62
    63
 48
3.0
100
AcDbLine
 10
687.552254
 20
0.0
 30
0.0
 11
1287.552254
 21
0.0
 31
0.0
  0
DIMENSION
  5
A42
100
AcDbEntity
  8
V0-VYPLNE
  6
CONTINUOUS
 62
    41
100
AcDbDimension
  2
*D1
 10
615.167491
 20
-280.0
 30
0.0
 11
615.167491
 21
-1.802349
 31
0.0
 70
   160
  1
%%c<>
  3
ED40
100
AcDbAlignedDimension
 13
687.552254
 23
280.0
 33
0.0
 14
687.552254
 24
-280.0
 34
0.0
 50
90.0
100
AcDbRotatedDimension
1001
ACAD
1000
DSTYLE
1002
{
1070
    40
1040
1.0
1002
}
  0
LINE
  5
A43
100
AcDbEntity
  8
V0-OBRYS
  6
CONTINUOUS
 62
    90
100
AcDbLine
 10
687.552254
 20
0.0
 30
0.0
 11
687.552254
 21
280.0
 31
0.0
  0
LINE
  5
A44
100
AcDbEntity
  8
V0-OBRYS
  6
CONTINUOUS
 62
    90
100
AcDbLine
 10
687.552254
 20
0.0
 30
0.0
 11
687.552254
 21
-280.0
 31
0.0
  0
LINE
  5
A46
100
AcDbEntity
  8
V0-OBRYS
  6
CONTINUOUS
 62
    90
100
AcDbLine
 10
767.552254
 20
0.0
 30
0.0
 11
767.552254
 21
280.0
 31
0.0
  0
LINE
  5
A47
100
AcDbEntity
  8
V0-OBRYS
  6
CONTINUOUS
 62
    90
100
AcDbLine
 10
782.552254
 20
280.0
 30
0.0
 11
782.552254
 21
0.0
 31
0.0
  0
LINE
  5
A48
100
AcDbEntity
  8
V0-OBRYS
  6
CONTINUOUS
 62
    90
100
AcDbLine
 10
782.552254
 20
-280.0
 30
0.0
 11
782.552254
 21
0.0
 31
0.0
  0
LINE
  5
A49
100
AcDbEntity
  8
V0-OBRYS
  6
CONTINUOUS
 62
    90
100
AcDbLine
 10
767.552254
 20
0.0
 30
0.0
 11
767.552254
 21
-280.0
 31
0.0
  0
ARC
  5
A4B
100
AcDbEntity
  8
V0-OBRYS
  6
CONTINUOUS
 62
    90
100
AcDbCircle
 10
772.552254
 20
-280.0
 30
0.0
 40
5.0
100
AcDbArc
 50
180.0
 51
270.0
  0
ARC
  5
A4C
100
AcDbEntity
  8
V0-OBRYS
  6
CONTINUOUS
 62
    90
100
AcDbCircle
 10
777.552254
 20
-280.0
 30
0.0
 40
5.0
100
AcDbArc
 50
270.0
 51
0.0
  0
LINE
  5
A4D
100
AcDbEntity
  8
V0-OBRYS
  6
CONTINUOUS
 62
    90
100
AcDbLine
 10
772.552254
 20
-285.0
 30
0.0
 11
777.552254
 21
-285.0
 31
0.0
  0
ARC
  5
A4F
100
AcDbEntity
  8
V0-OBRYS
  6
CONTINUOUS
 62
    90
100
AcDbCircle
 10
772.552254
 20
280.0
 30
0.0
 40
5.0
100
AcDbArc
 50
90.0
 51
180.0
  0
ARC
  5
A50
100
AcDbEntity
  8
V0-OBRYS
  6
CONTINUOUS
 62
    90
100
AcDbCircle
 10
777.552254
 20
280.0
 30
0.0
 40
5.0
100
AcDbArc
 50
0.0
 51
90.0
  0
LINE
  5
A51
100
AcDbEntity
  8
V0-OBRYS
  6
CONTINUOUS
 62
    90
100
AcDbLine
 10
772.552254
 20
285.0
 30
0.0
 11
777.552254
 21
285.0
 31
0.0
  0
LINE
  5
B85
100
AcDbEntity
  8
V0-OBRYS
  6
CONTINUOUS
 62
    90
100
AcDbLine
 10
1192.552254
 20
-280.0
 30
0.0
 11
782.552254
 21
-280.0
 31
0.0
  0
LINE
  5
B86
100
AcDbEntity
  8
V0-OBRYS
  6
CONTINUOUS
 62
    90
100
AcDbLine
 10
1192.552254
 20
280.0
 30
0.0
 11
782.552254
 21
280.0
 31
0.0
  0
LINE
  5
B88
100
AcDbEntity
  8
V0-OBRYS
  6
CONTINUOUS
 62
    90
100
AcDbLine
 10
1287.552254
 20
0.0
 30
0.0
 11
1287.552254
 21
280.0
 31
0.0
  0
LINE
  5
B89
100
AcDbEntity
  8
V0-OBRYS
  6
CONTINUOUS
 62
    90
100
AcDbLine
 10
1207.552254
 20
0.0
 30
0.0
 11
1207.552254
 21
280.0
 31
0.0
  0
LINE
  5
B8A
100
AcDbEntity
  8
V0-OBRYS
  6
CONTINUOUS
 62
    90
100
AcDbLine
 10
1192.552254
 20
280.0
 30
0.0
 11
1192.552254
 21
0.0
 31
0.0
  0
LINE
  5
B8C
100
AcDbEntity
  8
V0-OBRYS
  6
CONTINUOUS
 62
    90
100
AcDbLine
 10
1287.552254
 20
-280.0
 30
0.0
 11
1207.552254
 21
-280.0
 31
0.0
  0
LINE
  5
B8D
100
AcDbEntity
  8
V0-OBRYS
  6
CONTINUOUS
 62
    90
100
AcDbLine
 10
1287.552254
 20
0.0
 30
0.0
 11
1287.552254
 21
-280.0
 31
0.0
  0
LINE
  5
B8E
100
AcDbEntity
  8
V0-OBRYS
  6
CONTINUOUS
 62
    90
100
AcDbLine
 10
1207.552254
 20
0.0
 30
0.0
 11
1207.552254
 21
-280.0
 31
0.0
  0
LINE
  5
B8F
100
AcDbEntity
  8
V0-OBRYS
  6
CONTINUOUS
 62
    90
100
AcDbLine
 10
1192.552254
 20
-280.0
 30
0.0
 11
1192.552254
 21
0.0
 31
0.0
  0
LINE
  5
B90
100
AcDbEntity
  8
V0-OBRYS
  6
CONTINUOUS
 62
    90
100
AcDbLine
 10
1202.552254
 20
-285.0
 30
0.0
 11
1197.552254
 21
-285.0
 31
0.0
  0
ARC
  5
B91
100
AcDbEntity
  8
V0-OBRYS
  6
CONTINUOUS
 62
    90
100
AcDbCircle
 10
1202.552254
 20
-280.0
 30
0.0
 40
5.0
100
AcDbArc
 50
270.0
 51
0.0
  0
ARC
  5
B92
100
AcDbEntity
  8
V0-OBRYS
  6
CONTINUOUS
 62
    90
100
AcDbCircle
 10
1197.552254
 20
-280.0
 30
0.0
 40
5.0
100
AcDbArc
 50
180.0
 51
270.0
  0
LINE
  5
B93
100
AcDbEntity
  8
V0-OBRYS
  6
CONTINUOUS
 62
    90
100
AcDbLine
 10
1287.552254
 20
280.0
 30
0.0
 11
1207.552254
 21
280.0
 31
0.0
  0
LINE
  5
B94
100
AcDbEntity
  8
V0-OBRYS
  6
CONTINUOUS
 62
    90
100
AcDbLine
 10
1202.552254
 20
285.0
 30
0.0
 11
1197.552254
 21
285.0
 31
0.0
  0
ARC
  5
B95
100
AcDbEntity
  8
V0-OBRYS
  6
CONTINUOUS
 62
    90
100
AcDbCircle
 10
1202.552254
 20
280.0
 30
0.0
 40
5.0
100
AcDbArc
 50
0.0
 51
90.0
  0
ARC
  5
B96
100
AcDbEntity
  8
V0-OBRYS
  6
CONTINUOUS
 62
    90
100
AcDbCircle
 10
1197.552254
 20
280.0
 30
0.0
 40
5.0
100
AcDbArc
 50
90.0
 51
180.0
  0
DIMENSION
  5
BA3
100
AcDbEntity
  8
V0-VYPLNE
  6
CONTINUOUS
 62
    41
100
AcDbDimension
  2
*D3
 10
1287.547962
 20
-411.597923
 30
0.0
 11
987.550108
 21
-411.597923
 31
0.0
 12
0.0
 22
-80.0
 32
0.0
 70
   160
  3
ED40
100
AcDbAlignedDimension
 13
687.552254
 23
-281.0
 33
0.0
 14
1287.547962
 24
-281.0
 34
0.0
100
AcDbRotatedDimension
1001
ACAD
1000
DSTYLE
1002
{
1070
    40
1040
1.0
1002
}
  0
DIMENSION
  5
C16
100
AcDbEntity
  8
V0-VYPLNE
  6
CONTINUOUS
 62
    41
100
AcDbDimension
  2
*D4
 10
1207.552254
 20
-351.692088
 30
0.0
 11
987.552254
 21
-351.692088
 31
0.0
 12
0.0
 22
-80.0
 32
0.0
 70
   160
  3
ED40
100
AcDbAlignedDimension
 13
767.552254
 23
-280.0
 33
0.0
 14
1207.552254
 24
-280.0
 34
0.0
100
AcDbRotatedDimension
1001
ACAD
1000
DSTYLE
1002
{
1070
    40
1040
1.0
1002
}
  0
POINT
  5
D20
100
AcDbEntity
  8
DEFPOINTS
  6
CONTINUOUS
 62
    63
100
AcDbPoint
 10
767.552254
 20
0.0
 30
0.0
  0
POINT
  5
D21
100
AcDbEntity
  8
DEFPOINTS
  6
CONTINUOUS
 62
    63
100
AcDbPoint
 10
767.552254
 20
0.0
 30
0.0
  0
POINT
  5
D22
100
AcDbEntity
  8
V0-VYPLNE
  6
CONTINUOUS
 62
     7
100
AcDbPoint
 10
767.552254
 20
0.0
 30
0.0
  0
POINT
  5
D23
100
AcDbEntity
  8
V0-VYPLNE
  6
CONTINUOUS
 62
     7
100
AcDbPoint
 10
1207.552254
 20
0.0
 30
0.0
  0
POINT
  5
E1A
100
AcDbEntity
  8
V0-VYPLNE
  6
CONTINUOUS
 62
     7
100
AcDbPoint
 10
1207.552254
 20
-1002.654335
 30
0.0
  0
POINT
  5
E1B
100
AcDbEntity
  8
V0-VYPLNE
  6
CONTINUOUS
 62
     7
100
AcDbPoint
 10
767.552254
 20
-1002.654335
 30
0.0
  0
LINE
  5
E1C
100
AcDbEntity
  8
V0-OBRYS
  6
CONTINUOUS
 62
    90
100
AcDbLine
 10
1192.552254
 20
-722.654335
 30
0.0
 11
1192.552254
 21
-1002.654335
 31
0.0
  0
LINE
  5
E1D
100
AcDbEntity
  8
V0-OBRYS
  6
CONTINUOUS
 62
    90
100
AcDbLine
 10
1207.552254
 20
-1002.654335
 30
0.0
 11
1207.552254
 21
-722.654335
 31
0.0
  0
LINE
  5
E1E
100
AcDbEntity
  8
V0-OBRYS
  6
CONTINUOUS
 62
    90
100
AcDbLine
 10
1287.552254
 20
-1002.654335
 30
0.0
 11
1287.552254
 21
-722.654335
 31
0.0
  0
LINE
  5
E1F
100
AcDbEntity
  8
V0-OBRYS
  6
CONTINUOUS
 62
    90
100
AcDbLine
 10
782.552254
 20
-722.654335
 30
0.0
 11
782.552254
 21
-1002.654335
 31
0.0
  0
LINE
  5
E20
100
AcDbEntity
  8
V0-OBRYS
  6
CONTINUOUS
 62
    90
100
AcDbLine
 10
767.552254
 20
-1002.654335
 30
0.0
 11
767.552254
 21
-722.654335
 31
0.0
  0
LINE
  5
E21
100
AcDbEntity
  8
V0-OBRYS
  6
CONTINUOUS
 62
    90
100
AcDbLine
 10
687.552254
 20
-1002.654335
 30
0.0
 11
687.552254
 21
-722.654335
 31
0.0
  0
LINE
  5
E22
100
AcDbEntity
  8
V0-VYPLNE
  6
DASHDOT
 62
    63
 48
3.0
100
AcDbLine
 10
687.552254
 20
-1002.654335
 30
0.0
 11
1287.552254
 21
-1002.654335
 31
0.0
  0
LINE
  5
E23
100
AcDbEntity
  8
V0-OBRYS
  6
CONTINUOUS
 62
    90
100
AcDbLine
 10
1192.552254
 20
-1282.654335
 30
0.0
 11
782.552254
 21
-1282.654335
 31
0.0
  0
LINE
  5
E24
100
AcDbEntity
  8
V0-OBRYS
  6
CONTINUOUS
 62
    90
100
AcDbLine
 10
767.552254
 20
-1002.654335
 30
0.0
 11
767.552254
 21
-1282.654335
 31
0.0
  0
LINE
  5
E25
100
AcDbEntity
  8
V0-OBRYS
  6
CONTINUOUS
 62
    90
100
AcDbLine
 10
782.552254
 20
-1282.654335
 30
0.0
 11
782.552254
 21
-1002.654335
 31
0.0
  0
LINE
  5
E26
100
AcDbEntity
  8
V0-OBRYS
  6
CONTINUOUS
 62
    90
100
AcDbLine
 10
687.552254
 20
-1002.654335
 30
0.0
 11
687.552254
 21
-1282.654335
 31
0.0
  0
LINE
  5
E27
100
AcDbEntity
  8
V0-OBRYS
  6
CONTINUOUS
 62
    90
100
AcDbLine
 10
687.552254
 20
-1282.654335
 30
0.0
 11
767.552254
 21
-1282.654335
 31
0.0
  0
ARC
  5
E28
100
AcDbEntity
  8
V0-OBRYS
  6
CONTINUOUS
 62
    90
100
AcDbCircle
 10
772.552254
 20
-1282.654335
 30
0.0
 40
5.0
100
AcDbArc
 50
180.0
 51
270.0
  0
ARC
  5
E29
100
AcDbEntity
  8
V0-OBRYS
  6
CONTINUOUS
 62
    90
100
AcDbCircle
 10
777.552254
 20
-1282.654335
 30
0.0
 40
5.0
100
AcDbArc
 50
270.0
 51
0.0
  0
LINE
  5
E2A
100
AcDbEntity
  8
V0-OBRYS
  6
CONTINUOUS
 62
    90
100
AcDbLine
 10
772.552254
 20
-1287.654335
 30
0.0
 11
777.552254
 21
-1287.654335
 31
0.0
  0
POINT
  5
E2B
100
AcDbEntity
  8
DEFPOINTS
  6
CONTINUOUS
 62
    63
100
AcDbPoint
 10
767.552254
 20
-1002.654335
 30
0.0
  0
POINT
  5
E2C
100
AcDbEntity
  8
DEFPOINTS
  6
CONTINUOUS
 62
    63
100
AcDbPoint
 10
767.552254
 20
-1002.654335
 30
0.0
  0
LINE
  5
E2D
100
AcDbEntity
  8
V0-OBRYS
  6
CONTINUOUS
 62
    90
100
AcDbLine
 10
1192.552254
 20
-1282.654335
 30
0.0
 11
1192.552254
 21
-1002.654335
 31
0.0
  0
LINE
  5
E2E
100
AcDbEntity
  8
V0-OBRYS
  6
CONTINUOUS
 62
    90
100
AcDbLine
 10
1207.552254
 20
-1002.654335
 30
0.0
 11
1207.552254
 21
-1282.654335
 31
0.0
  0
LINE
  5
E2F
100
AcDbEntity
  8
V0-OBRYS
  6
CONTINUOUS
 62
    90
100
AcDbLine
 10
1287.552254
 20
-1002.654335
 30
0.0
 11
1287.552254
 21
-1282.654335
 31
0.0
  0
LINE
  5
E30
100
AcDbEntity
  8
V0-OBRYS
  6
CONTINUOUS
 62
    90
100
AcDbLine
 10
1287.552254
 20
-1282.654335
 30
0.0
 11
1207.552254
 21
-1282.654335
 31
0.0
  0
ARC
  5
E31
100
AcDbEntity
  8
V0-OBRYS
  6
CONTINUOUS
 62
    90
100
AcDbCircle
 10
1197.552254
 20
-1282.654335
 30
0.0
 40
5.0
100
AcDbArc
 50
180.0
 51
270.0
  0
ARC
  5
E32
100
AcDbEntity
  8
V0-OBRYS
  6
CONTINUOUS
 62
    90
100
AcDbCircle
 10
1202.552254
 20
-1282.654335
 30
0.0
 40
5.0
100
AcDbArc
 50
270.0
 51
0.0
  0
LINE
  5
E33
100
AcDbEntity
  8
V0-OBRYS
  6
CONTINUOUS
 62
    90
100
AcDbLine
 10
1202.552254
 20
-1287.654335
 30
0.0
 11
1197.552254
 21
-1287.654335
 31
0.0
  0
LINE
  5
E34
100
AcDbEntity
  8
V0-OBRYS
  6
CONTINUOUS
 62
    90
100
AcDbLine
 10
1192.552254
 20
-722.654335
 30
0.0
 11
782.552254
 21
-722.654335
 31
0.0
  0
LINE
  5
E35
100
AcDbEntity
  8
V0-OBRYS
  6
CONTINUOUS
 62
    90
100
AcDbLine
 10
687.552254
 20
-722.654335
 30
0.0
 11
767.552254
 21
-722.654335
 31
0.0
  0
ARC
  5
E36
100
AcDbEntity
  8
V0-OBRYS
  6
CONTINUOUS
 62
    90
100
AcDbCircle
 10
772.552254
 20
-722.654335
 30
0.0
 40
5.0
100
AcDbArc
 50
90.0
 51
180.0
  0
ARC
  5
E37
100
AcDbEntity
  8
V0-OBRYS
  6
CONTINUOUS
 62
    90
100
AcDbCircle
 10
777.552254
 20
-722.654335
 30
0.0
 40
5.0
100
AcDbArc
 50
0.0
 51
90.0
  0
LINE
  5
E38
100
AcDbEntity
  8
V0-OBRYS
  6
CONTINUOUS
 62
    90
100
AcDbLine
 10
772.552254
 20
-717.654335
 30
0.0
 11
777.552254
 21
-717.654335
 31
0.0
  0
LINE
  5
E39
100
AcDbEntity
  8
V0-OBRYS
  6
CONTINUOUS
 62
    90
100
AcDbLine
 10
1287.552254
 20
-722.654335
 30
0.0
 11
1207.552254
 21
-722.654335
 31
0.0
  0
ARC
  5
E3A
100
AcDbEntity
  8
V0-OBRYS
  6
CONTINUOUS
 62
    90
100
AcDbCircle
 10
1197.552254
 20
-722.654335
 30
0.0
 40
5.0
100
AcDbArc
 50
90.0
 51
180.0
  0
ARC
  5
E3B
100
AcDbEntity
  8
V0-OBRYS
  6
CONTINUOUS
 62
    90
100
AcDbCircle
 10
1202.552254
 20
-722.654335
 30
0.0
 40
5.0
100
AcDbArc
 50
0.0
 51
90.0
  0
LINE
  5
E3C
100
AcDbEntity
  8
V0-OBRYS
  6
CONTINUOUS
 62
    90
100
AcDbLine
 10
1202.552254
 20
-717.654335
 30
0.0
 11
1197.552254
 21
-717.654335
 31
0.0
  0
LINE
  5
E96
100
AcDbEntity
  8
V0-VYPLNE
  6
DASHDOT
 62
    63
 48
3.0
100
AcDbLine
 10
1546.067488
 20
0.0
 30
0.0
 11
2153.963002
 21
0.0
 31
0.0
  0
CIRCLE
  5
E98
100
AcDbEntity
  8
V0-VYPLNE
  6
CONTINUOUS
 62
    90
100
AcDbCircle
 10
1854.178911
 20
0.0
 30
0.0
 40
279.972
  0
CIRCLE
  5
E99
100
AcDbEntity
  8
V0-VYPLNE
  6
CONTINUOUS
 62
    90
100
AcDbCircle
 10
1854.178911
 20
0.0
 30
0.0
 40
293.9706
  0
POINT
  5
E9A
100
AcDbEntity
  8
V0-VYPLNE
  6
CONTINUOUS
 62
     7
100
AcDbPoint
 10
1854.178911
 20
0.0
 30
0.0
  0
DIMENSION
  5
F53
100
AcDbEntity
  8
V0-VYPLNE
  6
CONTINUOUS
 62
    41
100
AcDbDimension
  2
*D5
 10
1122.552254
 20
383.43318
 30
0.0
 11
1047.096777
 21
383.43318
 31
0.0
 12
0.0
 22
80.0
 32
0.0
 70
   160
  3
ED40
100
AcDbAlignedDimension
 13
987.552254
 23
322.0
 33
0.0
 14
1122.552254
 24
325.0
 34
0.0
100
AcDbRotatedDimension
1001
ACAD
1000
DSTYLE
1002
{
1070
    40
1040
1.0
1002
}
  0
LINE
  5
F54
100
AcDbEntity
  8
V0-OBRYS
  6
CONTINUOUS
 62
    90
100
AcDbLine
 10
1019.773509
 20
-1012.654335
 30
0.0
 11
1117.552254
 21
-1012.654335
 31
0.0
  0
LINE
  5
F55
100
AcDbEntity
  8
V0-OBRYS
  6
CONTINUOUS
 62
    90
100
AcDbLine
 10
1040.036142
 20
-992.654335
 30
0.0
 11
1117.552254
 21
-992.654335
 31
0.0
  0
LINE
  5
F56
100
AcDbEntity
  8
V0-OBRYS
  6
CONTINUOUS
 62
    90
100
AcDbLine
 10
1068.936312
 20
322.33835
 30
0.0
 11
1043.379874
 21
309.049002
 31
0.0
  0
LINE
  5
F57
100
AcDbEntity
  8
V0-OBRYS
  6
CONTINUOUS
 62
    90
100
AcDbLine
 10
1067.552254
 20
325.0
 30
0.0
 11
1042.552254
 21
312.0
 31
0.0
  0
LINE
  5
F58
100
AcDbEntity
  8
V0-VYPLNE
  6
DASHED
 62
    52
 48
3.0
100
AcDbLine
 10
990.552254
 20
309.049002
 30
0.0
 11
990.552254
 21
-284.335571
 31
0.0
  0
LINE
  5
F59
100
AcDbEntity
  8
V0-VYPLNE
  6
DASHED
 62
    52
 48
3.0
100
AcDbLine
 10
984.552254
 20
309.049002
 30
0.0
 11
984.552254
 21
-284.335571
 31
0.0
  0
LINE
  5
F5A
100
AcDbEntity
  8
V0-VYPLNE
  6
DASHDOT
 62
    63
 48
3.0
100
AcDbLine
 10
987.552254
 20
323.0
 30
0.0
 11
987.552254
 21
-289.322834
 31
0.0
  0
ARC
  5
F5B
100
AcDbEntity
  8
V0-VYPLNE
  6
DASHDOT
 62
    63
100
AcDbCircle
 10
987.552254
 20
-1002.654335
 30
0.0
 40
40.0
100
AcDbArc
 50
260.720854
 51
98.569564
  0
LINE
  5
F5C
100
AcDbEntity
  8
V0-OBRYS
  6
CONTINUOUS
 62
    90
100
AcDbLine
 10
972.552254
 20
-996.441131
 30
0.0
 11
972.552254
 21
-952.654335
 31
0.0
  0
LINE
  5
F5D
100
AcDbEntity
  8
V0-OBRYS
  6
CONTINUOUS
 62
    90
100
AcDbLine
 10
1042.552254
 20
-952.654335
 30
0.0
 11
1042.552254
 21
-992.654335
 31
0.0
  0
ARC
  5
F5E
100
AcDbEntity
  8
V0-OBRYS
  6
CONTINUOUS
 62
    90
100
AcDbCircle
 10
987.552254
 20
-1002.654335
 30
0.0
 40
43.0
100
AcDbArc
 50
13.447727
 51
90.0
  0
ARC
  5
F5F
100
AcDbEntity
  8
V0-OBRYS
  6
CONTINUOUS
 62
    90
100
AcDbCircle
 10
987.552254
 20
-1002.654335
 30
0.0
 40
37.0
100
AcDbArc
 50
15.68035
 51
90.0
  0
LINE
  5
F60
100
AcDbEntity
  8
V0-OBRYS
  6
CONTINUOUS
 62
    90
100
AcDbLine
 10
1042.552254
 20
-1052.654335
 30
0.0
 11
972.552254
 21
-1052.654335
 31
0.0
  0
LINE
  5
F61
100
AcDbEntity
  8
V0-OBRYS
  6
CONTINUOUS
 62
    90
100
AcDbLine
 10
972.552254
 20
-992.654335
 30
0.0
 11
1035.430933
 21
-992.654335
 31
0.0
  0
ARC
  5
F62
100
AcDbEntity
  8
V0-OBRYS
  6
CONTINUOUS
 62
    90
100
AcDbCircle
 10
987.552254
 20
-1002.654335
 30
0.0
 40
43.0
100
AcDbArc
 50
270.0
 51
346.552273
  0
ARC
  5
F63
100
AcDbEntity
  8
V0-OBRYS
  6
CONTINUOUS
 62
    90
100
AcDbCircle
 10
987.552254
 20
-1002.654335
 30
0.0
 40
37.0
100
AcDbArc
 50
270.0
 51
344.31965
  0
LINE
  5
F64
100
AcDbEntity
  8
V0-OBRYS
  6
CONTINUOUS
 62
    90
100
AcDbLine
 10
972.552254
 20
-1012.654335
 30
0.0
 11
1015.430933
 21
-1012.654335
 31
0.0
  0
LINE
  5
F65
100
AcDbEntity
  8
V0-OBRYS
  6
CONTINUOUS
 62
    90
100
AcDbLine
 10
972.552254
 20
-1052.654335
 30
0.0
 11
972.552254
 21
-1006.673917
 31
0.0
  0
ARC
  5
F66
100
AcDbEntity
  8
V0-OBRYS
  6
CONTINUOUS
 62
    90
100
AcDbCircle
 10
987.552254
 20
-1042.654335
 30
0.0
 40
3.0
100
AcDbArc
 50
90.0
 51
270.0
  0
LINE
  5
F67
100
AcDbEntity
  8
V0-OBRYS
  6
CONTINUOUS
 62
    90
100
AcDbLine
 10
972.552254
 20
-1001.654335
 30
0.0
 11
982.653274
 21
-1001.654335
 31
0.0
  0
LINE
  5
F68
100
AcDbEntity
  8
V0-OBRYS
  6
CONTINUOUS
 62
    90
100
AcDbLine
 10
972.552254
 20
-1003.654335
 30
0.0
 11
982.653274
 21
-1003.654335
 31
0.0
  0
LINE
  5
F69
100
AcDbEntity
  8
V0-OBRYS
  6
CONTINUOUS
 62
    90
100
AcDbLine
 10
973.856343
 20
-1015.626172
 30
0.0
 11
982.109577
 21
-1015.626172
 31
0.0
  0
LINE
  5
F6A
100
AcDbEntity
  8
V0-OBRYS
  6
CONTINUOUS
 62
    90
100
AcDbLine
 10
973.856343
 20
-989.682498
 30
0.0
 11
982.109577
 21
-989.682498
 31
0.0
  0
LINE
  5
F6B
100
AcDbEntity
  8
V0-OBRYS
  6
CONTINUOUS
 62
    90
100
AcDbLine
 10
972.552254
 20
-1001.654335
 30
0.0
 11
972.552254
 21
-992.654335
 31
0.0
  0
LINE
  5
F6C
100
AcDbEntity
  8
V0-OBRYS
  6
CONTINUOUS
 62
    90
100
AcDbLine
 10
972.552254
 20
-1012.654335
 30
0.0
 11
972.552254
 21
-1003.654335
 31
0.0
  0
LINE
  5
F6D
100
AcDbEntity
  8
V0-OBRYS
  6
CONTINUOUS
 62
    90
100
AcDbLine
 10
973.856343
 20
-1012.531109
 30
0.0
 11
973.856343
 21
-1015.626172
 31
0.0
  0
LINE
  5
F6E
100
AcDbEntity
  8
V0-OBRYS
  6
CONTINUOUS
 62
    90
100
AcDbLine
 10
975.746918
 20
-1017.259312
 30
0.0
 11
975.746918
 21
-1012.654335
 31
0.0
  0
LINE
  5
F6F
100
AcDbEntity
  8
V0-OBRYS
  6
CONTINUOUS
 62
    90
100
AcDbLine
 10
979.787925
 20
-1017.259312
 30
0.0
 11
979.787925
 21
-1012.654335
 31
0.0
  0
LINE
  5
F70
100
AcDbEntity
  8
V0-OBRYS
  6
CONTINUOUS
 62
    90
100
AcDbLine
 10
975.746918
 20
-1017.259312
 30
0.0
 11
979.787925
 21
-1017.259312
 31
0.0
  0
LINE
  5
F71
100
AcDbEntity
  8
V0-OBRYS
  6
CONTINUOUS
 62
    90
100
AcDbLine
 10
975.746918
 20
-1003.654335
 30
0.0
 11
975.746918
 21
-1001.654335
 31
0.0
  0
LINE
  5
F72
100
AcDbEntity
  8
V0-OBRYS
  6
CONTINUOUS
 62
    90
100
AcDbLine
 10
979.787925
 20
-1003.654335
 30
0.0
 11
979.787925
 21
-1001.654335
 31
0.0
  0
LINE
  5
F73
100
AcDbEntity
  8
V0-OBRYS
  6
CONTINUOUS
 62
    90
100
AcDbLine
 10
973.856343
 20
-992.777561
 30
0.0
 11
973.856343
 21
-989.682498
 31
0.0
  0
LINE
  5
F74
100
AcDbEntity
  8
V0-OBRYS
  6
CONTINUOUS
 62
    90
100
AcDbLine
 10
979.787925
 20
-989.770139
 30
0.0
 11
979.787925
 21
-992.693507
 31
0.0
  0
LINE
  5
F75
100
AcDbEntity
  8
V0-OBRYS
  6
CONTINUOUS
 62
    90
100
AcDbLine
 10
975.746918
 20
-989.68292
 30
0.0
 11
975.746918
 21
-992.692241
 31
0.0
  0
LINE
  5
F76
100
AcDbEntity
  8
V0-OBRYS
  6
CONTINUOUS
 62
    90
100
AcDbLine
 10
1000.431184
 20
-992.667313
 30
0.0
 11
1000.431184
 21
-1012.5547
 31
0.0
  0
CIRCLE
  5
F77
100
AcDbEntity
  8
V0-OBRYS
  6
CONTINUOUS
 62
    90
100
AcDbCircle
 10
987.552254
 20
-1002.654335
 30
0.0
 40
5.0
  0
LINE
  5
F78
100
AcDbEntity
  8
V0-OBRYS
  6
CONTINUOUS
 62
    90
100
AcDbLine
 10
982.109577
 20
-1015.626172
 30
0.0
 11
982.109577
 21
-1012.528577
 31
0.0
  0
LINE
  5
F79
100
AcDbEntity
  8
V0-OBRYS
  6
CONTINUOUS
 62
    90
100
AcDbLine
 10
982.109577
 20
-989.682498
 30
0.0
 11
982.109577
 21
-992.780093
 31
0.0
  0
LINE
  5
F7A
100
AcDbEntity
  8
V0-OBRYS
100
AcDbLine
 10
1042.552254
 20
-1012.654335
 30
0.0
 11
1042.552254
 21
-1043.512199
 31
0.0
  0
LINE
  5
F7B
100
AcDbEntity
  8
V0-OBRYS
100
AcDbLine
 10
1042.552254
 20
-1012.654335
 30
0.0
 11
1042.552254
 21
-1043.512199
 31
0.0
  0
LINE
  5
F7C
100
AcDbEntity
  8
V0-OBRYS
  6
CONTINUOUS
 62
    90
100
AcDbLine
 10
1042.552254
 20
-1012.654335
 30
0.0
 11
1042.552254
 21
-1052.654335
 31
0.0
  0
CIRCLE
  5
F7D
100
AcDbEntity
  8
V0-OBRYS
  6
CONTINUOUS
 62
    90
100
AcDbCircle
 10
1027.552254
 20
-1002.654335
 30
0.0
 40
6.0
  0
CIRCLE
  5
F7E
100
AcDbEntity
  8
V0-OBRYS
  6
CONTINUOUS
 62
    90
100
AcDbCircle
 10
1027.552254
 20
-1002.654335
 30
0.0
 40
3.0
  0
LINE
  5
F7F
100
AcDbEntity
  8
V0-OBRYS
  6
CONTINUOUS
 62
    90
100
AcDbLine
 10
1012.349458
 20
-1015.73581
 30
0.0
 11
1022.392627
 21
-1005.692641
 31
0.0
  0
LINE
  5
F80
100
AcDbEntity
  8
V0-OBRYS
  6
CONTINUOUS
 62
    90
100
AcDbLine
 10
1014.470778
 20
-1017.857131
 30
0.0
 11
1024.513947
 21
-1007.813962
 31
0.0
  0
LINE
  5
F81
100
AcDbEntity
  8
V0-OBRYS
  6
CONTINUOUS
 62
    90
100
AcDbLine
 10
1012.349458
 20
-1015.73581
 30
0.0
 11
1014.470778
 21
-1017.857131
 31
0.0
  0
LINE
  5
F82
100
AcDbEntity
  8
V0-OBRYS
  6
CONTINUOUS
 62
    90
100
AcDbLine
 10
1042.755049
 20
-989.572859
 30
0.0
 11
1032.71188
 21
-999.616028
 31
0.0
  0
LINE
  5
F83
100
AcDbEntity
  8
V0-OBRYS
  6
CONTINUOUS
 62
    90
100
AcDbLine
 10
1040.633729
 20
-987.451539
 30
0.0
 11
1030.59056
 21
-997.494708
 31
0.0
  0
LINE
  5
F84
100
AcDbEntity
  8
V0-OBRYS
  6
CONTINUOUS
 62
    90
100
AcDbLine
 10
1040.633729
 20
-987.451539
 30
0.0
 11
1042.755049
 21
-989.572859
 31
0.0
  0
LINE
  5
F85
100
AcDbEntity
  8
V0-OBRYS
  6
CONTINUOUS
 62
    90
100
AcDbLine
 10
972.552254
 20
-952.654335
 30
0.0
 11
1042.552254
 21
-952.654335
 31
0.0
  0
ARC
  5
F86
100
AcDbEntity
  8
V0-OBRYS
  6
CONTINUOUS
 62
    90
100
AcDbCircle
 10
987.552254
 20
-962.654335
 30
0.0
 40
3.0
100
AcDbArc
 50
90.0
 51
270.0
  0
LWPOLYLINE
  5
F87
100
AcDbEntity
  8
V0-OBRYS
  6
CONTINUOUS
 62
    90
100
AcDbPolyline
 90
        4
 70
     1
 43
0.0
 10
979.153582
 20
-284.349811
 10
995.324962
 20
-284.349811
 10
995.324962
 20
-279.805931
 10
979.153582
 20
-279.805931
  0
LINE
  5
F88
100
AcDbEntity
  8
V0-OBRYS
  6
CONTINUOUS
 62
    90
100
AcDbLine
 10
990.552254
 20
-284.349811
 30
0.0
 11
990.552254
 21
-286.559755
 31
0.0
  0
LINE
  5
F89
100
AcDbEntity
  8
V0-OBRYS
  6
CONTINUOUS
 62
    90
100
AcDbLine
 10
984.552254
 20
-284.349811
 30
0.0
 11
984.552254
 21
-286.559755
 31
0.0
  0
LINE
  5
F8A
100
AcDbEntity
  8
V0-OBRYS
  6
CONTINUOUS
 62
    90
100
AcDbLine
 10
984.552254
 20
-286.559755
 30
0.0
 11
990.552254
 21
-286.559755
 31
0.0
  0
LINE
  5
F8B
100
AcDbEntity
  8
V0-VYPLNE
  6
DASHDOT
 62
    63
100
AcDbLine
 10
1022.552254
 20
325.0
 30
0.0
 11
1022.552254
 21
306.582585
 31
0.0
  0
ARC
  5
F8C
100
AcDbEntity
  8
V0-OBRYS
  6
CONTINUOUS
 62
    90
100
AcDbCircle
 10
962.552254
 20
314.524501
 30
0.0
 40
5.475499
100
AcDbArc
 50
90.0
 51
270.0
  0
LINE
  5
F8D
100
AcDbEntity
  8
V0-OBRYS
  6
CONTINUOUS
 62
    90
100
AcDbLine
 10
1043.379874
 20
309.049002
 30
0.0
 11
987.024427
 21
309.049002
 31
0.0
  0
LINE
  5
F8E
100
AcDbEntity
  8
V0-OBRYS
  6
CONTINUOUS
100
AcDbLine
 10
979.296765
 20
280.0
 30
0.0
 11
987.552254
 21
280.0
 31
0.0
  0
LINE
  5
F8F
100
AcDbEntity
  8
V0-OBRYS
  6
CONTINUOUS
 62
    90
100
AcDbLine
 10
957.552254
 20
309.049002
 30
0.0
 11
988.08008
 21
309.049002
 31
0.0
  0
LINE
  5
F90
100
AcDbEntity
  8
V0-OBRYS
  6
CONTINUOUS
 62
    90
100
AcDbLine
 10
957.552254
 20
309.049002
 30
0.0
 11
957.552254
 21
279.860781
 31
0.0
  0
LINE
  5
F91
100
AcDbEntity
  8
V0-OBRYS
  6
CONTINUOUS
 62
    90
100
AcDbLine
 10
1037.552254
 20
309.049002
 30
0.0
 11
1037.552254
 21
279.860781
 31
0.0
  0
LINE
  5
F92
100
AcDbEntity
  8
V0-OBRYS
  6
CONTINUOUS
 62
    90
100
AcDbLine
 10
1042.646488
 20
312.049002
 30
0.0
 11
962.552254
 21
312.049002
 31
0.0
  0
LINE
  5
F93
100
AcDbEntity
  8
V0-OBRYS
  6
CONTINUOUS
 62
    90
100
AcDbLine
 10
1000.552254
 20
317.0
 30
0.0
 11
962.552254
 21
317.0
 31
0.0
  0
LINE
  5
F94
100
AcDbEntity
  8
V0-OBRYS
  6
CONTINUOUS
 62
    90
100
AcDbLine
 10
1000.552254
 20
320.0
 30
0.0
 11
962.552254
 21
320.0
 31
0.0
  0
ARC
  5
F95
100
AcDbEntity
  8
V0-OBRYS
  6
CONTINUOUS
 62
    90
100
AcDbCircle
 10
962.552254
 20
314.524501
 30
0.0
 40
2.475499
100
AcDbArc
 50
90.0
 51
270.0
  0
LINE
  5
F96
100
AcDbEntity
  8
V0-OBRYS
  6
CONTINUOUS
 62
    90
100
AcDbLine
 10
984.552254
 20
322.0
 30
0.0
 11
987.552254
 21
322.0
 31
0.0
  0
LINE
  5
F97
100
AcDbEntity
  8
V0-OBRYS
  6
CONTINUOUS
 62
    90
100
AcDbLine
 10
984.552254
 20
320.0
 30
0.0
 11
984.552254
 21
322.0
 31
0.0
  0
LINE
  5
F98
100
AcDbEntity
  8
V0-OBRYS
  6
CONTINUOUS
 62
    90
100
AcDbLine
 10
984.552254
 20
312.0
 30
0.0
 11
984.552254
 21
317.072606
 31
0.0
  0
LINE
  5
F99
100
AcDbEntity
  8
V0-OBRYS
  6
CONTINUOUS
 62
    90
100
AcDbLine
 10
990.552254
 20
312.0
 30
0.0
 11
990.552254
 21
317.072606
 31
0.0
  0
LINE
  5
F9A
100
AcDbEntity
  8
V0-OBRYS
  6
CONTINUOUS
 62
    90
100
AcDbLine
 10
990.552254
 20
320.0
 30
0.0
 11
990.552254
 21
322.0
 31
0.0
  0
LINE
  5
F9B
100
AcDbEntity
  8
V0-OBRYS
  6
CONTINUOUS
 62
    90
100
AcDbLine
 10
990.552254
 20
322.0
 30
0.0
 11
987.552254
 21
322.0
 31
0.0
  0
LINE
  5
F9C
100
AcDbEntity
  8
V0-OBRYS
  6
CONTINUOUS
 62
    90
100
AcDbLine
 10
1000.552254
 20
320.0
 30
0.0
 11
1000.552254
 21
317.0
 31
0.0
  0
LINE
  5
F9D
100
AcDbEntity
  8
V0-OBRYS
  6
CONTINUOUS
 62
    90
100
AcDbLine
 10
1036.043319
 20
319.590211
 30
0.0
 11
1026.587815
 21
312.049002
 31
0.0
  0
LINE
  5
F9E
100
AcDbEntity
  8
V0-OBRYS
  6
CONTINUOUS
 62
    90
100
AcDbLine
 10
1024.912598
 20
316.023604
 30
0.0
 11
1034.573223
 21
322.527417
 31
0.0
  0
LINE
  5
F9F
100
AcDbEntity
  8
V0-OBRYS
  6
CONTINUOUS
 62
    90
100
AcDbLine
 10
1009.061188
 20
319.590211
 30
0.0
 11
1018.516692
 21
312.049002
 31
0.0
  0
LINE
  5
FA0
100
AcDbEntity
  8
V0-OBRYS
  6
CONTINUOUS
 62
    90
100
AcDbLine
 10
1020.191909
 20
316.023604
 30
0.0
 11
1010.531284
 21
322.527417
 31
0.0
  0
LINE
  5
FA1
100
AcDbEntity
  8
V0-OBRYS
  6
CONTINUOUS
 62
    90
100
AcDbLine
 10
1010.531284
 20
322.527417
 30
0.0
 11
1009.061188
 21
319.590211
 31
0.0
  0
LINE
  5
FA2
100
AcDbEntity
  8
V0-OBRYS
  6
CONTINUOUS
 62
    90
100
AcDbLine
 10
1022.502059
 20
316.023604
 30
0.0
 11
1020.191909
 21
316.023604
 31
0.0
  0
LINE
  5
FA3
100
AcDbEntity
  8
V0-OBRYS
  6
CONTINUOUS
 62
    90
100
AcDbLine
 10
1020.191909
 20
316.023604
 30
0.0
 11
1018.511801
 21
312.037396
 31
0.0
  0
LINE
  5
FA4
100
AcDbEntity
  8
V0-OBRYS
  6
CONTINUOUS
 62
    90
100
AcDbLine
 10
1022.602448
 20
316.023604
 30
0.0
 11
1024.912598
 21
316.023604
 31
0.0
  0
LINE
  5
FA5
100
AcDbEntity
  8
V0-OBRYS
  6
CONTINUOUS
 62
    90
100
AcDbLine
 10
1024.912598
 20
316.023604
 30
0.0
 11
1026.592706
 21
312.037396
 31
0.0
  0
LINE
  5
FA6
100
AcDbEntity
  8
V0-OBRYS
  6
CONTINUOUS
 62
    90
100
AcDbLine
 10
1034.573223
 20
322.527417
 30
0.0
 11
1036.043319
 21
319.590211
 31
0.0
  0
LINE
  5
FA7
100
AcDbEntity
  8
V0-VYPLNE
  6
DASHDOT
 62
    63
 48
3.0
100
AcDbLine
 10
1853.823416
 20
322.933941
 30
0.0
 11
1853.823416
 21
-336.051481
 31
0.0
  0
LINE
  5
FA8
100
AcDbEntity
  8
V0-OBRYS
  6
CONTINUOUS
 62
    90
100
AcDbLine
 10
1850.448416
 20
288.939231
 30
0.0
 11
1850.448416
 21
-328.635798
 31
0.0
  0
LINE
  5
FA9
100
AcDbEntity
  8
V0-OBRYS
  6
CONTINUOUS
 62
    90
100
AcDbLine
 10
1857.198416
 20
289.16532
 30
0.0
 11
1857.198416
 21
-328.635798
 31
0.0
  0
LINE
  5
FAA
100
AcDbEntity
  8
V0-OBRYS
  6
CONTINUOUS
 62
    90
100
AcDbLine
 10
1117.552254
 20
-992.654335
 30
0.0
 11
1122.552254
 21
-997.654335
 31
0.0
  0
LINE
  5
FAB
100
AcDbEntity
  8
V0-OBRYS
  6
CONTINUOUS
 62
    90
100
AcDbLine
 10
1122.552254
 20
-1007.654335
 30
0.0
 11
1117.552254
 21
-1012.654335
 31
0.0
  0
LINE
  5
FAC
100
AcDbEntity
  8
V0-OBRYS
  6
CONTINUOUS
 62
    90
100
AcDbLine
 10
1122.552254
 20
-1007.654335
 30
0.0
 11
1122.552254
 21
-997.654335
 31
0.0
  0
LWPOLYLINE
  5
FAD
100
AcDbEntity
  8
V0-OBRYS
  6
CONTINUOUS
 62
    90
100
AcDbPolyline
 90
        4
 70
     1
 43
0.0
 10
1844.485894
 20
-303.486717
 10
1862.048324
 20
-303.486717
 10
1862.048324
 20
-297.923433
 10
1844.485894
 20
-297.923433
  0
LINE
  5
FAE
100
AcDbEntity
  8
V0-OBRYS
  6
CONTINUOUS
 62
    90
100
AcDbLine
 10
1850.448416
 20
-307.133023
 30
0.0
 11
1857.198416
 21
-307.133023
 31
0.0
  0
DIMENSION
  5
FAF
100
AcDbEntity
  8
V0-VYPLNE
  6
CONTINUOUS
 62
    41
100
AcDbDimension
  2
*D6
 10
1361.371394
 20
280.0
 30
0.0
 11
1361.371394
 21
127.171573
 31
0.0
 70
   160
  3
ED40
100
AcDbAlignedDimension
 13
1122.552254
 23
325.0
 33
0.0
 14
1087.552254
 24
280.0
 34
0.0
 50
90.0
100
AcDbRotatedDimension
1001
ACAD
1000
DSTYLE
1002
{
1070
    40
1040
1.0
1002
}
  0
LINE
  5
FB0
100
AcDbEntity
  8
V0-OBRYS
  6
CONTINUOUS
 62
    90
100
AcDbLine
 10
1122.552254
 20
322.0
 30
0.0
 11
1067.552254
 21
322.0
 31
0.0
  0
LINE
  5
FB1
100
AcDbEntity
  8
V0-OBRYS
  6
CONTINUOUS
 62
    90
100
AcDbLine
 10
1122.552254
 20
325.0
 30
0.0
 11
1067.552254
 21
325.0
 31
0.0
  0
LINE
  5
FB2
100
AcDbEntity
  8
V0-OBRYS
  6
CONTINUOUS
100
AcDbLine
 10
1862.365671
 20
289.183941
 30
0.0
 11
1845.99215
 21
289.183941
 31
0.0
  0
LINE
  5
FB3
100
AcDbEntity
  8
V0-OBRYS
  6
CONTINUOUS
 62
    90
100
AcDbLine
 10
1842.239901
 20
336.860416
 30
0.0
 11
1852.740117
 21
336.860416
 31
0.0
  0
LINE
  5
FB4
100
AcDbEntity
  8
V0-OBRYS
  6
CONTINUOUS
 62
    90
100
AcDbLine
 10
1852.740117
 20
324.115587
 30
0.0
 11
1842.16246
 21
324.115587
 31
0.0
  0
LINE
  5
FB5
100
AcDbEntity
  8
V0-OBRYS
  6
CONTINUOUS
 62
    90
100
AcDbLine
 10
1797.573416
 20
322.933941
 30
0.0
 11
1910.073416
 21
322.933941
 31
0.0
  0
DIMENSION
  5
FB6
100
AcDbEntity
  8
V0-VYPLNE
  6
CONTINUOUS
 62
    41
100
AcDbDimension
  2
*D7
 10
1910.073416
 20
390.132418
 30
0.0
 11
1853.823416
 21
390.132418
 31
0.0
 12
-222.348662
 22
58.497225
 32
0.0
 70
   160
  3
ED40
100
AcDbAlignedDimension
 13
1797.573416
 23
322.933941
 33
0.0
 14
1910.073416
 24
322.933941
 34
0.0
100
AcDbRotatedDimension
1001
ACAD
1000
DSTYLE
1002
{
1070
    40
1040
1.0
1002
}
  0
LINE
  5
FB7
100
AcDbEntity
  8
V0-OBRYS
  6
CONTINUOUS
 62
    90
100
AcDbLine
 10
1842.239901
 20
326.366861
 30
0.0
 11
1842.239901
 21
322.933941
 31
0.0
  0
LINE
  5
FB8
100
AcDbEntity
  8
V0-OBRYS
  6
CONTINUOUS
 62
    90
100
AcDbLine
 10
1842.239901
 20
322.933941
 30
0.0
 11
1842.239901
 21
336.860416
 31
0.0
  0
LINE
  5
FB9
100
AcDbEntity
  8
V0-OBRYS
  6
CONTINUOUS
 62
    90
100
AcDbLine
 10
1797.573416
 20
322.933941
 30
0.0
 11
1797.573416
 21
288.681611
 31
0.0
  0
LINE
  5
FBA
100
AcDbEntity
  8
V0-OBRYS
  6
CONTINUOUS
 62
    90
100
AcDbLine
 10
1838.819619
 20
327.709584
 30
0.0
 11
1842.205104
 21
327.709584
 31
0.0
  0
LINE
  5
FBB
100
AcDbEntity
  8
V0-OBRYS
  6
CONTINUOUS
 62
    90
100
AcDbLine
 10
1842.239901
 20
325.582688
 30
0.0
 11
1838.819144
 21
325.582688
 31
0.0
  0
LINE
  5
FBC
100
AcDbEntity
  8
V0-OBRYS
  6
CONTINUOUS
 62
    90
100
AcDbLine
 10
1838.819144
 20
334.867576
 30
0.0
 11
1842.303938
 21
334.867576
 31
0.0
  0
LINE
  5
FBD
100
AcDbEntity
  8
V0-OBRYS
  6
CONTINUOUS
 62
    90
100
AcDbLine
 10
1838.91774
 20
332.255718
 30
0.0
 11
1842.206529
 21
332.255718
 31
0.0
  0
LINE
  5
FBE
100
AcDbEntity
  8
V0-OBRYS
  6
CONTINUOUS
 62
    90
100
AcDbLine
 10
1838.819144
 20
325.582688
 30
0.0
 11
1838.819144
 21
334.867576
 31
0.0
  0
LINE
  5
FBF
100
AcDbEntity
  8
V0-OBRYS
  6
CONTINUOUS
 62
    90
100
AcDbLine
 10
1864.781554
 20
326.366861
 30
0.0
 11
1864.781554
 21
322.933941
 31
0.0
  0
LINE
  5
FC0
100
AcDbEntity
  8
V0-OBRYS
  6
CONTINUOUS
 62
    90
100
AcDbLine
 10
1864.781554
 20
322.933941
 30
0.0
 11
1864.781554
 21
336.860416
 31
0.0
  0
LINE
  5
FC1
100
AcDbEntity
  8
V0-OBRYS
  6
CONTINUOUS
 62
    90
100
AcDbLine
 10
1852.740117
 20
324.115587
 30
0.0
 11
1852.740117
 21
336.860416
 31
0.0
  0
LINE
  5
FC2
100
AcDbEntity
  8
V0-OBRYS
  6
CONTINUOUS
 62
    90
100
AcDbLine
 10
1854.990117
 20
324.115587
 30
0.0
 11
1854.990117
 21
336.860416
 31
0.0
  0
LINE
  5
FC3
100
AcDbEntity
  8
V0-VYPLNE
  6
DASHED
 62
    52
100
AcDbLine
 10
1850.448416
 20
322.933941
 30
0.0
 11
1850.448416
 21
289.843584
 31
0.0
  0
LINE
  5
FC4
100
AcDbEntity
  8
V0-VYPLNE
  6
DASHED
 62
    52
100
AcDbLine
 10
1857.198416
 20
322.933941
 30
0.0
 11
1857.198416
 21
290.29576
 31
0.0
  0
LINE
  5
FC5
100
AcDbEntity
  8
V0-OBRYS
  6
CONTINUOUS
 62
    90
100
AcDbLine
 10
1864.66246
 20
324.115587
 30
0.0
 11
1854.990117
 21
324.115587
 31
0.0
  0
LINE
  5
FC6
100
AcDbEntity
  8
V0-OBRYS
  6
CONTINUOUS
 62
    90
100
AcDbLine
 10
1910.073416
 20
322.933941
 30
0.0
 11
1910.073416
 21
288.681611
 31
0.0
  0
LINE
  5
FC7
100
AcDbEntity
  8
V0-OBRYS
  6
CONTINUOUS
 62
    90
100
AcDbLine
 10
1854.990117
 20
336.860416
 30
0.0
 11
1864.781554
 21
336.860416
 31
0.0
  0
LINE
  5
FC8
100
AcDbEntity
  8
V0-OBRYS
  6
CONTINUOUS
 62
    90
100
AcDbLine
 10
1854.990117
 20
327.766112
 30
0.0
 11
1852.740117
 21
327.766112
 31
0.0
  0
LINE
  5
FC9
100
AcDbEntity
  8
V0-OBRYS
  6
CONTINUOUS
 62
    90
100
AcDbLine
 10
1854.990117
 20
332.312246
 30
0.0
 11
1852.740117
 21
332.312246
 31
0.0
  0
LINE
  5
FCA
100
AcDbEntity
  8
V0-OBRYS
  6
CONTINUOUS
 62
    90
100
AcDbLine
 10
1864.781554
 20
325.582688
 30
0.0
 11
1868.005777
 21
325.582688
 31
0.0
  0
LINE
  5
FCB
100
AcDbEntity
  8
V0-OBRYS
  6
CONTINUOUS
 62
    90
100
AcDbLine
 10
1868.005777
 20
334.867576
 30
0.0
 11
1864.781554
 21
334.867576
 31
0.0
  0
LINE
  5
FCC
100
AcDbEntity
  8
V0-OBRYS
  6
CONTINUOUS
 62
    90
100
AcDbLine
 10
1869.843059
 20
327.709584
 30
0.0
 11
1864.781554
 21
327.709584
 31
0.0
  0
LINE
  5
FCD
100
AcDbEntity
  8
V0-OBRYS
  6
CONTINUOUS
 62
    90
100
AcDbLine
 10
1869.843059
 20
332.255718
 30
0.0
 11
1864.781554
 21
332.255718
 31
0.0
  0
LINE
  5
FCE
100
AcDbEntity
  8
V0-OBRYS
  6
CONTINUOUS
 62
    90
100
AcDbLine
 10
1869.843059
 20
327.709584
 30
0.0
 11
1869.843059
 21
332.255718
 31
0.0
  0
LINE
  5
FCF
100
AcDbEntity
  8
V0-OBRYS
  6
CONTINUOUS
 62
    90
100
AcDbLine
 10
1868.005777
 20
325.582688
 30
0.0
 11
1868.005777
 21
334.867576
 31
0.0
  0
LWPOLYLINE
  5
FD0
100
AcDbEntity
  8
V0-OBRYS
  6
CONTINUOUS
 62
    90
100
AcDbPolyline
 90
        4
 70
     1
 43
0.0
 10
979.466563
 20
280.0
 10
995.637944
 20
280.0
 10
995.637944
 20
284.54388
 10
979.466563
 20
284.54388
  0
LWPOLYLINE
  5
FD1
100
AcDbEntity
  8
V0-OBRYS
  6
CONTINUOUS
 62
    90
100
AcDbPolyline
 90
        4
 70
     1
 43
0.0
 10
1845.397696
 20
289.183941
 10
1862.960126
 20
289.183941
 10
1862.960126
 20
294.747225
 10
1845.397696
 20
294.747225
  0
MTEXT
  5
FD2
100
AcDbEntity
  8
V0-NAZVY
100
AcDbMText
 10
1823.121231
 20
-988.756656
 30
0.0
 40
78.125
 41
642.6266
 71
     5
 72
     5
  1
MSK-560
  7
ED10
  0
MTEXT
  5
FD3
100
AcDbEntity
  8
V0-ZBYTEK
 62
    51
100
AcDbMText
 10
1843.171728
 20
-1103.273892
 30
0.0
 40
43.75
 41
1239.35125
 71
     5
 72
     5
  1
KLAPKA SKRTICI
  7
ED10
  0
MTEXT
  5
FD4
100
AcDbEntity
  8
V0-ZBYTEK
100
AcDbMText
 10
1838.190751
 20
-1197.975081
 30
0.0
 40
31.25
 41
490.923438
 71
     5
 72
     5
  1
S RUCNIM OVLADANIM KOVOVYM
  7
ED10
  0
ELLIPSE
  5
103C
100
AcDbEntity
  8
V0-OBRYS
  6
CONTINUOUS
 62
    90
100
AcDbEllipse
 10
1853.715576
 20
1.119633
 30
0.0
 11
0.0
 21
271.9022070207295
 31
0.0
210
0.0
220
0.0
230
1.0
 40
0.516539
 41
0.0
 42
6.283185307179586
  0
ELLIPSE
  5
1094
100
AcDbEntity
  8
V0-VYPLNE
  6
DASHED
 62
    52
 48
3.0
100
AcDbEllipse
 10
987.500685
 20
-1.646482
 30
0.0
 11
0.0
 21
194.3099544499434
 31
0.0
210
0.0
220
0.0
230
1.0
 40
0.725327
 41
0.0
 42
6.283185307179586
  0
LINE
  5
1095
100
AcDbEntity
  8
V0-VYPLNE
  6
DASHED
 62
    52
 48
3.0
100
AcDbLine
 10
1082.52662
 20
-754.974457
 30
0.0
 11
894.231245
 21
-1247.415162
 31
0.0
  0
MTEXT
  5
12DF
100
AcDbEntity
  8
V0-NAZVY
100
AcDbMText
 10
1826.924161
 20
-475.319277
 30
0.0
 40
62.5
 41
514.10128
 71
     5
 72
     5
  1
MSK-560
  7
ED10
  0
MTEXT
  5
12E0
100
AcDbEntity
  8
V0-NAZVY
100
AcDbMText
 10
994.909809
 20
-475.319277
 30
0.0
 40
62.5
 41
514.10128
 71
     5
 72
     5
  1
MSK-560
  7
ED10
  0
MTEXT
  5
12E1
100
AcDbEntity
  8
V0-NAZVY
100
AcDbMText
 10
976.978467
 20
-1367.684508
 30
0.0
 40
62.5
 41
514.10128
 71
     5
 72
     5
  1
MSK-560
  7
ED10
  0
VIEWPORT
  5
22
100
AcDbEntity
 67
     1
  8
0
100
AcDbViewport
 10
261.517699
 20
148.5
 30
0.0
 40
523.035398
 41
297.0
 68
    -1
 69
     1
1001
ACAD
1000
MVIEW
1002
{
1070
    16
1010
0.0
1020
0.0
1030
0.0
1010
0.0
1020
0.0
1030
1.0
1040
0.0
1040
297.0
1040
261.517699
1040
148.5
1040
50.0
1040
0.0
1040
0.0
1070
     0
1070
   100
1070
     1
1070
     1
1070
     0
1070
     0
1070
     0
1070
     0
1040
0.0
1040
0.0
1040
0.0
1040
1.0
1040
1.0
1040
10.0
1040
10.0
1070
     0
1002
{
1002
}
1002
}
  0
ENDSEC
  0
SECTION
  2
OBJECTS
  0
DICTIONARY
  5
C
100
AcDbDictionary
  3
ACAD_GROUP
350
D
  3
ACAD_MLINESTYLE
350
E
  3
ACDBVARIABLEDICTIONARY
350
5D
  0
DICTIONARY
  5
D
102
{ACAD_REACTORS
330
C
102
}
100
AcDbDictionary
  0
DICTIONARY
  5
E
102
{ACAD_REACTORS
330
C
102
}
100
AcDbDictionary
  3
STANDARD
350
13
  0
DICTIONARY
  5
5D
102
{ACAD_REACTORS
330
C
102
}
100
AcDbDictionary
  3
DIMADEC
350
5E
  3
SORTENTS
350
3D8
  0
MLINESTYLE
  5
13
102
{ACAD_REACTORS
330
E
102
}
100
AcDbMlineStyle
  2
STANDARD
 70
     0
  3

 62
     0
 51
90.0
 52
90.0
 71
     2
 49
0.5
 62
   256
  6
BYLAYER
 49
-0.5
 62
   256
  6
BYLAYER
  0
DICTIONARYVAR
  5
5E
102
{ACAD_REACTORS
330
5D
102
}
100
DictionaryVariables
280
     0
  1
0
  0
DICTIONARYVAR
  5
3D8
102
{ACAD_REACTORS
330
5D
102
}
100
DictionaryVariables
280
     0
  1
96
  0
ENDSEC
  0
EOF
