  0
SECTION
  2
HEADER
  9
$ACADVER
  1
AC1015
  9
$ACADMAINTVER
 70
     6
  9
$DWGCODEPAGE
  3
ANSI_1252
  9
$INSBASE
 10
0.0
 20
0.0
 30
0.0
  9
$EXTMIN
 10
67.19218843991712
 20
34.05549778003842
 30
0.0
  9
$EXTMAX
 10
701.1014758774254
 20
503.5832730963088
 30
0.0
  9
$LIMMIN
 10
0.0
 20
0.0
  9
$LIMMAX
 10
12.0
 20
9.0
  9
$ORTHOMODE
 70
     0
  9
$REGENMODE
 70
     1
  9
$FILLMODE
 70
     1
  9
$QTEXTMODE
 70
     0
  9
$MIRRTEXT
 70
     1
  9
$LTSCALE
 40
1.0
  9
$ATTMODE
 70
     1
  9
$TEXTSIZE
 40
0.2
  9
$TRACEWID
 40
0.05
  9
$TEXTSTYLE
  7
Standard
  9
$CLAYER
  8
popis
  9
$CELTYPE
  6
ByLayer
  9
$CECOLOR
 62
   256
  9
$CELTSCALE
 40
1.0
  9
$DISPSILH
 70
     0
  9
$DIMSCALE
 40
10.0
  9
$DIMASZ
 40
2.0
  9
$DIMEXO
 40
0.625
  9
$DIMDLI
 40
0.38
  9
$DIMRND
 40
0.0
  9
$DIMDLE
 40
0.0
  9
$DIMEXE
 40
1.25
  9
$DIMTP
 40
0.0
  9
$DIMTM
 40
0.0
  9
$DIMTXT
 40
2.0
  9
$DIMCEN
 40
0.09
  9
$DIMTSZ
 40
0.0
  9
$DIMTOL
 70
     0
  9
$DIMLIM
 70
     0
  9
$DIMTIH
 70
     0
  9
$DIMTOH
 70
     0
  9
$DIMSE1
 70
     0
  9
$DIMSE2
 70
     0
  9
$DIMTAD
 70
     1
  9
$DIMZIN
 70
     0
  9
$DIMBLK
  1
VDDIM_DEFAULT
  9
$DIMASO
 70
     1
  9
$DIMSHO
 70
     1
  9
$DIMPOST
  1

  9
$DIMAPOST
  1

  9
$DIMALT
 70
     0
  9
$DIMALTD
 70
     2
  9
$DIMALTF
 40
25.4
  9
$DIMLFAC
 40
1.0
  9
$DIMTOFL
 70
     1
  9
$DIMTVP
 40
0.0
  9
$DIMTIX
 70
     1
  9
$DIMSOXD
 70
     0
  9
$DIMSAH
 70
     0
  9
$DIMBLK1
  1

  9
$DIMBLK2
  1

  9
$DIMSTYLE
  2
ISO-25
  9
$DIMCLRD
 70
     0
  9
$DIMCLRE
 70
     0
  9
$DIMCLRT
 70
   256
  9
$DIMTFAC
 40
1.0
  9
$DIMGAP
 40
0.625
  9
$DIMJUST
 70
     0
  9
$DIMSD1
 70
     0
  9
$DIMSD2
 70
     0
  9
$DIMTOLJ
 70
     1
  9
$DIMTZIN
 70
     0
  9
$DIMALTZ
 70
     0
  9
$DIMALTTZ
 70
     0
  9
$DIMUPT
 70
     1
  9
$DIMDEC
 70
     0
  9
$DIMTDEC
 70
     4
  9
$DIMALTU
 70
     2
  9
$DIMALTTD
 70
     2
  9
$DIMTXSTY
  7
Standard
  9
$DIMAUNIT
 70
     0
  9
$DIMADEC
 70
     0
  9
$DIMALTRND
 40
0.0
  9
$DIMAZIN
 70
     0
  9
$DIMDSEP
 70
    46
  9
$DIMATFIT
 70
     3
  9
$DIMFRAC
 70
     0
  9
$DIMLDRBLK
  1

  9
$DIMLUNIT
 70
     2
  9
$DIMLWD
 70
    -2
  9
$DIMLWE
 70
    -2
  9
$DIMTMOVE
 70
     0
  9
$LUNITS
 70
     2
  9
$LUPREC
 70
     4
  9
$SKETCHINC
 40
0.1
  9
$FILLETRAD
 40
0.5
  9
$AUNITS
 70
     0
  9
$AUPREC
 70
     0
  9
$MENU
  1
.
  9
$ELEVATION
 40
0.0
  9
$PELEVATION
 40
0.0
  9
$THICKNESS
 40
0.0
  9
$LIMCHECK
 70
     0
  9
$CHAMFERA
 40
0.5
  9
$CHAMFERB
 40
0.5
  9
$CHAMFERC
 40
1.0
  9
$CHAMFERD
 40
0.0
  9
$SKPOLY
 70
     0
  9
$TDCREATE
 40
2455638.465429317
  9
$TDUCREATE
 40
2455638.423762651
  9
$TDUPDATE
 40
2455638.465429329
  9
$TDUUPDATE
 40
2455638.423762662
  9
$TDINDWG
 40
0.0000000116
  9
$TDUSRTIMER
 40
0.0000000116
  9
$USRTIMER
 70
     1
  9
$ANGBASE
 50
0.0
  9
$ANGDIR
 70
     0
  9
$PDMODE
 70
     0
  9
$PDSIZE
 40
0.0
  9
$PLINEWID
 40
0.0
  9
$SPLFRAME
 70
     0
  9
$SPLINETYPE
 70
     6
  9
$SPLINESEGS
 70
     8
  9
$HANDSEED
  5
1E5
  9
$SURFTAB1
 70
     6
  9
$SURFTAB2
 70
     6
  9
$SURFTYPE
 70
     6
  9
$SURFU
 70
     6
  9
$SURFV
 70
     6
  9
$UCSBASE
  2

  9
$UCSNAME
  2

  9
$UCSORG
 10
0.0
 20
0.0
 30
0.0
  9
$UCSXDIR
 10
1.0
 20
0.0
 30
0.0
  9
$UCSYDIR
 10
0.0
 20
1.0
 30
0.0
  9
$UCSORTHOREF
  2

  9
$UCSORTHOVIEW
 70
     0
  9
$UCSORGTOP
 10
0.0
 20
0.0
 30
0.0
  9
$UCSORGBOTTOM
 10
0.0
 20
0.0
 30
0.0
  9
$UCSORGLEFT
 10
0.0
 20
0.0
 30
0.0
  9
$UCSORGRIGHT
 10
0.0
 20
0.0
 30
0.0
  9
$UCSORGFRONT
 10
0.0
 20
0.0
 30
0.0
  9
$UCSORGBACK
 10
0.0
 20
0.0
 30
0.0
  9
$PUCSBASE
  2

  9
$PUCSNAME
  2

  9
$PUCSORG
 10
0.0
 20
0.0
 30
0.0
  9
$PUCSXDIR
 10
1.0
 20
0.0
 30
0.0
  9
$PUCSYDIR
 10
0.0
 20
1.0
 30
0.0
  9
$PUCSORTHOREF
  2

  9
$PUCSORTHOVIEW
 70
     0
  9
$PUCSORGTOP
 10
0.0
 20
0.0
 30
0.0
  9
$PUCSORGBOTTOM
 10
0.0
 20
0.0
 30
0.0
  9
$PUCSORGLEFT
 10
0.0
 20
0.0
 30
0.0
  9
$PUCSORGRIGHT
 10
0.0
 20
0.0
 30
0.0
  9
$PUCSORGFRONT
 10
0.0
 20
0.0
 30
0.0
  9
$PUCSORGBACK
 10
0.0
 20
0.0
 30
0.0
  9
$USERI1
 70
     0
  9
$USERI2
 70
     0
  9
$USERI3
 70
     0
  9
$USERI4
 70
     0
  9
$USERI5
 70
     0
  9
$USERR1
 40
0.0
  9
$USERR2
 40
0.0
  9
$USERR3
 40
0.0
  9
$USERR4
 40
0.0
  9
$USERR5
 40
0.0
  9
$WORLDVIEW
 70
     1
  9
$SHADEDGE
 70
     3
  9
$SHADEDIF
 70
    70
  9
$TILEMODE
 70
     1
  9
$MAXACTVP
 70
    64
  9
$PINSBASE
 10
0.0
 20
0.0
 30
0.0
  9
$PLIMCHECK
 70
     0
  9
$PEXTMIN
 10
1.000000000000000E+20
 20
1.000000000000000E+20
 30
1.000000000000000E+20
  9
$PEXTMAX
 10
-1.000000000000000E+20
 20
-1.000000000000000E+20
 30
-1.000000000000000E+20
  9
$PLIMMIN
 10
0.0
 20
0.0
  9
$PLIMMAX
 10
12.0
 20
9.0
  9
$UNITMODE
 70
     0
  9
$VISRETAIN
 70
     1
  9
$PLINEGEN
 70
     0
  9
$PSLTSCALE
 70
     1
  9
$TREEDEPTH
 70
  3020
  9
$CMLSTYLE
  2
Standard
  9
$CMLJUST
 70
     0
  9
$CMLSCALE
 40
1.0
  9
$PROXYGRAPHICS
 70
     1
  9
$MEASUREMENT
 70
     0
  9
$CELWEIGHT
370
    -1
  9
$ENDCAPS
280
     0
  9
$JOINSTYLE
280
     0
  9
$LWDISPLAY
290
     0
  9
$INSUNITS
 70
     1
  9
$HYPERLINKBASE
  1

  9
$STYLESHEET
  1

  9
$XEDIT
290
     1
  9
$CEPSNTYPE
380
     0
  9
$PSTYLEMODE
290
     0
  9
$FINGERPRINTGUID
  2
{FAEB1C30-E019-11D5-929B-00C0DF256EC4}
  9
$VERSIONGUID
  2
{FAEB1C32-E019-11D5-929B-00C0DF256EC4}
  9
$EXTNAMES
290
     1
  9
$PSVPSCALE
 40
0.0
  9
$OLESTARTUP
290
     0
  0
ENDSEC
  0
SECTION
  2
CLASSES
  0
CLASS
  1
ACDBDICTIONARYWDFLT
  2
AcDbDictionaryWithDefault
  3
ObjectDBX Classes
 90
        0
280
     0
281
     0
  0
CLASS
  1
ACDBPLACEHOLDER
  2
AcDbPlaceHolder
  3
ObjectDBX Classes
 90
        0
280
     0
281
     0
  0
CLASS
  1
LAYOUT
  2
AcDbLayout
  3
ObjectDBX Classes
 90
        0
280
     0
281
     0
  0
ENDSEC
  0
SECTION
  2
TABLES
  0
TABLE
  2
VPORT
  5
140
330
0
100
AcDbSymbolTable
 70
     2
  0
VPORT
  5
161
330
140
100
AcDbSymbolTableRecord
100
AcDbViewportTableRecord
  2
*Active
 70
     0
 10
0.0
 20
0.0
 11
1.0
 21
1.0
 12
319.2223734945388
 22
261.0208907966206
 13
0.0
 23
0.0
 14
10.0
 24
10.0
 15
10.0
 25
10.0
 16
0.0
 26
0.0
 36
1.0
 17
0.0
 27
0.0
 37
0.0
 40
683.951502205876
 41
0.0259620114852939
 42
50.0
 43
0.0
 44
0.0
 50
0.0
 51
0.0000000000007958
 71
     0
 72
   100
 73
     1
 74
     3
 75
     0
 76
     0
 77
     0
 78
     0
281
     0
 65
     1
110
0.0
120
0.0
130
0.0
111
1.0
121
0.0
131
0.0
112
0.0
122
1.0
132
0.0
 79
     0
146
0.0
  0
ENDTAB
  0
TABLE
  2
LTYPE
  5
13D
330
0
100
AcDbSymbolTable
 70
    25
  0
LTYPE
  5
14C
330
13D
100
AcDbSymbolTableRecord
100
AcDbLinetypeTableRecord
  2
ByBlock
 70
     0
  3

 72
    65
 73
     0
 40
0.0
  0
LTYPE
  5
14D
330
13D
100
AcDbSymbolTableRecord
100
AcDbLinetypeTableRecord
  2
ByLayer
 70
     0
  3

 72
    65
 73
     0
 40
0.0
  0
LTYPE
  5
14E
330
13D
100
AcDbSymbolTableRecord
100
AcDbLinetypeTableRecord
  2
Continuous
 70
     0
  3
Solid line
 72
    65
 73
     0
 40
0.0
  0
LTYPE
  5
169
330
13D
100
AcDbSymbolTableRecord
100
AcDbLinetypeTableRecord
  2
CENTER
 70
     0
  3
Center ____ _ ____ _ ____ _ ____ _ ____ _ ____
 72
    65
 73
     4
 40
2.0
 49
1.25
 74
     0
 49
-0.25
 74
     0
 49
0.25
 74
     0
 49
-0.25
 74
     0
  0
LTYPE
  5
16A
330
13D
100
AcDbSymbolTableRecord
100
AcDbLinetypeTableRecord
  2
DASHDOT
 70
     0
  3
Dashdot __ . __ . __ . __ . __ . __ . __ . __
 72
    65
 73
     4
 40
1.0
 49
0.5
 74
     0
 49
-0.25
 74
     0
 49
0.0
 74
     0
 49
-0.25
 74
     0
  0
LTYPE
  5
16B
330
13D
100
AcDbSymbolTableRecord
100
AcDbLinetypeTableRecord
  2
DASHED
 70
     0
  3
Dashed __ __ __ __ __ __ __ __ __ __ __ __ __ _
 72
    65
 73
     2
 40
0.75
 49
0.5
 74
     0
 49
-0.25
 74
     0
  0
LTYPE
  5
16C
330
13D
100
AcDbSymbolTableRecord
100
AcDbLinetypeTableRecord
  2
HIDDEN
 70
     0
  3
Hidden __ __ __ __ __ __ __ __ __ __ __ __ __ __
 72
    65
 73
     2
 40
0.375
 49
0.25
 74
     0
 49
-0.125
 74
     0
  0
LTYPE
  5
16D
330
13D
100
AcDbSymbolTableRecord
100
AcDbLinetypeTableRecord
  2
HIDDEN2
 70
     0
  3
Hidden2 _ _ _ _ _ _ _ _ _ _ _ _ _ _ _ _ _ 
 72
    65
 73
     2
 40
0.1875
 49
0.125
 74
     0
 49
-0.0625
 74
     0
  0
LTYPE
  5
16E
330
13D
100
AcDbSymbolTableRecord
100
AcDbLinetypeTableRecord
  2
BORDER
 70
     0
  3
Border __ __ . __ __ . __ __ . __ __ . __ __ .
 72
    65
 73
     6
 40
1.75
 49
0.5
 74
     0
 49
-0.25
 74
     0
 49
0.5
 74
     0
 49
-0.25
 74
     0
 49
0.0
 74
     0
 49
-0.25
 74
     0
  0
LTYPE
  5
16F
330
13D
100
AcDbSymbolTableRecord
100
AcDbLinetypeTableRecord
  2
BORDER2
 70
     0
  3
Border2 __.__.__.__.__.__.__.__.__.__.__.
 72
    65
 73
     6
 40
0.875
 49
0.25
 74
     0
 49
-0.125
 74
     0
 49
0.25
 74
     0
 49
-0.125
 74
     0
 49
0.0
 74
     0
 49
-0.125
 74
     0
  0
LTYPE
  5
170
330
13D
100
AcDbSymbolTableRecord
100
AcDbLinetypeTableRecord
  2
BORDERX2
 70
     0
  3
Borderx2  ____  ____  .  ____  ____  .  ___
 72
    65
 73
     6
 40
3.5
 49
1.0
 74
     0
 49
-0.5
 74
     0
 49
1.0
 74
     0
 49
-0.5
 74
     0
 49
0.0
 74
     0
 49
-0.5
 74
     0
  0
LTYPE
  5
171
330
13D
100
AcDbSymbolTableRecord
100
AcDbLinetypeTableRecord
  2
CENTER2
 70
     0
  3
Center2  ___ _ ___ _ ___ _ ___ _ ___ _ ___
 72
    65
 73
     4
 40
1.125
 49
0.75
 74
     0
 49
-0.125
 74
     0
 49
0.125
 74
     0
 49
-0.125
 74
     0
  0
LTYPE
  5
172
330
13D
100
AcDbSymbolTableRecord
100
AcDbLinetypeTableRecord
  2
CENTERX2
 70
     0
  3
Centerx2  ________  __  ________  __  _____
 72
    65
 73
     4
 40
4.0
 49
2.5
 74
     0
 49
-0.5
 74
     0
 49
0.5
 74
     0
 49
-0.5
 74
     0
  0
LTYPE
  5
173
330
13D
100
AcDbSymbolTableRecord
100
AcDbLinetypeTableRecord
  2
DASHDOT2
 70
     0
  3
Dashdot2  _._._._._._._._._._._._._._._.
 72
    65
 73
     4
 40
0.5
 49
0.25
 74
     0
 49
-0.125
 74
     0
 49
0.0
 74
     0
 49
-0.125
 74
     0
  0
LTYPE
  5
174
330
13D
100
AcDbSymbolTableRecord
100
AcDbLinetypeTableRecord
  2
DASHDOTX2
 70
     0
  3
Dashdotx2 ____  .  ____  .  ____  .  ___
 72
    65
 73
     4
 40
2.0
 49
1.0
 74
     0
 49
-0.5
 74
     0
 49
0.0
 74
     0
 49
-0.5
 74
     0
  0
LTYPE
  5
175
330
13D
100
AcDbSymbolTableRecord
100
AcDbLinetypeTableRecord
  2
DASHED2
 70
     0
  3
Dashed2 _ _ _ _ _ _ _ _ _ _ _ _ _ _ _ _ _ 
 72
    65
 73
     2
 40
0.375
 49
0.25
 74
     0
 49
-0.125
 74
     0
  0
LTYPE
  5
176
330
13D
100
AcDbSymbolTableRecord
100
AcDbLinetypeTableRecord
  2
DASHEDX2
 70
     0
  3
Dashedx2 ____  ____  ____  ____  ____  ___
 72
    65
 73
     2
 40
1.5
 49
1.0
 74
     0
 49
-0.5
 74
     0
  0
LTYPE
  5
177
330
13D
100
AcDbSymbolTableRecord
100
AcDbLinetypeTableRecord
  2
DIVIDE
 70
     0
  3
Divide ____ . . ____ . . ____ . . ____ . . ____
 72
    65
 73
     6
 40
1.25
 49
0.5
 74
     0
 49
-0.25
 74
     0
 49
0.0
 74
     0
 49
-0.25
 74
     0
 49
0.0
 74
     0
 49
-0.25
 74
     0
  0
LTYPE
  5
178
330
13D
100
AcDbSymbolTableRecord
100
AcDbLinetypeTableRecord
  2
DIVIDE2
 70
     0
  3
Divide2 __..__..__..__..__..__..__..__.._
 72
    65
 73
     6
 40
0.625
 49
0.25
 74
     0
 49
-0.125
 74
     0
 49
0.0
 74
     0
 49
-0.125
 74
     0
 49
0.0
 74
     0
 49
-0.125
 74
     0
  0
LTYPE
  5
179
330
13D
100
AcDbSymbolTableRecord
100
AcDbLinetypeTableRecord
  2
DIVIDEX2
 70
     0
  3
Dividex2 ________  .  .  ________  .  .  _
 72
    65
 73
     6
 40
2.5
 49
1.0
 74
     0
 49
-0.5
 74
     0
 49
0.0
 74
     0
 49
-0.5
 74
     0
 49
0.0
 74
     0
 49
-0.5
 74
     0
  0
LTYPE
  5
17A
330
13D
100
AcDbSymbolTableRecord
100
AcDbLinetypeTableRecord
  2
DOT
 70
     0
  3
Dot . . . . . . . . . . . . . . . . . . . . . . . .
 72
    65
 73
     2
 40
0.25
 49
0.0
 74
     0
 49
-0.25
 74
     0
  0
LTYPE
  5
17B
330
13D
100
AcDbSymbolTableRecord
100
AcDbLinetypeTableRecord
  2
DOT2
 70
     0
  3
Dot2 ........................................
 72
    65
 73
     2
 40
0.125
 49
0.0
 74
     0
 49
-0.125
 74
     0
  0
LTYPE
  5
17C
330
13D
100
AcDbSymbolTableRecord
100
AcDbLinetypeTableRecord
  2
DOTX2
 70
     0
  3
Dotx2 .  .  .  .  .  .  .  .  .  .  .  .  .  .
 72
    65
 73
     2
 40
0.5
 49
0.0
 74
     0
 49
-0.5
 74
     0
  0
LTYPE
  5
17D
330
13D
100
AcDbSymbolTableRecord
100
AcDbLinetypeTableRecord
  2
HIDDENX2
 70
     0
  3
Hiddenx2 ____ ____ ____ ____ ____ ____ ____ 
 72
    65
 73
     2
 40
0.75
 49
0.5
 74
     0
 49
-0.25
 74
     0
  0
LTYPE
  5
17E
330
13D
100
AcDbSymbolTableRecord
100
AcDbLinetypeTableRecord
  2
PHANTOM
 70
     0
  3
Phantom ______  __  __  ______  __  __  ______ 
 72
    65
 73
     6
 40
2.5
 49
1.25
 74
     0
 49
-0.25
 74
     0
 49
0.25
 74
     0
 49
-0.25
 74
     0
 49
0.25
 74
     0
 49
-0.25
 74
     0
  0
LTYPE
  5
17F
330
13D
100
AcDbSymbolTableRecord
100
AcDbLinetypeTableRecord
  2
PHANTOM2
 70
     0
  3
Phantom2 ___ _ _ ___ _ _ ___ _ _ ___ _ _
 72
    65
 73
     6
 40
1.25
 49
0.625
 74
     0
 49
-0.125
 74
     0
 49
0.125
 74
     0
 49
-0.125
 74
     0
 49
0.125
 74
     0
 49
-0.125
 74
     0
  0
LTYPE
  5
180
330
13D
100
AcDbSymbolTableRecord
100
AcDbLinetypeTableRecord
  2
PHANTOMX2
 70
     0
  3
Phantomx2 ____________    ____    ____   _
 72
    65
 73
     6
 40
5.0
 49
2.5
 74
     0
 49
-0.5
 74
     0
 49
0.5
 74
     0
 49
-0.5
 74
     0
 49
0.5
 74
     0
 49
-0.5
 74
     0
  0
ENDTAB
  0
TABLE
  2
LAYER
  5
13A
330
0
100
AcDbSymbolTable
 70
     4
  0
LAYER
  5
148
330
13A
100
AcDbSymbolTableRecord
100
AcDbLayerTableRecord
  2
0
 70
     0
 62
    90
  6
Continuous
370
     0
390
147
  0
LAYER
  5
2B
330
13A
100
AcDbSymbolTableRecord
100
AcDbLayerTableRecord
  2
koty
 70
     0
 62
    41
  6
Continuous
370
     0
390
147
  0
LAYER
  5
2C
330
13A
100
AcDbSymbolTableRecord
100
AcDbLayerTableRecord
  2
popis
 70
     0
 62
   210
  6
Continuous
370
     0
390
147
  0
LAYER
  5
5A
330
13A
100
AcDbSymbolTableRecord
100
AcDbLayerTableRecord
  2
Defpoints
 70
     0
 62
     7
  6
Continuous
290
     0
370
     0
390
147
  0
ENDTAB
  0
TABLE
  2
STYLE
  5
13B
330
0
100
AcDbSymbolTable
 70
     2
  0
STYLE
  5
149
330
13B
100
AcDbSymbolTableRecord
100
AcDbTextStyleTableRecord
  2
Standard
 70
     0
 40
0.0
 41
1.0
 50
0.0
 71
     0
 42
0.2
  3
txt.shx
  4

1001
ACAD
1000
txt.shx
1071
        0
  0
STYLE
  5
132
330
13B
100
AcDbSymbolTableRecord
100
AcDbTextStyleTableRecord
  2
Proxy_131
 70
     0
 40
20.0
 41
1.0
 50
0.0
 71
     0
 42
0.2
  3
txt.shx
  4

1001
ACAD
1000
txt.shx
1071
        0
  0
ENDTAB
  0
TABLE
  2
VIEW
  5
13E
330
0
100
AcDbSymbolTable
 70
     0
  0
ENDTAB
  0
TABLE
  2
UCS
  5
13F
330
0
100
AcDbSymbolTable
 70
     0
  0
ENDTAB
  0
TABLE
  2
APPID
  5
141
330
0
100
AcDbSymbolTable
 70
     6
  0
APPID
  5
14A
330
141
100
AcDbSymbolTableRecord
100
AcDbRegAppTableRecord
  2
ACAD
 70
     0
  0
APPID
  5
162
330
141
100
AcDbSymbolTableRecord
100
AcDbRegAppTableRecord
  2
VD_INVISIBLE_NOT_FOR_READ
 70
     0
  0
APPID
  5
163
330
141
100
AcDbSymbolTableRecord
100
AcDbRegAppTableRecord
  2
VD_TEMPHATCH
 70
     0
  0
APPID
  5
164
330
141
100
AcDbSymbolTableRecord
100
AcDbRegAppTableRecord
  2
VDEXTRAPARAM
 70
     0
  0
APPID
  5
165
330
141
100
AcDbSymbolTableRecord
100
AcDbRegAppTableRecord
  2
PE_URL
 70
     0
  0
APPID
  5
166
330
141
100
AcDbSymbolTableRecord
100
AcDbRegAppTableRecord
  2
VD_UNKNOWN
 70
     0
  0
ENDTAB
  0
TABLE
  2
DIMSTYLE
  5
142
330
0
100
AcDbSymbolTable
 70
     2
100
AcDbDimStyleTable
  0
DIMSTYLE
105
15F
330
142
100
AcDbSymbolTableRecord
100
AcDbDimStyleTableRecord
  2
STANDARD
 70
     0
 41
0.2
 42
0.05
 44
0.2
 73
     0
 74
     0
140
0.2
172
     1
174
     1
177
   256
178
   256
271
     0
288
     1
340
149
342
135
  0
DIMSTYLE
105
27
102
{ACAD_REACTORS
330
59
330
88
330
A0
330
C8
330
E0
330
F8
330
114
102
}
330
142
100
AcDbSymbolTableRecord
100
AcDbDimStyleTableRecord
  2
ISO-25
 70
     0
 40
10.0
 41
2.0
 42
0.625
 44
1.25
 73
     0
 74
     0
 77
     1
140
2.0
147
0.625
172
     1
174
     1
178
   256
271
     0
288
     1
340
149
342
135
  0
ENDTAB
  0
TABLE
  2
BLOCK_RECORD
  5
139
330
0
100
AcDbSymbolTable
 70
    11
  0
BLOCK_RECORD
  5
157
330
139
100
AcDbSymbolTableRecord
100
AcDbBlockTableRecord
  2
*Model_Space
340
15A
  0
BLOCK_RECORD
  5
153
330
139
100
AcDbSymbolTableRecord
100
AcDbBlockTableRecord
  2
*Paper_Space
340
156
  0
BLOCK_RECORD
  5
15B
330
139
100
AcDbSymbolTableRecord
100
AcDbBlockTableRecord
  2
*Paper_Space0
340
15E
  0
BLOCK_RECORD
  5
73
330
139
100
AcDbSymbolTableRecord
100
AcDbBlockTableRecord
  2
VD_ANONYM_73
340
0
  0
BLOCK_RECORD
  5
135
330
139
100
AcDbSymbolTableRecord
100
AcDbBlockTableRecord
  2
VDDIM_DEFAULT
340
0
102
{BLKREFS
331
18F
331
18E
331
19B
331
19A
331
1A7
331
1A6
331
1B3
331
1B2
331
1BF
331
1BE
331
1CD
331
1CC
331
1DA
331
1D9
102
}
  0
BLOCK_RECORD
  5
137
330
139
100
AcDbSymbolTableRecord
100
AcDbBlockTableRecord
  2
VDDIM_NONE
340
0
  0
BLOCK_RECORD
  5
18A
330
139
100
AcDbSymbolTableRecord
100
AcDbBlockTableRecord
  2
*D4
340
0
  0
BLOCK_RECORD
  5
196
330
139
100
AcDbSymbolTableRecord
100
AcDbBlockTableRecord
  2
*D5
340
0
  0
BLOCK_RECORD
  5
1A2
330
139
100
AcDbSymbolTableRecord
100
AcDbBlockTableRecord
  2
*D6
340
0
  0
BLOCK_RECORD
  5
1AE
330
139
100
AcDbSymbolTableRecord
100
AcDbBlockTableRecord
  2
*D7
340
0
  0
BLOCK_RECORD
  5
1BA
330
139
100
AcDbSymbolTableRecord
100
AcDbBlockTableRecord
  2
*D8
340
0
  0
BLOCK_RECORD
  5
1C6
330
139
100
AcDbSymbolTableRecord
100
AcDbBlockTableRecord
  2
*D9
340
0
  0
BLOCK_RECORD
  5
1D4
330
139
100
AcDbSymbolTableRecord
100
AcDbBlockTableRecord
  2
*D10
340
0
  0
ENDTAB
  0
ENDSEC
  0
SECTION
  2
BLOCKS
  0
BLOCK
  5
158
330
157
100
AcDbEntity
  8
0
100
AcDbBlockBegin
  2
*Model_Space
 70
     0
 71
     0
 10
0.0
 20
0.0
 30
0.0
  3
*Model_Space
  1

  0
ENDBLK
  5
159
330
157
100
AcDbEntity
  8
0
100
AcDbBlockEnd
  0
BLOCK
  5
154
330
153
100
AcDbEntity
 67
     1
  8
0
100
AcDbBlockBegin
  2
*Paper_Space
 70
     0
 71
     0
 10
0.0
 20
0.0
 30
0.0
  3
*Paper_Space
  1

  0
ENDBLK
  5
155
330
153
100
AcDbEntity
 67
     1
  8
0
100
AcDbBlockEnd
  0
BLOCK
  5
15C
330
15B
100
AcDbEntity
  8
0
100
AcDbBlockBegin
  2
*Paper_Space0
 70
     0
 71
     0
 10
0.0
 20
0.0
 30
0.0
  3
*Paper_Space0
  1

  0
VIEWPORT
  5
1E3
330
15B
100
AcDbEntity
  8
0
 60
     1
100
AcDbViewport
 10
0.0
 20
0.0
 30
0.0
 40
10.0
 41
10.0
 69
     1
 12
0.0
 22
0.0
 13
0.0
 23
0.0
 14
1.0
 24
1.0
 15
0.0
 25
0.0
 16
0.0
 26
0.0
 36
1.0
 17
0.0
 27
0.0
 37
0.0
 42
0.0
 43
0.0
 44
0.0
 45
10.0
 50
0.0
 51
0.0000000000007958
 72
   100
 90
   163872
  1

281
     0
 71
     0
 74
     0
110
0.0
120
0.0
130
0.0
111
1.0
121
0.0
131
0.0
112
0.0
122
1.0
132
0.0
 79
     0
146
0.0
1001
VD_INVISIBLE_NOT_FOR_READ
1000
VD_INVISIBLE_NOT_FOR_READ
  0
VIEWPORT
  5
1E4
330
15B
100
AcDbEntity
  8
0
 60
     1
100
AcDbViewport
 10
0.0
 20
0.0
 30
0.0
 40
10.0
 41
10.0
 69
     2
 12
0.0
 22
0.0
 13
0.0
 23
0.0
 14
1.0
 24
1.0
 15
0.0
 25
0.0
 16
0.0
 26
0.0
 36
1.0
 17
0.0
 27
0.0
 37
0.0
 42
0.0
 43
0.0
 44
0.0
 45
10.0
 50
0.0
 51
0.0000000000007958
 72
   100
 90
   163872
  1

281
     0
 71
     0
 74
     0
110
0.0
120
0.0
130
0.0
111
1.0
121
0.0
131
0.0
112
0.0
122
1.0
132
0.0
 79
     0
146
0.0
1001
VD_INVISIBLE_NOT_FOR_READ
1000
VD_INVISIBLE_NOT_FOR_READ
  0
ENDBLK
  5
15D
330
15B
100
AcDbEntity
  8
0
100
AcDbBlockEnd
  0
BLOCK
  5
181
330
73
100
AcDbEntity
  8
0
100
AcDbBlockBegin
  2
VD_ANONYM_73
 70
     0
 71
     0
 10
0.0
 20
0.0
 30
0.0
  3
VD_ANONYM_73
  1

  0
LINE
  5
C0
330
73
100
AcDbEntity
  8
koty
 62
     0
370
    -2
100
AcDbLine
 10
338.5894611813848
 20
343.3682030792566
 30
0.0
 11
253.2411505941812
 21
317.8680834103945
 31
0.0
  0
LINE
  5
C1
330
73
100
AcDbEntity
  8
koty
 62
     0
370
    -2
100
AcDbLine
 10
140.1796657275749
 20
284.0879022421692
 30
0.0
 11
121.016702190862
 21
278.3624478068767
 31
0.0
  0
LINE
  5
C3
330
73
100
AcDbEntity
  8
koty
 62
     0
370
    -2
100
AcDbLine
 10
159.3426292642879
 20
289.8133566774617
 30
0.0
 11
234.0781870574682
 21
312.142628975102
 31
0.0
  0
LWPOLYLINE
  5
C4
330
73
100
AcDbEntity
  8
koty
 62
     0
100
AcDbPolyline
 90
        4
 70
     1
 43
0.0
 10
139.2254233216928
 20
287.281729498288
 10
141.133908133457
 20
280.8940749860503
 10
159.3426292642879
 20
289.8133566774617
 10
159.3426292642879
 20
289.8133566774617
1001
VDEXTRAPARAM
1071
       65
1071
        0
1071
        0
1040
1.0
1000

1000

1040
0.0
1040
0.0
  0
HATCH
  5
187
330
73
100
AcDbEntity
  8
koty
 62
     0
100
AcDbHatch
 10
0.0
 20
0.0
 30
0.0
210
0.0
220
0.0
230
1.0
  2
SOLID
 70
     1
 71
     0
 91
        1
 92
        2
 72
     0
 73
     1
 93
        3
 10
139.2254233216928
 20
287.281729498288
 10
141.133908133457
 20
280.8940749860503
 10
159.3426292642879
 20
289.8133566774617
 97
        0
 75
     0
 76
     1
 98
        1
 10
0.0
 20
0.0
1001
VDEXTRAPARAM
1071
       65
1071
        0
1071
        0
1040
1.0
1000

1000

1040
0.0
1040
0.0
1001
VD_TEMPHATCH
1000
VD_TEMPHATCH
  0
LWPOLYLINE
  5
C5
330
73
100
AcDbEntity
  8
koty
 62
     0
100
AcDbPolyline
 90
        4
 70
     1
 43
0.0
 10
252.2869081882991
 20
321.0619106665133
 10
254.1953930000633
 20
314.6742561542756
 10
234.0781870574682
 20
312.142628975102
 10
234.0781870574682
 20
312.142628975102
1001
VDEXTRAPARAM
1071
       65
1071
        0
1071
        0
1040
1.0
1000

1000

1040
0.0
1040
0.0
  0
HATCH
  5
188
330
73
100
AcDbEntity
  8
koty
 62
     0
100
AcDbHatch
 10
0.0
 20
0.0
 30
0.0
210
0.0
220
0.0
230
1.0
  2
SOLID
 70
     1
 71
     0
 91
        1
 92
        2
 72
     0
 73
     1
 93
        3
 10
252.2869081882991
 20
321.0619106665133
 10
254.1953930000633
 20
314.6742561542756
 10
234.0781870574682
 20
312.142628975102
 97
        0
 75
     0
 76
     1
 98
        1
 10
0.0
 20
0.0
1001
VDEXTRAPARAM
1071
       65
1071
        0
1071
        0
1040
1.0
1000

1000

1040
0.0
1040
0.0
1001
VD_TEMPHATCH
1000
VD_TEMPHATCH
  0
POINT
  5
C6
330
73
100
AcDbEntity
  8
Defpoints
 62
     0
100
AcDbPoint
 10
234.0781870574682
 20
312.142628975102
 30
0.0
  0
POINT
  5
C7
330
73
100
AcDbEntity
  8
Defpoints
 62
     0
100
AcDbPoint
 10
159.3426292642879
 20
289.8133566774617
 30
0.0
  0
TEXT
  5
131
330
73
100
AcDbEntity
  8
koty
 62
     0
100
AcDbText
 10
278.3418113574667
 20
331.8905851482451
 30
0.0
 40
20.0
  1
Ø78
 50
16.63494030627665
  7
Proxy_131
100
AcDbText
  0
ENDBLK
  5
182
330
73
100
AcDbEntity
  8
0
100
AcDbBlockEnd
  0
BLOCK
  5
183
330
135
100
AcDbEntity
  8
0
100
AcDbBlockBegin
  2
VDDIM_DEFAULT
 70
     0
 71
     0
 10
0.0
 20
0.0
 30
0.0
  3
VDDIM_DEFAULT
  1

  0
LWPOLYLINE
  5
136
330
135
100
AcDbEntity
  8
0
  6
Continuous
 62
     0
100
AcDbPolyline
 90
        4
 70
     0
 43
0.0
 10
0.0
 20
0.0
 10
-1.0
 20
-0.1665
 10
-1.0
 20
0.1665
 10
0.0
 20
0.0
1001
VDEXTRAPARAM
1071
        1
1071
        0
1071
        0
1040
1.0
1000

1000

1040
0.0
1040
0.0
  0
HATCH
  5
189
330
135
100
AcDbEntity
  8
0
  6
Continuous
 62
     0
100
AcDbHatch
 10
0.0
 20
0.0
 30
0.0
210
0.0
220
0.0
230
1.0
  2
SOLID
 70
     1
 71
     0
 91
        1
 92
        2
 72
     0
 73
     1
 93
        3
 10
0.0
 20
0.0
 10
-1.0
 20
-0.1665
 10
-1.0
 20
0.1665
 97
        0
 75
     0
 76
     1
 98
        1
 10
0.0
 20
0.0
1001
VDEXTRAPARAM
1071
        1
1071
        0
1071
        0
1040
1.0
1000

1000

1040
0.0
1040
0.0
1001
VD_TEMPHATCH
1000
VD_TEMPHATCH
  0
ENDBLK
  5
184
330
135
100
AcDbEntity
  8
0
100
AcDbBlockEnd
  0
BLOCK
  5
185
330
137
100
AcDbEntity
  8
0
100
AcDbBlockBegin
  2
VDDIM_NONE
 70
     0
 71
     0
 10
0.0
 20
0.0
 30
0.0
  3
VDDIM_NONE
  1

  0
ENDBLK
  5
186
330
137
100
AcDbEntity
  8
0
100
AcDbBlockEnd
  0
BLOCK
  5
194
330
18A
100
AcDbEntity
  8
0
100
AcDbBlockBegin
  2
*D4
 70
     1
 71
     0
 10
0.0
 20
0.0
 30
0.0
  3
*D4
  1

  0
LINE
  5
18B
330
18A
100
AcDbEntity
  8
koty
 62
     0
370
    -2
100
AcDbLine
 10
131.7104081608781
 20
107.7279928262819
 30
0.0
 11
131.7104081608781
 21
36.67222245251107
 31
0.0
  0
LINE
  5
18C
330
18A
100
AcDbEntity
  8
koty
 62
     0
370
    -2
100
AcDbLine
 10
396.7104081608781
 20
107.7279928262819
 30
0.0
 11
396.7104081608781
 21
36.67222245251105
 31
0.0
  0
LINE
  5
18D
330
18A
100
AcDbEntity
  8
koty
 62
     0
370
    -2
100
AcDbLine
 10
151.7104081608781
 20
49.17222245251107
 30
0.0
 11
376.7104081608781
 21
49.17222245251105
 31
0.0
  0
INSERT
  5
18E
330
18A
100
AcDbEntity
  8
koty
 62
     0
370
    -2
100
AcDbBlockReference
  2
VDDIM_DEFAULT
 10
131.7104081608781
 20
49.17222245251107
 30
0.0
 41
20.0
 42
20.0
 43
20.0
 50
180.0
  0
INSERT
  5
18F
330
18A
100
AcDbEntity
  8
koty
 62
     0
370
    -2
100
AcDbBlockReference
  2
VDDIM_DEFAULT
 10
396.7104081608781
 20
49.17222245251105
 30
0.0
 41
20.0
 42
20.0
 43
20.0
 50
360.0
  0
MTEXT
  5
190
330
18A
100
AcDbEntity
  8
koty
100
AcDbMText
 10
264.2104081608781
 20
65.42222245251105
 30
0.0
 40
20.0
 41
0.0
 71
     5
 72
     1
  1
265 x 265
 73
     1
 44
1.0
  0
POINT
  5
191
330
18A
100
AcDbEntity
  8
Defpoints
 62
     0
100
AcDbPoint
 10
131.7104081608781
 20
113.9779928262819
 30
0.0
  0
POINT
  5
192
330
18A
100
AcDbEntity
  8
Defpoints
 62
     0
100
AcDbPoint
 10
396.7104081608781
 20
113.9779928262819
 30
0.0
  0
POINT
  5
193
330
18A
100
AcDbEntity
  8
Defpoints
 62
     0
100
AcDbPoint
 10
396.7104081608781
 20
49.17222245251105
 30
0.0
  0
ENDBLK
  5
195
330
18A
100
AcDbEntity
  8
0
100
AcDbBlockEnd
  0
BLOCK
  5
1A0
330
196
100
AcDbEntity
  8
0
100
AcDbBlockBegin
  2
*D5
 70
     1
 71
     0
 10
0.0
 20
0.0
 30
0.0
  3
*D5
  1

  0
LINE
  5
197
330
196
100
AcDbEntity
  8
koty
 62
     0
370
    -2
100
AcDbLine
 10
196.7104081608781
 20
307.2279928262819
 30
0.0
 11
196.7104081608781
 21
411.2446969711013
 31
0.0
  0
LINE
  5
198
330
196
100
AcDbEntity
  8
koty
 62
     0
370
    -2
100
AcDbLine
 10
131.7104081608782
 20
375.2279928262819
 30
0.0
 11
131.7104081608782
 21
411.2446969711013
 31
0.0
  0
LINE
  5
199
330
196
100
AcDbEntity
  8
koty
 62
     0
370
    -2
100
AcDbLine
 10
176.7104081608781
 20
398.7446969711013
 30
0.0
 11
151.7104081608782
 21
398.7446969711013
 31
0.0
  0
INSERT
  5
19A
330
196
100
AcDbEntity
  8
koty
 62
     0
370
    -2
100
AcDbBlockReference
  2
VDDIM_DEFAULT
 10
196.7104081608781
 20
398.7446969711013
 30
0.0
 41
20.0
 42
20.0
 43
20.0
  0
INSERT
  5
19B
330
196
100
AcDbEntity
  8
koty
 62
     0
370
    -2
100
AcDbBlockReference
  2
VDDIM_DEFAULT
 10
131.7104081608782
 20
398.7446969711013
 30
0.0
 41
20.0
 42
20.0
 43
20.0
 50
180.0
  0
MTEXT
  5
19C
330
196
100
AcDbEntity
  8
koty
100
AcDbMText
 10
164.2104081608782
 20
414.9946969711013
 30
0.0
 40
20.0
 41
0.0
 71
     5
 72
     1
  1
\A1;65
 73
     1
 44
1.0
  0
POINT
  5
19D
330
196
100
AcDbEntity
  8
Defpoints
 62
     0
100
AcDbPoint
 10
196.7104081608781
 20
300.9779928262819
 30
0.0
  0
POINT
  5
19E
330
196
100
AcDbEntity
  8
Defpoints
 62
     0
100
AcDbPoint
 10
131.7104081608782
 20
368.9779928262819
 30
0.0
  0
POINT
  5
19F
330
196
100
AcDbEntity
  8
Defpoints
 62
     0
100
AcDbPoint
 10
131.7104081608782
 20
398.7446969711013
 30
0.0
  0
ENDBLK
  5
1A1
330
196
100
AcDbEntity
  8
0
100
AcDbBlockEnd
  0
BLOCK
  5
1AC
330
1A2
100
AcDbEntity
  8
0
100
AcDbBlockBegin
  2
*D6
 70
     1
 71
     0
 10
0.0
 20
0.0
 30
0.0
  3
*D6
  1

  0
LINE
  5
1A3
330
1A2
100
AcDbEntity
  8
koty
 62
     0
370
    -2
100
AcDbLine
 10
190.4604081608781
 20
300.9779928262819
 30
0.0
 11
87.12680382453043
 21
300.9779928262819
 31
0.0
  0
LINE
  5
1A4
330
1A2
100
AcDbEntity
  8
koty
 62
     0
370
    -2
100
AcDbLine
 10
125.4604081608782
 20
368.9779928262819
 30
0.0
 11
87.12680382453043
 21
368.9779928262819
 31
0.0
  0
LINE
  5
1A5
330
1A2
100
AcDbEntity
  8
koty
 62
     0
370
    -2
100
AcDbLine
 10
99.62680382453038
 20
320.9779928262819
 30
0.0
 11
99.62680382453038
 21
348.9779928262819
 31
0.0
  0
INSERT
  5
1A6
330
1A2
100
AcDbEntity
  8
koty
 62
     0
370
    -2
100
AcDbBlockReference
  2
VDDIM_DEFAULT
 10
99.62680382453038
 20
300.9779928262819
 30
0.0
 41
20.0
 42
20.0
 43
20.0
 50
270.0
  0
INSERT
  5
1A7
330
1A2
100
AcDbEntity
  8
koty
 62
     0
370
    -2
100
AcDbBlockReference
  2
VDDIM_DEFAULT
 10
99.62680382453038
 20
368.9779928262819
 30
0.0
 41
20.0
 42
20.0
 43
20.0
 50
90.0
  0
MTEXT
  5
1A8
330
1A2
100
AcDbEntity
  8
koty
100
AcDbMText
 10
83.37680382453043
 20
334.9779928262819
 30
0.0
 40
20.0
 41
0.0
 71
     5
 72
     1
  1
\A1;68
 11
0.0
 21
-1.0
 31
0.0
 73
     1
 44
1.0
  0
POINT
  5
1A9
330
1A2
100
AcDbEntity
  8
Defpoints
 62
     0
100
AcDbPoint
 10
196.7104081608781
 20
300.9779928262819
 30
0.0
  0
POINT
  5
1AA
330
1A2
100
AcDbEntity
  8
Defpoints
 62
     0
100
AcDbPoint
 10
131.7104081608782
 20
368.9779928262819
 30
0.0
  0
POINT
  5
1AB
330
1A2
100
AcDbEntity
  8
Defpoints
 62
     0
100
AcDbPoint
 10
99.62680382453043
 20
368.9779928262819
 30
0.0
  0
ENDBLK
  5
1AD
330
1A2
100
AcDbEntity
  8
0
100
AcDbBlockEnd
  0
BLOCK
  5
1B8
330
1AE
100
AcDbEntity
  8
0
100
AcDbBlockBegin
  2
*D7
 70
     1
 71
     0
 10
0.0
 20
0.0
 30
0.0
  3
*D7
  1

  0
LINE
  5
1AF
330
1AE
100
AcDbEntity
  8
koty
 62
     0
370
    -2
100
AcDbLine
 10
460.8514758774217
 20
339.9779928262819
 30
0.0
 11
422.8697071908246
 21
339.9779928262819
 31
0.0
  0
LINE
  5
1B0
330
1AE
100
AcDbEntity
  8
koty
 62
     0
370
    -2
100
AcDbLine
 10
460.8514758774218
 20
261.9779928262819
 30
0.0
 11
422.8697071908246
 21
261.9779928262819
 31
0.0
  0
LINE
  5
1B1
330
1AE
100
AcDbEntity
  8
koty
 62
     0
370
    -2
100
AcDbLine
 10
435.3697071908246
 20
319.9779928262819
 30
0.0
 11
435.3697071908246
 21
281.9779928262819
 31
0.0
  0
INSERT
  5
1B2
330
1AE
100
AcDbEntity
  8
koty
 62
     0
370
    -2
100
AcDbBlockReference
  2
VDDIM_DEFAULT
 10
435.3697071908246
 20
339.9779928262819
 30
0.0
 41
20.0
 42
20.0
 43
20.0
 50
90.0
  0
INSERT
  5
1B3
330
1AE
100
AcDbEntity
  8
koty
 62
     0
370
    -2
100
AcDbBlockReference
  2
VDDIM_DEFAULT
 10
435.3697071908246
 20
261.9779928262819
 30
0.0
 41
20.0
 42
20.0
 43
20.0
 50
270.0
  0
MTEXT
  5
1B4
330
1AE
100
AcDbEntity
  8
koty
100
AcDbMText
 10
419.1197071908246
 20
300.9779928262819
 30
0.0
 40
20.0
 41
0.0
 71
     5
 72
     1
  1
\A1;78
 11
0.0
 21
1.0
 31
0.0
 73
     1
 44
1.0
  0
POINT
  5
1B5
330
1AE
100
AcDbEntity
  8
Defpoints
 62
     0
100
AcDbPoint
 10
467.1014758774217
 20
339.9779928262819
 30
0.0
  0
POINT
  5
1B6
330
1AE
100
AcDbEntity
  8
Defpoints
 62
     0
100
AcDbPoint
 10
467.1014758774218
 20
261.9779928262819
 30
0.0
  0
POINT
  5
1B7
330
1AE
100
AcDbEntity
  8
Defpoints
 62
     0
100
AcDbPoint
 10
435.3697071908246
 20
261.9779928262819
 30
0.0
  0
ENDBLK
  5
1B9
330
1AE
100
AcDbEntity
  8
0
100
AcDbBlockEnd
  0
BLOCK
  5
1C4
330
1BA
100
AcDbEntity
  8
0
100
AcDbBlockBegin
  2
*D8
 70
     1
 71
     0
 10
0.0
 20
0.0
 30
0.0
  3
*D8
  1

  0
LINE
  5
1BB
330
1BA
100
AcDbEntity
  8
koty
 62
     0
370
    -2
100
AcDbLine
 10
522.1014758774217
 20
97.72799282628191
 30
0.0
 11
522.1014758774217
 21
34.13409715346644
 31
0.0
  0
LINE
  5
1BC
330
1BA
100
AcDbEntity
  8
koty
 62
     0
370
    -2
100
AcDbLine
 10
636.1014758774217
 20
97.72799282628191
 30
0.0
 11
636.1014758774217
 21
34.13409715346643
 31
0.0
  0
LINE
  5
1BD
330
1BA
100
AcDbEntity
  8
koty
 62
     0
370
    -2
100
AcDbLine
 10
542.1014758774217
 20
46.63409715346644
 30
0.0
 11
616.1014758774217
 21
46.63409715346643
 31
0.0
  0
INSERT
  5
1BE
330
1BA
100
AcDbEntity
  8
koty
 62
     0
370
    -2
100
AcDbBlockReference
  2
VDDIM_DEFAULT
 10
522.1014758774217
 20
46.63409715346644
 30
0.0
 41
20.0
 42
20.0
 43
20.0
 50
180.0
  0
INSERT
  5
1BF
330
1BA
100
AcDbEntity
  8
koty
 62
     0
370
    -2
100
AcDbBlockReference
  2
VDDIM_DEFAULT
 10
636.1014758774217
 20
46.63409715346643
 30
0.0
 41
20.0
 42
20.0
 43
20.0
 50
360.0
  0
MTEXT
  5
1C0
330
1BA
100
AcDbEntity
  8
koty
100
AcDbMText
 10
579.1014758774217
 20
62.88409715346643
 30
0.0
 40
20.0
 41
0.0
 71
     5
 72
     1
  1
\A1;114
 73
     1
 44
1.0
  0
POINT
  5
1C1
330
1BA
100
AcDbEntity
  8
Defpoints
 62
     0
100
AcDbPoint
 10
522.1014758774217
 20
103.9779928262819
 30
0.0
  0
POINT
  5
1C2
330
1BA
100
AcDbEntity
  8
Defpoints
 62
     0
100
AcDbPoint
 10
636.1014758774217
 20
103.9779928262819
 30
0.0
  0
POINT
  5
1C3
330
1BA
100
AcDbEntity
  8
Defpoints
 62
     0
100
AcDbPoint
 10
636.1014758774217
 20
46.63409715346643
 30
0.0
  0
ENDBLK
  5
1C5
330
1BA
100
AcDbEntity
  8
0
100
AcDbBlockEnd
  0
BLOCK
  5
1D2
330
1C6
100
AcDbEntity
  8
0
100
AcDbBlockBegin
  2
*D9
 70
     1
 71
     0
 10
0.0
 20
0.0
 30
0.0
  3
*D9
  1

  0
LINE
  5
1C7
330
1C6
100
AcDbEntity
  8
koty
 62
     0
370
    -2
100
AcDbLine
 10
636.1014758774217
 20
97.72799282628191
 30
0.0
 11
636.1014758774217
 21
34.05549778001912
 31
0.0
  0
LINE
  5
1C8
330
1C6
100
AcDbEntity
  8
koty
 62
     0
370
    -2
100
AcDbLine
 10
661.1014758774218
 20
230.227992826282
 30
0.0
 11
661.1014758774218
 21
34.05549778001912
 31
0.0
  0
LINE
  5
1C9
330
1C6
100
AcDbEntity
  8
koty
 62
     0
370
    -2
100
AcDbLine
 10
616.1014758774217
 20
46.55549778001912
 30
0.0
 11
596.1014758774217
 21
46.55549778001912
 31
0.0
  0
LINE
  5
1CA
330
1C6
100
AcDbEntity
  8
koty
 62
     0
370
    -2
100
AcDbLine
 10
681.1014758774218
 20
46.55549778001912
 30
0.0
 11
745.9824282583741
 21
46.55549778001912
 31
0.0
  0
LINE
  5
1CB
330
1C6
100
AcDbEntity
  8
koty
 62
     0
370
    -2
100
AcDbLine
 10
636.1014758774217
 20
46.55549778001912
 30
0.0
 11
661.1014758774218
 21
46.55549778001912
 31
0.0
  0
INSERT
  5
1CC
330
1C6
100
AcDbEntity
  8
koty
 62
     0
370
    -2
100
AcDbBlockReference
  2
VDDIM_DEFAULT
 10
636.1014758774217
 20
46.55549778001912
 30
0.0
 41
20.0
 42
20.0
 43
20.0
  0
INSERT
  5
1CD
330
1C6
100
AcDbEntity
  8
koty
 62
     0
370
    -2
100
AcDbBlockReference
  2
VDDIM_DEFAULT
 10
661.1014758774218
 20
46.55549778001912
 30
0.0
 41
20.0
 42
20.0
 43
20.0
 50
180.0
  0
MTEXT
  5
1CE
330
1C6
100
AcDbEntity
  8
koty
100
AcDbMText
 10
723.5419520678979
 20
62.80549778001912
 30
0.0
 40
20.0
 41
0.0
 71
     5
 72
     1
  1
\A1;25
 73
     1
 44
1.0
  0
POINT
  5
1CF
330
1C6
100
AcDbEntity
  8
Defpoints
 62
     0
100
AcDbPoint
 10
636.1014758774217
 20
103.9779928262819
 30
0.0
  0
POINT
  5
1D0
330
1C6
100
AcDbEntity
  8
Defpoints
 62
     0
100
AcDbPoint
 10
661.1014758774218
 20
236.477992826282
 30
0.0
  0
POINT
  5
1D1
330
1C6
100
AcDbEntity
  8
Defpoints
 62
     0
100
AcDbPoint
 10
661.1014758774218
 20
46.55549778001912
 30
0.0
  0
ENDBLK
  5
1D3
330
1C6
100
AcDbEntity
  8
0
100
AcDbBlockEnd
  0
BLOCK
  5
1DF
330
1D4
100
AcDbEntity
  8
0
100
AcDbBlockBegin
  2
*D10
 70
     1
 71
     0
 10
0.0
 20
0.0
 30
0.0
  3
*D10
  1

  0
LINE
  5
1D5
330
1D4
100
AcDbEntity
  8
koty
 62
     0
370
    -2
100
AcDbLine
 10
467.1014758774218
 20
346.2279928262819
 30
0.0
 11
467.1014758774218
 21
411.2814241306623
 31
0.0
  0
LINE
  5
1D6
330
1D4
100
AcDbEntity
  8
koty
 62
     0
370
    -2
100
AcDbLine
 10
522.1014758774217
 20
346.2279928262819
 30
0.0
 11
522.1014758774217
 21
411.2814241306623
 31
0.0
  0
LINE
  5
1D7
330
1D4
100
AcDbEntity
  8
koty
 62
     0
370
    -2
100
AcDbLine
 10
487.1014758774218
 20
398.7814241306623
 30
0.0
 11
502.1014758774217
 21
398.7814241306623
 31
0.0
  0
LINE
  5
1D8
330
1D4
100
AcDbEntity
  8
koty
 62
     0
370
    -2
100
AcDbLine
 10
522.1014758774217
 20
398.7814241306623
 30
0.0
 11
586.9824282583739
 21
398.7814241306623
 31
0.0
  0
INSERT
  5
1D9
330
1D4
100
AcDbEntity
  8
koty
 62
     0
370
    -2
100
AcDbBlockReference
  2
VDDIM_DEFAULT
 10
467.1014758774218
 20
398.7814241306623
 30
0.0
 41
20.0
 42
20.0
 43
20.0
 50
180.0
  0
INSERT
  5
1DA
330
1D4
100
AcDbEntity
  8
koty
 62
     0
370
    -2
100
AcDbBlockReference
  2
VDDIM_DEFAULT
 10
522.1014758774217
 20
398.7814241306623
 30
0.0
 41
20.0
 42
20.0
 43
20.0
  0
MTEXT
  5
1DB
330
1D4
100
AcDbEntity
  8
koty
100
AcDbMText
 10
564.5419520678978
 20
415.0314241306623
 30
0.0
 40
20.0
 41
0.0
 71
     5
 72
     1
  1
\A1;55
 73
     1
 44
1.0
  0
POINT
  5
1DC
330
1D4
100
AcDbEntity
  8
Defpoints
 62
     0
100
AcDbPoint
 10
467.1014758774218
 20
339.9779928262819
 30
0.0
  0
POINT
  5
1DD
330
1D4
100
AcDbEntity
  8
Defpoints
 62
     0
100
AcDbPoint
 10
522.1014758774217
 20
339.9779928262819
 30
0.0
  0
POINT
  5
1DE
330
1D4
100
AcDbEntity
  8
Defpoints
 62
     0
100
AcDbPoint
 10
522.1014758774217
 20
398.7814241306623
 30
0.0
  0
ENDBLK
  5
1E0
330
1D4
100
AcDbEntity
  8
0
100
AcDbBlockEnd
  0
ENDSEC
  0
SECTION
  2
ENTITIES
  0
LWPOLYLINE
  5
34
330
157
100
AcDbEntity
  8
0
100
AcDbPolyline
 90
        8
 70
     1
 43
0.0
 10
141.7104081608781
 20
103.9779928262819
 10
386.7104081608781
 20
103.9779928262819
 42
0.4142135623730951
 10
396.7104081608781
 20
113.9779928262819
 10
396.7104081608782
 20
358.9779928262819
 42
0.4142135623730951
 10
386.7104081608782
 20
368.977992826282
 10
141.7104081608781
 20
368.9779928262819
 42
0.4142135623730951
 10
131.7104081608782
 20
358.9779928262819
 10
131.7104081608781
 20
113.9779928262819
 42
0.4142135623730951
  0
CIRCLE
  5
39
330
157
100
AcDbEntity
  8
0
100
AcDbCircle
 10
196.7104081608781
 20
300.9779928262819
 30
0.0
 40
39.0
  0
LINE
  5
3B
330
157
100
AcDbEntity
  8
0
100
AcDbLine
 10
522.1014758774217
 20
368.9779928262819
 30
0.0
 11
638.6014758774217
 21
368.977992826282
 31
0.0
  0
LINE
  5
3E
330
157
100
AcDbEntity
  8
0
100
AcDbLine
 10
467.1014758774218
 20
339.9779928262819
 30
0.0
 11
522.1014758774217
 21
339.9779928262818
 31
0.0
  0
LINE
  5
3F
330
157
100
AcDbEntity
  8
0
100
AcDbLine
 10
467.1014758774218
 20
261.9779928262819
 30
0.0
 11
522.1014758774217
 21
261.9779928262819
 31
0.0
  0
LINE
  5
40
330
157
100
AcDbEntity
  8
0
100
AcDbLine
 10
467.1014758774217
 20
339.9779928262819
 30
0.0
 11
522.1014758774217
 21
339.9779928262819
 31
0.0
  0
LINE
  5
41
330
157
100
AcDbEntity
  8
0
100
AcDbLine
 10
522.1014758774217
 20
368.9779928262819
 30
0.0
 11
522.1014758774217
 21
236.4779928262819
 31
0.0
  0
LINE
  5
42
330
157
100
AcDbEntity
  8
0
100
AcDbLine
 10
467.1014758774217
 20
339.9779928262819
 30
0.0
 11
467.1014758774218
 21
261.9779928262819
 31
0.0
  0
LINE
  5
43
330
157
100
AcDbEntity
  8
0
100
AcDbLine
 10
522.1014758774217
 20
368.9779928262819
 30
0.0
 11
636.1014758774217
 21
368.9779928262819
 31
0.0
  0
LINE
  5
44
330
157
100
AcDbEntity
  8
0
100
AcDbLine
 10
636.1014758774217
 20
368.9779928262819
 30
0.0
 11
636.1014758774217
 21
236.4779928262819
 31
0.0
  0
LINE
  5
48
330
157
100
AcDbEntity
  8
0
100
AcDbLine
 10
648.6014758774217
 20
358.9779928262819
 30
0.0
 11
648.6014758774217
 21
236.4779928262819
 31
0.0
  0
ARC
  5
4B
330
157
100
AcDbEntity
  8
0
100
AcDbCircle
 10
227.3111540365269
 20
216.7227351716783
 30
0.0
 40
434.2399262249235
100
AcDbArc
 50
2.607507112107553
 51
14.02769205462766
  0
ARC
  5
4C
330
157
100
AcDbEntity
  8
0
100
AcDbCircle
 10
638.6014758774217
 20
358.9779928262819
 30
0.0
 40
10.0
100
AcDbArc
 50
0.0
 51
90.0
  0
LINE
  5
52
330
157
100
AcDbEntity
  8
0
100
AcDbLine
 10
648.6014758774217
 20
113.9779928262819
 30
0.0
 11
648.6014758774217
 21
236.4779928262819
 31
0.0
  0
LINE
  5
53
330
157
100
AcDbEntity
  8
0
100
AcDbLine
 10
636.1014758774217
 20
103.9779928262819
 30
0.0
 11
636.1014758774217
 21
236.4779928262819
 31
0.0
  0
LINE
  5
54
330
157
100
AcDbEntity
  8
0
100
AcDbLine
 10
522.1014758774217
 20
103.9779928262819
 30
0.0
 11
522.1014758774217
 21
236.4779928262819
 31
0.0
  0
ARC
  5
55
330
157
100
AcDbEntity
  8
0
100
AcDbCircle
 10
227.3111540365269
 20
256.2332504808855
 30
0.0
 40
434.2399262249235
100
AcDbArc
 50
345.9723079453723
 51
357.3924928878924
  0
LINE
  5
56
330
157
100
AcDbEntity
  8
0
100
AcDbLine
 10
522.1014758774217
 20
103.9779928262819
 30
0.0
 11
638.6014758774217
 21
103.9779928262819
 31
0.0
  0
LINE
  5
57
330
157
100
AcDbEntity
  8
0
100
AcDbLine
 10
522.1014758774217
 20
103.9779928262819
 30
0.0
 11
636.1014758774217
 21
103.9779928262819
 31
0.0
  0
ARC
  5
58
330
157
100
AcDbEntity
  8
0
100
AcDbCircle
 10
638.6014758774217
 20
113.9779928262819
 30
0.0
 40
10.0
100
AcDbArc
 50
270.0
 51
0.0
  0
DIMENSION
  5
59
330
157
100
AcDbEntity
  8
koty
100
AcDbDimension
  2
*D4
 10
396.7104081608781
 20
49.17222245251105
 30
0.0
 11
264.2104081608781
 21
65.42222245251105
 31
0.0
 70
    32
  1
265 x 265
 71
     0
 42
265.0
  3
ISO-25
100
AcDbAlignedDimension
 13
131.7104081608781
 23
113.9779928262819
 33
0.0
 14
396.7104081608781
 24
113.9779928262819
 34
0.0
100
AcDbRotatedDimension
  0
DIMENSION
  5
88
330
157
100
AcDbEntity
  8
koty
100
AcDbDimension
  2
*D5
 10
131.7104081608782
 20
398.7446969711013
 30
0.0
 11
164.2104081608782
 21
414.9946969711013
 31
0.0
 70
    32
 71
     0
 42
64.99999999999992
  3
ISO-25
100
AcDbAlignedDimension
 13
196.7104081608781
 23
300.9779928262819
 33
0.0
 14
131.7104081608782
 24
368.9779928262819
 34
0.0
100
AcDbRotatedDimension
  0
DIMENSION
  5
A0
330
157
100
AcDbEntity
  8
koty
100
AcDbDimension
  2
*D6
 10
99.62680382453043
 20
368.9779928262819
 30
0.0
 11
83.37680382453043
 21
334.9779928262819
 31
0.0
 70
    32
 71
     0
 42
68.0
  3
ISO-25
100
AcDbAlignedDimension
 13
196.7104081608781
 23
300.9779928262819
 33
0.0
 14
131.7104081608782
 24
368.9779928262819
 34
0.0
 50
90.0
100
AcDbRotatedDimension
  0
DIMENSION
  5
C8
330
157
100
AcDbEntity
  8
koty
100
AcDbDimension
  2
*D7
 10
435.3697071908246
 20
261.9779928262819
 30
0.0
 11
419.1197071908246
 21
300.9779928262819
 31
0.0
 70
    32
 71
     0
 42
78.0
  3
ISO-25
100
AcDbAlignedDimension
 13
467.1014758774217
 23
339.9779928262819
 33
0.0
 14
467.1014758774218
 24
261.9779928262819
 34
0.0
 50
90.0
100
AcDbRotatedDimension
  0
DIMENSION
  5
E0
330
157
100
AcDbEntity
  8
koty
100
AcDbDimension
  2
*D8
 10
636.1014758774217
 20
46.63409715346643
 30
0.0
 11
579.1014758774217
 21
62.88409715346643
 31
0.0
 70
    32
 71
     0
 42
114.0
  3
ISO-25
100
AcDbAlignedDimension
 13
522.1014758774217
 23
103.9779928262819
 33
0.0
 14
636.1014758774217
 24
103.9779928262819
 34
0.0
100
AcDbRotatedDimension
  0
DIMENSION
  5
F8
330
157
100
AcDbEntity
  8
koty
100
AcDbDimension
  2
*D9
 10
661.1014758774218
 20
46.55549778001912
 30
0.0
 11
723.5419520678979
 21
62.80549778001912
 31
0.0
 70
    32
 71
     0
 42
25.00000000000011
  3
ISO-25
100
AcDbAlignedDimension
 13
636.1014758774217
 23
103.9779928262819
 33
0.0
 14
661.1014758774218
 24
236.477992826282
 34
0.0
100
AcDbRotatedDimension
  0
DIMENSION
  5
114
330
157
100
AcDbEntity
  8
koty
100
AcDbDimension
  2
*D10
 10
522.1014758774217
 20
398.7814241306623
 30
0.0
 11
564.5419520678978
 21
415.0314241306623
 31
0.0
 70
    32
 71
     0
 42
54.99999999999983
  3
ISO-25
100
AcDbAlignedDimension
 13
467.1014758774218
 23
339.9779928262819
 33
0.0
 14
522.1014758774217
 24
339.9779928262819
 34
0.0
100
AcDbRotatedDimension
  0
TEXT
  5
12C
330
157
100
AcDbEntity
  8
popis
100
AcDbText
 10
130.5770603341295
 20
488.5832730963088
 30
0.0
 40
15.0
  1
SILENT ECO A - malý radiální ventilátor
100
AcDbText
  0
VIEWPORT
  5
1E1
330
153
100
AcDbEntity
 67
     1
  8
0
 60
     1
100
AcDbViewport
 10
0.0
 20
0.0
 30
0.0
 40
10.0
 41
10.0
 69
     1
 12
0.0
 22
0.0
 13
0.0
 23
0.0
 14
1.0
 24
1.0
 15
0.0
 25
0.0
 16
0.0
 26
0.0
 36
1.0
 17
0.0
 27
0.0
 37
0.0
 42
0.0
 43
0.0
 44
0.0
 45
10.0
 50
0.0
 51
0.0000000000007958
 72
   100
 90
   163872
  1

281
     0
 71
     0
 74
     0
110
0.0
120
0.0
130
0.0
111
1.0
121
0.0
131
0.0
112
0.0
122
1.0
132
0.0
 79
     0
146
0.0
1001
VD_INVISIBLE_NOT_FOR_READ
1000
VD_INVISIBLE_NOT_FOR_READ
  0
VIEWPORT
  5
1E2
330
153
100
AcDbEntity
 67
     1
  8
0
 60
     1
100
AcDbViewport
 10
0.0
 20
0.0
 30
0.0
 40
10.0
 41
10.0
 69
     2
 12
0.0
 22
0.0
 13
0.0
 23
0.0
 14
1.0
 24
1.0
 15
0.0
 25
0.0
 16
0.0
 26
0.0
 36
1.0
 17
0.0
 27
0.0
 37
0.0
 42
0.0
 43
0.0
 44
0.0
 45
10.0
 50
0.0
 51
0.0000000000007958
 72
   100
 90
   163872
  1

281
     0
 71
     0
 74
     0
110
0.0
120
0.0
130
0.0
111
1.0
121
0.0
131
0.0
112
0.0
122
1.0
132
0.0
 79
     0
146
0.0
1001
VD_INVISIBLE_NOT_FOR_READ
1000
VD_INVISIBLE_NOT_FOR_READ
  0
ENDSEC
  0
SECTION
  2
OBJECTS
  0
DICTIONARY
  5
144
330
0
100
AcDbDictionary
281
     1
  3
ACAD_GROUP
350
145
  3
ACAD_LAYOUT
350
152
  3
ACAD_MLINESTYLE
350
14F
  3
ACAD_PLOTSETTINGS
350
151
  3
ACAD_PLOTSTYLENAME
350
146
  3
VECTORDRAW_OBJECTS
350
167
  0
DICTIONARY
  5
145
102
{ACAD_REACTORS
330
144
102
}
330
144
100
AcDbDictionary
281
     1
  0
DICTIONARY
  5
152
102
{ACAD_REACTORS
330
144
102
}
330
144
100
AcDbDictionary
281
     1
  3
Model
350
15A
  3
Rozvržení1
350
156
  3
Rozvržení2
350
15E
  0
DICTIONARY
  5
14F
102
{ACAD_REACTORS
330
144
102
}
330
144
100
AcDbDictionary
281
     1
  3
Standard
350
150
  0
DICTIONARY
  5
151
102
{ACAD_REACTORS
330
144
102
}
330
144
100
AcDbDictionary
281
     1
  0
ACDBDICTIONARYWDFLT
  5
146
102
{ACAD_REACTORS
330
144
102
}
330
144
100
AcDbDictionary
281
     1
  3
Normal
350
147
100
AcDbDictionaryWithDefault
340
147
  0
DICTIONARY
  5
167
102
{ACAD_REACTORS
330
144
102
}
330
144
100
AcDbDictionary
281
     1
  3
SERIALNO
350
168
  0
LAYOUT
  5
15A
102
{ACAD_REACTORS
330
152
102
}
330
152
100
AcDbPlotSettings
  1
VectorDraw Printer Drawing
  2

  4

  6

 40
0.0
 41
0.0
 42
0.0
 43
0.0
 44
0.0
 45
0.0
 46
0.0
 47
0.0
 48
0.0
 49
0.0
140
0.0
141
0.0
142
1.0
143
1.0
 70
  1712
 72
     0
 73
     0
 74
     0
  7

 75
     0
147
1.0
148
0.0
149
0.0
100
AcDbLayout
  1
Model
 70
     1
 71
     0
 10
0.0
 20
0.0
 11
12.0
 21
9.0
 12
0.0
 22
0.0
 32
0.0
 14
67.19218843991712
 24
34.05549778003842
 34
0.0
 15
701.1014758774254
 25
503.5832730963088
 35
0.0
146
0.0
 13
0.0
 23
0.0
 33
0.0
 16
1.0
 26
0.0
 36
0.0
 17
0.0
 27
1.0
 37
0.0
 76
     0
330
157
  0
LAYOUT
  5
156
102
{ACAD_REACTORS
330
152
102
}
330
152
100
AcDbPlotSettings
  1
VectorDraw Printer Drawing
  2

  4

  6

 40
0.0
 41
0.0
 42
0.0
 43
0.0
 44
0.0
 45
0.0
 46
0.0
 47
0.0
 48
0.0
 49
0.0
140
0.0
141
0.0
142
1.0
143
1.0
 70
   688
 72
     0
 73
     0
 74
     5
  7

 75
    16
147
1.0
148
0.0
149
0.0
100
AcDbLayout
  1
Rozvržení1
 70
     1
 71
     1
 10
0.0
 20
0.0
 11
12.0
 21
9.0
 12
0.0
 22
0.0
 32
0.0
 14
1.000000000000000E+20
 24
1.000000000000000E+20
 34
1.000000000000000E+20
 15
-1.000000000000000E+20
 25
-1.000000000000000E+20
 35
-1.000000000000000E+20
146
0.0
 13
0.0
 23
0.0
 33
0.0
 16
1.0
 26
0.0
 36
0.0
 17
0.0
 27
1.0
 37
0.0
 76
     0
330
153
331
1E1
  0
LAYOUT
  5
15E
102
{ACAD_REACTORS
330
152
102
}
330
152
100
AcDbPlotSettings
  1
VectorDraw Printer Drawing
  2

  4

  6

 40
0.0
 41
0.0
 42
0.0
 43
0.0
 44
0.0
 45
0.0
 46
0.0
 47
0.0
 48
0.0
 49
0.0
140
0.0
141
0.0
142
1.0
143
1.0
 70
   688
 72
     0
 73
     0
 74
     5
  7

 75
    16
147
1.0
148
0.0
149
0.0
100
AcDbLayout
  1
Rozvržení2
 70
     1
 71
     2
 10
0.0
 20
0.0
 11
12.0
 21
9.0
 12
0.0
 22
0.0
 32
0.0
 14
0.0
 24
0.0
 34
0.0
 15
0.0
 25
0.0
 35
0.0
146
0.0
 13
0.0
 23
0.0
 33
0.0
 16
1.0
 26
0.0
 36
0.0
 17
0.0
 27
1.0
 37
0.0
 76
     0
330
15B
331
1E3
  0
MLINESTYLE
  5
150
102
{ACAD_REACTORS
330
14F
102
}
330
14F
100
AcDbMlineStyle
  2
Standard
 70
     0
  3

 62
   256
 51
90.0
 52
90.0
 71
     2
 49
0.5
 62
   256
  6
BYLAYER
 49
-0.5
 62
   256
  6
BYLAYER
  0
ACDBPLACEHOLDER
  5
147
102
{ACAD_REACTORS
330
146
102
}
330
146
  0
XRECORD
  5
168
102
{ACAD_REACTORS
330
167
102
}
330
167
100
AcDbXrecord
280
     1
1000
rInJVR9YY4Q8hfPWdUq5j5319
1070
     4
1070
     6
  0
ENDSEC
  0
EOF
