  0
SECTION
  2
HEADER
  9
$ACADVER
  1
AC1014
  9
$ACADMAINTVER
 70
     0
  9
$DWGCODEPAGE
  3
ANSI_1250
  9
$INSBASE
 10
0.0
 20
0.0
 30
0.0
  9
$EXTMIN
 10
674.533876
 20
-441.35953
 30
0.0
  9
$EXTMAX
 10
1331.50584
 20
192.373177
 30
0.0
  9
$LIMMIN
 10
0.0
 20
0.0
  9
$LIMMAX
 10
420.0
 20
297.0
  9
$ORTHOMODE
 70
     0
  9
$REGENMODE
 70
     1
  9
$FILLMODE
 70
     1
  9
$QTEXTMODE
 70
     0
  9
$MIRRTEXT
 70
     1
  9
$DRAGMODE
 70
     2
  9
$LTSCALE
 40
1.0
  9
$OSMODE
 70
    15
  9
$ATTMODE
 70
     1
  9
$TEXTSIZE
 40
10.0
  9
$TRACEWID
 40
1.0
  9
$TEXTSTYLE
  7
ED30
  9
$CLAYER
  8
V0-VYPLNE
  9
$CELTYPE
  6
CONTINUOUS
  9
$CECOLOR
 62
     7
  9
$CELTSCALE
 40
1.0
  9
$DELOBJ
 70
     1
  9
$DISPSILH
 70
     0
  9
$DIMSCALE
 40
0.0
  9
$DIMASZ
 40
15.0
  9
$DIMEXO
 40
1.0
  9
$DIMDLI
 40
3.75
  9
$DIMRND
 40
0.0
  9
$DIMDLE
 40
0.0
  9
$DIMEXE
 40
1.25
  9
$DIMTP
 40
0.0
  9
$DIMTM
 40
0.0
  9
$DIMTXT
 40
10.0
  9
$DIMCEN
 40
3.0
  9
$DIMTSZ
 40
0.0
  9
$DIMTOL
 70
     0
  9
$DIMLIM
 70
     0
  9
$DIMTIH
 70
     0
  9
$DIMTOH
 70
     0
  9
$DIMSE1
 70
     0
  9
$DIMSE2
 70
     0
  9
$DIMTAD
 70
     1
  9
$DIMZIN
 70
     8
  9
$DIMBLK
  1

  9
$DIMASO
 70
     1
  9
$DIMSHO
 70
     1
  9
$DIMPOST
  1

  9
$DIMAPOST
  1

  9
$DIMALT
 70
     0
  9
$DIMALTD
 70
     4
  9
$DIMALTF
 40
0.0394
  9
$DIMLFAC
 40
1.0
  9
$DIMTOFL
 70
     1
  9
$DIMTVP
 40
0.0
  9
$DIMTIX
 70
     0
  9
$DIMSOXD
 70
     0
  9
$DIMSAH
 70
     1
  9
$DIMBLK1
  1
_OPEN
  9
$DIMBLK2
  1
_OPEN
  9
$DIMSTYLE
  2
ED10
  9
$DIMCLRD
 70
    41
  9
$DIMCLRE
 70
    41
  9
$DIMCLRT
 70
    41
  9
$DIMTFAC
 40
1.0
  9
$DIMGAP
 40
1.5
  9
$DIMJUST
 70
     0
  9
$DIMSD1
 70
     0
  9
$DIMSD2
 70
     0
  9
$DIMTOLJ
 70
     1
  9
$DIMTZIN
 70
     8
  9
$DIMALTZ
 70
     0
  9
$DIMALTTZ
 70
     0
  9
$DIMFIT
 70
     3
  9
$DIMUPT
 70
     0
  9
$DIMUNIT
 70
     2
  9
$DIMDEC
 70
     0
  9
$DIMTDEC
 70
     1
  9
$DIMALTU
 70
     8
  9
$DIMALTTD
 70
     4
  9
$DIMTXSTY
  7
ED20
  9
$DIMAUNIT
 70
     0
  9
$LUNITS
 70
     2
  9
$LUPREC
 70
     4
  9
$SKETCHINC
 40
1.0
  9
$FILLETRAD
 40
5.0
  9
$AUNITS
 70
     0
  9
$AUPREC
 70
     0
  9
$MENU
  1
.
  9
$ELEVATION
 40
0.0
  9
$PELEVATION
 40
0.0
  9
$THICKNESS
 40
0.0
  9
$LIMCHECK
 70
     0
  9
$BLIPMODE
 70
     0
  9
$CHAMFERA
 40
10.0
  9
$CHAMFERB
 40
10.0
  9
$CHAMFERC
 40
20.0
  9
$CHAMFERD
 40
0.0
  9
$SKPOLY
 70
     1
  9
$TDCREATE
 40
2451196.643769328
  9
$TDUPDATE
 40
2453311.824431955
  9
$TDINDWG
 40
0.2670068287
  9
$TDUSRTIMER
 40
0.2670068287
  9
$USRTIMER
 70
     1
  9
$ANGBASE
 50
0.0
  9
$ANGDIR
 70
     0
  9
$PDMODE
 70
     3
  9
$PDSIZE
 40
15.0
  9
$PLINEWID
 40
0.0
  9
$COORDS
 70
     1
  9
$SPLFRAME
 70
     0
  9
$SPLINETYPE
 70
     6
  9
$SPLINESEGS
 70
     8
  9
$ATTDIA
 70
     0
  9
$ATTREQ
 70
     1
  9
$HANDLING
 70
     1
  9
$HANDSEED
  5
FE9
  9
$SURFTAB1
 70
     6
  9
$SURFTAB2
 70
     6
  9
$SURFTYPE
 70
     6
  9
$SURFU
 70
     6
  9
$SURFV
 70
     6
  9
$UCSNAME
  2

  9
$UCSORG
 10
727.5522535047794
 20
0.0
 30
0.0
  9
$UCSXDIR
 10
1.0
 20
0.0
 30
0.0
  9
$UCSYDIR
 10
0.0
 20
1.0
 30
0.0
  9
$PUCSNAME
  2

  9
$PUCSORG
 10
0.0
 20
0.0
 30
0.0
  9
$PUCSXDIR
 10
1.0
 20
0.0
 30
0.0
  9
$PUCSYDIR
 10
0.0
 20
1.0
 30
0.0
  9
$USERI1
 70
     0
  9
$USERI2
 70
     0
  9
$USERI3
 70
     2
  9
$USERI4
 70
     2
  9
$USERI5
 70
     6
  9
$USERR1
 40
281.0
  9
$USERR2
 40
321.0
  9
$USERR3
 40
0.0
  9
$USERR4
 40
0.0
  9
$USERR5
 40
0.0
  9
$WORLDVIEW
 70
     1
  9
$SHADEDGE
 70
     3
  9
$SHADEDIF
 70
    70
  9
$TILEMODE
 70
     1
  9
$MAXACTVP
 70
    48
  9
$PINSBASE
 10
0.0
 20
0.0
 30
0.0
  9
$PLIMCHECK
 70
     0
  9
$PEXTMIN
 10
1.000000E+20
 20
1.000000E+20
 30
1.000000E+20
  9
$PEXTMAX
 10
-1.000000E+20
 20
-1.000000E+20
 30
-1.000000E+20
  9
$PLIMMIN
 10
0.0
 20
0.0
  9
$PLIMMAX
 10
420.0
 20
297.0
  9
$UNITMODE
 70
     0
  9
$VISRETAIN
 70
     1
  9
$PLINEGEN
 70
     0
  9
$PSLTSCALE
 70
     0
  9
$TREEDEPTH
 70
  3020
  9
$PICKSTYLE
 70
     1
  9
$CMLSTYLE
  2
STANDARD
  9
$CMLJUST
 70
     0
  9
$CMLSCALE
 40
1.0
  9
$PROXYGRAPHICS
 70
     1
  9
$MEASUREMENT
 70
     1
  0
ENDSEC
  0
SECTION
  2
CLASSES
  0
CLASS
  1
DICTIONARYVAR
  2
AcDbDictionaryVar
  3
"AutoCAD"
 90
        0
280
     0
281
     0
  0
CLASS
  1
LWPOLYLINE
  2
AcDbPolyline
  3
"AutoCAD"
 90
        0
280
     0
281
     1
  0
CLASS
  1
HATCH
  2
AcDbHatch
  3
"ACAD_SEDONA"
 90
        0
280
     0
281
     1
  0
ENDSEC
  0
SECTION
  2
TABLES
  0
TABLE
  2
VPORT
  5
8
100
AcDbSymbolTable
 70
     2
  0
VPORT
  5
FE8
100
AcDbSymbolTableRecord
100
AcDbViewportTableRecord
  2
*ACTIVE
 70
     0
 10
0.0
 20
0.0
 11
1.0
 21
1.0
 12
1008.966452
 22
-79.489198
 13
0.0
 23
0.0
 14
10.0
 24
10.0
 15
10.0
 25
10.0
 16
0.0
 26
0.0
 36
1.0
 17
0.0
 27
0.0
 37
0.0
 40
758.516279
 41
1.550584
 42
50.0
 43
0.0
 44
0.0
 50
0.0
 51
0.0
 71
     0
 72
   100
 73
     1
 74
     1
 75
     0
 76
     0
 77
     0
 78
     0
  0
ENDTAB
  0
TABLE
  2
LTYPE
  5
5
100
AcDbSymbolTable
 70
     3
  0
LTYPE
  5
14
100
AcDbSymbolTableRecord
100
AcDbLinetypeTableRecord
  2
BYBLOCK
 70
     0
  3

 72
    65
 73
     0
 40
0.0
  0
LTYPE
  5
15
100
AcDbSymbolTableRecord
100
AcDbLinetypeTableRecord
  2
BYLAYER
 70
     0
  3

 72
    65
 73
     0
 40
0.0
  0
LTYPE
  5
16
100
AcDbSymbolTableRecord
100
AcDbLinetypeTableRecord
  2
CONTINUOUS
 70
     0
  3
Solid line
 72
    65
 73
     0
 40
0.0
  0
LTYPE
  5
7F
100
AcDbSymbolTableRecord
100
AcDbLinetypeTableRecord
  2
DASHDOT
 70
     0
  3
Dash dot __ . __ . __ . __ . __ . __ . __ . __
 72
    65
 73
     4
 40
25.4
 49
12.7
 74
     0
 49
-6.35
 74
     0
 49
0.0
 74
     0
 49
-6.35
 74
     0
  0
LTYPE
  5
80
100
AcDbSymbolTableRecord
100
AcDbLinetypeTableRecord
  2
DASHED
 70
     0
  3
Dashed __ __ __ __ __ __ __ __ __ __ __ __ __ _
 72
    65
 73
     2
 40
19.05
 49
12.7
 74
     0
 49
-6.35
 74
     0
  0
ENDTAB
  0
TABLE
  2
LAYER
  5
2
100
AcDbSymbolTable
 70
     6
  0
LAYER
  5
F
100
AcDbSymbolTableRecord
100
AcDbLayerTableRecord
  2
0
 70
     0
 62
     7
  6
CONTINUOUS
  0
LAYER
  5
9E
100
AcDbSymbolTableRecord
100
AcDbLayerTableRecord
  2
DEFPOINTS
 70
     0
 62
     7
  6
CONTINUOUS
  0
LAYER
  5
377
100
AcDbSymbolTableRecord
100
AcDbLayerTableRecord
  2
V0-OBRYS
 70
     0
 62
    90
  6
CONTINUOUS
  0
LAYER
  5
378
100
AcDbSymbolTableRecord
100
AcDbLayerTableRecord
  2
V0-VYPLNE
 70
     0
 62
    63
  6
DASHDOT
  0
LAYER
  5
37A
100
AcDbSymbolTableRecord
100
AcDbLayerTableRecord
  2
V0-NAZVY
 70
     0
 62
   210
  6
CONTINUOUS
  0
LAYER
  5
559
100
AcDbSymbolTableRecord
100
AcDbLayerTableRecord
  2
V0-ZBYTEK
 70
     0
 62
    51
  6
CONTINUOUS
  0
ENDTAB
  0
TABLE
  2
STYLE
  5
3
100
AcDbSymbolTable
 70
     6
  0
STYLE
  5
10
100
AcDbSymbolTableRecord
100
AcDbTextStyleTableRecord
  2
STANDARD
 70
     0
 40
7.0
 41
1.0
 50
0.0
 71
     0
 42
20.0
  3
ISOCP.shx
  4

  0
STYLE
  5
331
100
AcDbSymbolTableRecord
100
AcDbTextStyleTableRecord
  2
ED30
 70
     0
 40
30.0
 41
1.0
 50
0.0
 71
     0
 42
2.5
  3
ISOCP.shx
  4

  0
STYLE
  5
5D2
100
AcDbSymbolTableRecord
100
AcDbTextStyleTableRecord
  2
ED20
 70
     0
 40
20.0
 41
1.0
 50
0.0
 71
     0
 42
20.0
  3
isocp.shx
  4

  0
STYLE
  5
64F
100
AcDbSymbolTableRecord
100
AcDbTextStyleTableRecord
  2
ED40
 70
     0
 40
40.0
 41
1.0
 50
0.0
 71
     0
 42
20.0
  3
isocp.shx
  4

  0
STYLE
  5
650
100
AcDbSymbolTableRecord
100
AcDbTextStyleTableRecord
  2
ED10
 70
     0
 40
10.0
 41
1.0
 50
0.0
 71
     0
 42
10.0
  3
isocp.shx
  4

  0
STYLE
  5
CB8
100
AcDbSymbolTableRecord
100
AcDbTextStyleTableRecord
  2
ED15
 70
     0
 40
15.0
 41
1.0
 50
0.0
 71
     0
 42
30.0
  3
isocp.shx
  4

  0
ENDTAB
  0
TABLE
  2
VIEW
  5
6
100
AcDbSymbolTable
 70
     0
  0
ENDTAB
  0
TABLE
  2
UCS
  5
7
100
AcDbSymbolTable
 70
     0
  0
ENDTAB
  0
TABLE
  2
APPID
  5
9
100
AcDbSymbolTable
 70
     3
  0
APPID
  5
11
100
AcDbSymbolTableRecord
100
AcDbRegAppTableRecord
  2
ACAD
 70
     0
  0
APPID
  5
ECC
100
AcDbSymbolTableRecord
100
AcDbRegAppTableRecord
  2
CONTENTBLOCKICON
 70
     0
  0
APPID
  5
ECD
100
AcDbSymbolTableRecord
100
AcDbRegAppTableRecord
  2
CONTENTBLOCKDESCRIPTION
 70
     0
  0
ENDTAB
  0
TABLE
  2
DIMSTYLE
  5
A
100
AcDbSymbolTable
 70
     6
  0
DIMSTYLE
105
1D
100
AcDbSymbolTableRecord
100
AcDbDimStyleTableRecord
  2
STANDARD
 70
     0
  3

  4

  5

  6
_OPEN
  7
_OPEN
 40
0.0
 41
15.0
 42
0.625
 43
3.75
 44
1.25
 45
0.0
 46
0.0
 47
0.0
 48
0.0
140
15.0
141
2.5
142
0.0
143
0.0394
144
1.0
145
0.0
146
1.0
147
3.0
 71
     0
 72
     0
 73
     0
 74
     0
 75
     0
 76
     0
 77
     1
 78
     8
170
     0
171
     4
172
     1
173
     1
174
     0
175
     0
176
     0
177
     0
178
     0
270
     2
271
     0
272
     1
273
     8
274
     4
340
331
275
     0
280
     0
281
     0
282
     0
283
     1
284
     8
285
     0
286
     0
287
     3
288
     0
  0
DIMSTYLE
105
397
100
AcDbSymbolTableRecord
100
AcDbDimStyleTableRecord
  2
ED40
 70
     0
  3

  4

  5

  6
_OPEN
  7
_OPEN
 40
0.0
 41
35.0
 42
1.0
 43
3.75
 44
1.25
 45
0.0
 46
0.0
 47
0.0
 48
0.0
140
40.0
141
3.0
142
0.0
143
0.0394
144
1.0
145
0.0
146
1.0
147
3.0
 71
     0
 72
     0
 73
     0
 74
     0
 75
     0
 76
     0
 77
     1
 78
     8
170
     0
171
     4
172
     1
173
     1
174
     0
175
     0
176
     0
177
     0
178
     0
270
     2
271
     0
272
     1
273
     8
274
     4
340
64F
275
     0
280
     0
281
     0
282
     0
283
     1
284
     8
285
     0
286
     0
287
     3
288
     0
  0
DIMSTYLE
105
656
102
{ACAD_REACTORS
330
A42
330
A3E
102
}
100
AcDbSymbolTableRecord
100
AcDbDimStyleTableRecord
  2
ED30
 70
     0
  3

  4

  5

  6
_OPEN
  7
_OPEN
 40
0.0
 41
25.0
 42
1.0
 43
3.75
 44
1.25
 45
0.0
 46
0.0
 47
0.0
 48
0.0
140
30.0
141
3.0
142
0.0
143
0.0394
144
1.0
145
0.0
146
1.0
147
2.0
 71
     0
 72
     0
 73
     0
 74
     0
 75
     0
 76
     0
 77
     1
 78
     8
170
     0
171
     4
172
     1
173
     1
174
     0
175
     0
176
     0
177
     0
178
     0
270
     2
271
     0
272
     1
273
     8
274
     4
340
331
275
     0
280
     0
281
     0
282
     0
283
     1
284
     8
285
     0
286
     0
287
     3
288
     0
  0
DIMSTYLE
105
657
100
AcDbSymbolTableRecord
100
AcDbDimStyleTableRecord
  2
ED20
 70
     0
  3

  4

  5

  6
_OPEN
  7
_OPEN
 40
0.0
 41
20.0
 42
1.0
 43
3.75
 44
1.25
 45
0.0
 46
0.0
 47
0.0
 48
0.0
140
20.0
141
3.0
142
0.0
143
0.0394
144
1.0
145
0.0
146
1.0
147
1.5
 71
     0
 72
     0
 73
     0
 74
     0
 75
     0
 76
     0
 77
     1
 78
     8
170
     0
171
     4
172
     1
173
     1
174
     0
175
     0
176
     0
177
     0
178
     0
270
     2
271
     0
272
     1
273
     8
274
     4
340
5D2
275
     0
280
     0
281
     0
282
     0
283
     1
284
     8
285
     0
286
     0
287
     3
288
     0
  0
DIMSTYLE
105
658
102
{ACAD_REACTORS
330
BA3
330
C16
102
}
100
AcDbSymbolTableRecord
100
AcDbDimStyleTableRecord
  2
ED10
 70
     0
  3

  4

  5

  6
_OPEN
  7
_OPEN
 40
0.0
 41
15.0
 42
1.0
 43
3.75
 44
1.25
 45
0.0
 46
0.0
 47
0.0
 48
0.0
140
10.0
141
3.0
142
0.0
143
0.0394
144
1.0
145
0.0
146
1.0
147
1.5
 71
     0
 72
     0
 73
     0
 74
     0
 75
     0
 76
     0
 77
     1
 78
     8
170
     0
171
     4
172
     1
173
     1
174
     0
175
     0
176
    41
177
    41
178
    41
270
     2
271
     0
272
     1
273
     8
274
     4
340
5D2
275
     0
280
     0
281
     0
282
     0
283
     1
284
     8
285
     0
286
     0
287
     3
288
     0
  0
DIMSTYLE
105
CB9
100
AcDbSymbolTableRecord
100
AcDbDimStyleTableRecord
  2
ED15
 70
     0
  3

  4

  5

  6
_OPEN
  7
_OPEN
 40
0.0
 41
15.0
 42
1.0
 43
3.75
 44
1.25
 45
0.0
 46
0.0
 47
0.0
 48
0.0
140
15.0
141
3.0
142
0.0
143
0.0394
144
1.0
145
0.0
146
1.0
147
1.5
 71
     0
 72
     0
 73
     0
 74
     0
 75
     0
 76
     0
 77
     1
 78
     8
170
     0
171
     4
172
     1
173
     1
174
     0
175
     0
176
     0
177
     0
178
     0
270
     2
271
     0
272
     1
273
     8
274
     4
340
CB8
275
     0
280
     0
281
     0
282
     0
283
     1
284
     8
285
     0
286
     0
287
     3
288
     0
  0
ENDTAB
  0
TABLE
  2
BLOCK_RECORD
  5
1
100
AcDbSymbolTable
 70
    12
  0
BLOCK_RECORD
  5
1A
100
AcDbSymbolTableRecord
100
AcDbBlockTableRecord
  2
*MODEL_SPACE
  0
BLOCK_RECORD
  5
17
100
AcDbSymbolTableRecord
100
AcDbBlockTableRecord
  2
*PAPER_SPACE
  0
BLOCK_RECORD
  5
90
100
AcDbSymbolTableRecord
100
AcDbBlockTableRecord
  2
_OPEN
  0
BLOCK_RECORD
  5
A52
100
AcDbSymbolTableRecord
100
AcDbBlockTableRecord
  2
*D1
  0
BLOCK_RECORD
  5
A5E
100
AcDbSymbolTableRecord
100
AcDbBlockTableRecord
  2
*D2
  0
BLOCK_RECORD
  5
B97
100
AcDbSymbolTableRecord
100
AcDbBlockTableRecord
  2
*D3
  0
BLOCK_RECORD
  5
C0A
100
AcDbSymbolTableRecord
100
AcDbBlockTableRecord
  2
*D4
  0
BLOCK_RECORD
  5
DC4
100
AcDbSymbolTableRecord
100
AcDbBlockTableRecord
  2
*D8
  0
BLOCK_RECORD
  5
DD0
100
AcDbSymbolTableRecord
100
AcDbBlockTableRecord
  2
*D9
  0
BLOCK_RECORD
  5
DDC
100
AcDbSymbolTableRecord
100
AcDbBlockTableRecord
  2
*D10
  0
BLOCK_RECORD
  5
F87
100
AcDbSymbolTableRecord
100
AcDbBlockTableRecord
  2
KSK-200-P
1001
CONTENTBLOCKICON
1071
        0
1004
2800000020000000200000000100040000000000000200000000000000000000000000000000000000000000000080000080000000808000800000008000800080800000C0C0C000808080000000FF0000FF000000FFFF00FF000000FF00FF00FFFF0000FFFFFF00FFFFFFFFFFFFFFFFFFFFFFFFFFFFFFFF
1004
FFFFFFFFFFFFFFFFFFFFFFFFFFFFFFFFFFFFFFFFFFFFFFFFFFFFFFFFFFFFFFFFFFFFFAAFFFFFFFFFFFFFFFFAAAFFFFFFAAAAAAFAAAAAAAAAAAAAAAAAFFAAAAAFAFFFFAFAFBFFFFFFFFFFFFFAFAFFFFAFAFFFFAFAFFFFFFFFFFFFFFFAFAFFFFAFAFFFFAFAFFBFFFFFFFFFFFFAFAFFFFAFAFFFFAFAFFFFFFFF
1004
FFFFFFFAFAFFFFAFAFFFFAFAFFFBFFFFFFFFFFFAFAFFFFAFAFFFFAFAFFFFFAAAAAAAAAFAFAFFFFAFAFFFFAFAFFFFBA7AAAAFFAFAFAFFFFAFAFFFFAFAFFFFFAFFFAAAFAFAFAFFFFAFAFFFFAFAFFFFFAFFFF7AFAFAFAFFFFAFAFFFFAFAFFFFFAAAAAA7AAAAAAAAAAAFAFFFFAFAFFFFFAAAAFFAAFFFFFFFFFFA
1004
A7F77077F77F7AAAAF7AA77F70F7777FAFFFFAFAFFFFFAAAAAAAAAAAAAAAAAAFAFFFFAFAFFFFFAFFFF7AFAFAFAFFFFAFAFFFFAFAFFFFFAFFFA7AFAFAFAFFFFAFAFFFFAFAFFFFFA7A7AAFFAFAFAFFFFAFAFFFFAFAFFFFFAAAAAAAAAFAFAFFFFAFAFFFFAFAFFFFFFFFFFFFFFFAFAFFFFAFAFFFFAFAFFFFFFFF
1004
FFFBFFFAFAFFFFAFAFFFFAFAFDDDDDDDDDDDDDFAFAFFFFAFAFFFFAFAFDFFFFFFFFFFBDFAFAFFFFAFAFFFFAFAFDDDDDDDDDDDDDFAFAFFFFAFAAAAAFFAAAAAAAAAAAAAAAAAFAAAAAAFFFFFFAAFFFFFFFFFFFFFFFFAAAFFFFFFFFFFFFFFFFFFFFFFFFFFFFFFFFFFFFFFFFFFFFFFFFFFFFFFFFFFFFFFFFFFFFFF
1004
FFFFFFFFFFFFFFFFFFFFFFFFFFFFFFFF
  0
ENDTAB
  0
ENDSEC
  0
SECTION
  2
BLOCKS
  0
BLOCK
  5
1B
100
AcDbEntity
  8
0
100
AcDbBlockBegin
  2
*MODEL_SPACE
 70
     0
 10
0.0
 20
0.0
 30
0.0
  3
*MODEL_SPACE
  1

  0
ENDBLK
  5
1C
100
AcDbEntity
  8
0
100
AcDbBlockEnd
  0
BLOCK
  5
18
100
AcDbEntity
 67
     1
  8
0
100
AcDbBlockBegin
  2
*PAPER_SPACE
 70
     0
 10
0.0
 20
0.0
 30
0.0
  3
*PAPER_SPACE
  1

  0
ENDBLK
  5
19
100
AcDbEntity
 67
     1
  8
0
100
AcDbBlockEnd
  0
BLOCK
  5
91
100
AcDbEntity
  8
0
100
AcDbBlockBegin
  2
_OPEN
 70
     0
 10
0.0
 20
0.0
 30
0.0
  3
_OPEN
  1

  0
LINE
  5
92
100
AcDbEntity
  8
0
  6
BYBLOCK
 62
     0
100
AcDbLine
 10
-1.0
 20
0.166667
 30
0.0
 11
0.0
 21
0.0
 31
0.0
  0
LINE
  5
93
100
AcDbEntity
  8
0
  6
BYBLOCK
 62
     0
100
AcDbLine
 10
0.0
 20
0.0
 30
0.0
 11
-1.0
 21
-0.166667
 31
0.0
  0
LINE
  5
94
100
AcDbEntity
  8
0
  6
BYBLOCK
 62
     0
100
AcDbLine
 10
0.0
 20
0.0
 30
0.0
 11
-1.0
 21
0.0
 31
0.0
  0
ENDBLK
  5
95
100
AcDbEntity
  8
0
100
AcDbBlockEnd
  0
BLOCK
  5
C5B
100
AcDbEntity
  8
0
100
AcDbBlockBegin
  2
*D1
 70
     1
 10
0.0
 20
0.0
 30
0.0
  3
*D1
  1

  0
LINE
  5
C5C
100
AcDbEntity
  8
0
  6
BYBLOCK
 62
     0
100
AcDbLine
 10
726.552254
 20
100.0
 30
0.0
 11
694.789782
 21
100.0
 31
0.0
  0
LINE
  5
C5D
100
AcDbEntity
  8
0
  6
BYBLOCK
 62
     0
100
AcDbLine
 10
726.552254
 20
-100.0
 30
0.0
 11
694.789782
 21
-100.0
 31
0.0
  0
LINE
  5
C5E
100
AcDbEntity
  8
0
  6
BYBLOCK
 62
     0
100
AcDbLine
 10
696.039782
 20
80.0
 30
0.0
 11
696.039782
 21
-80.0
 31
0.0
  0
INSERT
  5
C5F
100
AcDbEntity
  8
0
  6
BYBLOCK
 62
     0
100
AcDbBlockReference
  2
_OPEN
 10
696.039782
 20
100.0
 30
0.0
 41
20.0
 42
20.0
 43
20.0
 50
90.0
  0
INSERT
  5
C60
100
AcDbEntity
  8
0
  6
BYBLOCK
 62
     0
100
AcDbBlockReference
  2
_OPEN
 10
696.039782
 20
-100.0
 30
0.0
 41
20.0
 42
20.0
 43
20.0
 50
270.0
  0
MTEXT
  5
C61
100
AcDbEntity
  8
0
  6
BYBLOCK
 62
     0
100
AcDbMText
 10
684.537813
 20
-1.802349
 30
0.0
 40
20.0
 41
0.0
 71
     5
 72
     1
  1
\A1;\U+2205200
  7
ED20
 11
0.0
 21
1.0
 31
0.0
  0
POINT
  5
C62
100
AcDbEntity
  8
DEFPOINTS
  6
BYBLOCK
 62
     0
100
AcDbPoint
 10
727.552254
 20
100.0
 30
0.0
  0
POINT
  5
C63
100
AcDbEntity
  8
DEFPOINTS
  6
BYBLOCK
 62
     0
100
AcDbPoint
 10
727.552254
 20
-100.0
 30
0.0
  0
POINT
  5
C64
100
AcDbEntity
  8
DEFPOINTS
  6
BYBLOCK
 62
     0
100
AcDbPoint
 10
696.039782
 20
-100.0
 30
0.0
  0
ENDBLK
  5
C65
100
AcDbEntity
  8
0
100
AcDbBlockEnd
  0
BLOCK
  5
C43
100
AcDbEntity
  8
0
100
AcDbBlockBegin
  2
*D2
 70
     1
 10
0.0
 20
0.0
 30
0.0
  3
*D2
  1

  0
LINE
  5
C44
100
AcDbEntity
  8
0
  6
BYBLOCK
 62
     0
100
AcDbLine
 10
727.552254
 20
-101.0
 30
0.0
 11
727.552254
 21
-137.577395
 31
0.0
  0
LINE
  5
C45
100
AcDbEntity
  8
0
  6
BYBLOCK
 62
     0
100
AcDbLine
 10
767.552254
 20
-101.0
 30
0.0
 11
767.552254
 21
-137.577395
 31
0.0
  0
LINE
  5
C46
100
AcDbEntity
  8
0
  6
BYBLOCK
 62
     0
100
AcDbLine
 10
707.552254
 20
-136.327395
 30
0.0
 11
687.552254
 21
-136.327395
 31
0.0
  0
LINE
  5
C47
100
AcDbEntity
  8
0
  6
BYBLOCK
 62
     0
100
AcDbLine
 10
787.552254
 20
-136.327395
 30
0.0
 11
807.552254
 21
-136.327395
 31
0.0
  0
LINE
  5
C48
100
AcDbEntity
  8
0
  6
BYBLOCK
 62
     0
100
AcDbLine
 10
727.552254
 20
-136.327395
 30
0.0
 11
767.552254
 21
-136.327395
 31
0.0
  0
INSERT
  5
C49
100
AcDbEntity
  8
0
  6
BYBLOCK
 62
     0
100
AcDbBlockReference
  2
_OPEN
 10
727.552254
 20
-136.327395
 30
0.0
 41
20.0
 42
20.0
 43
20.0
  0
INSERT
  5
C4A
100
AcDbEntity
  8
0
  6
BYBLOCK
 62
     0
100
AcDbBlockReference
  2
_OPEN
 10
767.552254
 20
-136.327395
 30
0.0
 41
20.0
 42
20.0
 43
20.0
 50
180.0
  0
MTEXT
  5
C4B
100
AcDbEntity
  8
0
  6
BYBLOCK
 62
     0
100
AcDbMText
 10
747.552254
 20
-124.827395
 30
0.0
 40
20.0
 41
0.0
 71
     5
 72
     1
  1
\A1;40
  7
ED20
  0
POINT
  5
C4C
100
AcDbEntity
  8
DEFPOINTS
  6
BYBLOCK
 62
     0
100
AcDbPoint
 10
727.552254
 20
-100.0
 30
0.0
  0
POINT
  5
C4D
100
AcDbEntity
  8
DEFPOINTS
  6
BYBLOCK
 62
     0
100
AcDbPoint
 10
767.552254
 20
-100.0
 30
0.0
  0
POINT
  5
C4E
100
AcDbEntity
  8
DEFPOINTS
  6
BYBLOCK
 62
     0
100
AcDbPoint
 10
767.552254
 20
-136.327395
 30
0.0
  0
ENDBLK
  5
C4F
100
AcDbEntity
  8
0
100
AcDbBlockEnd
  0
BLOCK
  5
C50
100
AcDbEntity
  8
0
100
AcDbBlockBegin
  2
*D3
 70
     1
 10
0.0
 20
0.0
 30
0.0
  3
*D3
  1

  0
LINE
  5
C51
100
AcDbEntity
  8
0
  6
BYBLOCK
 62
    41
100
AcDbLine
 10
727.552254
 20
-102.0
 30
0.0
 11
727.552254
 21
-174.709906
 31
0.0
  0
LINE
  5
C52
100
AcDbEntity
  8
0
  6
BYBLOCK
 62
    41
100
AcDbLine
 10
977.547962
 20
-102.0
 30
0.0
 11
977.547962
 21
-174.709906
 31
0.0
  0
LINE
  5
C53
100
AcDbEntity
  8
0
  6
BYBLOCK
 62
    41
100
AcDbLine
 10
742.552254
 20
-173.459906
 30
0.0
 11
962.547962
 21
-173.459906
 31
0.0
  0
INSERT
  5
C54
100
AcDbEntity
  8
0
  6
BYBLOCK
 62
    41
100
AcDbBlockReference
  2
_OPEN
 10
727.552254
 20
-173.459906
 30
0.0
 41
15.0
 42
15.0
 43
15.0
 50
180.0
  0
INSERT
  5
C55
100
AcDbEntity
  8
0
  6
BYBLOCK
 62
    41
100
AcDbBlockReference
  2
_OPEN
 10
977.547962
 20
-173.459906
 30
0.0
 41
15.0
 42
15.0
 43
15.0
  0
MTEXT
  5
C56
100
AcDbEntity
  8
0
  6
BYBLOCK
 62
    41
100
AcDbMText
 10
852.550108
 20
-161.957938
 30
0.0
 40
20.0
 41
0.0
 71
     5
 72
     1
  1
\A1;250
  7
ED20
  0
POINT
  5
C57
100
AcDbEntity
  8
DEFPOINTS
  6
BYBLOCK
 62
     0
100
AcDbPoint
 10
727.552254
 20
-101.0
 30
0.0
  0
POINT
  5
C58
100
AcDbEntity
  8
DEFPOINTS
  6
BYBLOCK
 62
     0
100
AcDbPoint
 10
977.547962
 20
-101.0
 30
0.0
  0
POINT
  5
C59
100
AcDbEntity
  8
DEFPOINTS
  6
BYBLOCK
 62
     0
100
AcDbPoint
 10
977.547962
 20
-173.459906
 30
0.0
  0
ENDBLK
  5
C5A
100
AcDbEntity
  8
0
100
AcDbBlockEnd
  0
BLOCK
  5
C38
100
AcDbEntity
  8
0
100
AcDbBlockBegin
  2
*D4
 70
     1
 10
0.0
 20
0.0
 30
0.0
  3
*D4
  1

  0
LINE
  5
C39
100
AcDbEntity
  8
0
  6
BYBLOCK
 62
    41
100
AcDbLine
 10
767.552254
 20
-101.0
 30
0.0
 11
767.552254
 21
-137.577395
 31
0.0
  0
LINE
  5
C3A
100
AcDbEntity
  8
0
  6
BYBLOCK
 62
    41
100
AcDbLine
 10
937.552254
 20
-101.0
 30
0.0
 11
937.552254
 21
-137.577395
 31
0.0
  0
LINE
  5
C3B
100
AcDbEntity
  8
0
  6
BYBLOCK
 62
    41
100
AcDbLine
 10
782.552254
 20
-136.327395
 30
0.0
 11
922.552254
 21
-136.327395
 31
0.0
  0
INSERT
  5
C3C
100
AcDbEntity
  8
0
  6
BYBLOCK
 62
    41
100
AcDbBlockReference
  2
_OPEN
 10
767.552254
 20
-136.327395
 30
0.0
 41
15.0
 42
15.0
 43
15.0
 50
180.0
  0
INSERT
  5
C3D
100
AcDbEntity
  8
0
  6
BYBLOCK
 62
    41
100
AcDbBlockReference
  2
_OPEN
 10
937.552254
 20
-136.327395
 30
0.0
 41
15.0
 42
15.0
 43
15.0
  0
MTEXT
  5
C3E
100
AcDbEntity
  8
0
  6
BYBLOCK
 62
    41
100
AcDbMText
 10
852.552254
 20
-124.827395
 30
0.0
 40
20.0
 41
0.0
 71
     5
 72
     1
  1
\A1;170
  7
ED20
  0
POINT
  5
C3F
100
AcDbEntity
  8
DEFPOINTS
  6
BYBLOCK
 62
     0
100
AcDbPoint
 10
767.552254
 20
-100.0
 30
0.0
  0
POINT
  5
C40
100
AcDbEntity
  8
DEFPOINTS
  6
BYBLOCK
 62
     0
100
AcDbPoint
 10
937.552254
 20
-100.0
 30
0.0
  0
POINT
  5
C41
100
AcDbEntity
  8
DEFPOINTS
  6
BYBLOCK
 62
     0
100
AcDbPoint
 10
937.552254
 20
-136.327395
 30
0.0
  0
ENDBLK
  5
C42
100
AcDbEntity
  8
0
100
AcDbBlockEnd
  0
BLOCK
  5
DE8
100
AcDbEntity
  8
0
100
AcDbBlockBegin
  2
*D8
 70
     1
 10
0.0
 20
0.0
 30
0.0
  3
*D8
  1

  0
LINE
  5
DE9
100
AcDbEntity
  8
0
  6
BYBLOCK
 62
    41
100
AcDbLine
 10
852.552254
 20
143.0
 30
0.0
 11
852.552254
 21
177.873177
 31
0.0
  0
LINE
  5
DEA
100
AcDbEntity
  8
0
  6
BYBLOCK
 62
    41
100
AcDbLine
 10
987.552254
 20
146.0
 30
0.0
 11
987.552254
 21
177.873177
 31
0.0
  0
LINE
  5
DEB
100
AcDbEntity
  8
0
  6
BYBLOCK
 62
    41
100
AcDbLine
 10
867.552254
 20
176.623177
 30
0.0
 11
972.552254
 21
176.623177
 31
0.0
  0
INSERT
  5
DEC
100
AcDbEntity
  8
0
  6
BYBLOCK
 62
    41
100
AcDbBlockReference
  2
_OPEN
 10
852.552254
 20
176.623177
 30
0.0
 41
15.0
 42
15.0
 43
15.0
 50
180.0
  0
INSERT
  5
DED
100
AcDbEntity
  8
0
  6
BYBLOCK
 62
    41
100
AcDbBlockReference
  2
_OPEN
 10
987.552254
 20
176.623177
 30
0.0
 41
15.0
 42
15.0
 43
15.0
  0
MTEXT
  5
DEE
100
AcDbEntity
  8
0
  6
BYBLOCK
 62
    41
100
AcDbMText
 10
920.052254
 20
185.623177
 30
0.0
 40
15.0
 41
0.0
 71
     5
 72
     1
  1
\A1;135
  7
ED15
  0
POINT
  5
DEF
100
AcDbEntity
  8
DEFPOINTS
  6
BYBLOCK
 62
     0
100
AcDbPoint
 10
852.552254
 20
142.0
 30
0.0
  0
POINT
  5
DF0
100
AcDbEntity
  8
DEFPOINTS
  6
BYBLOCK
 62
     0
100
AcDbPoint
 10
987.552254
 20
145.0
 30
0.0
  0
POINT
  5
DF1
100
AcDbEntity
  8
DEFPOINTS
  6
BYBLOCK
 62
     0
100
AcDbPoint
 10
987.552254
 20
176.623177
 30
0.0
  0
ENDBLK
  5
DF2
100
AcDbEntity
  8
0
100
AcDbBlockEnd
  0
BLOCK
  5
DF3
100
AcDbEntity
  8
0
100
AcDbBlockBegin
  2
*D9
 70
     1
 10
0.0
 20
0.0
 30
0.0
  3
*D9
  1

  0
LINE
  5
DF4
100
AcDbEntity
  8
0
  6
BYBLOCK
 62
    41
100
AcDbLine
 10
988.552254
 20
145.0
 30
0.0
 11
1005.133946
 21
145.0
 31
0.0
  0
LINE
  5
DF5
100
AcDbEntity
  8
0
  6
BYBLOCK
 62
    41
100
AcDbLine
 10
953.552254
 20
100.0
 30
0.0
 11
1005.133946
 21
100.0
 31
0.0
  0
LINE
  5
DF6
100
AcDbEntity
  8
0
  6
BYBLOCK
 62
    41
100
AcDbLine
 10
1003.883946
 20
130.0
 30
0.0
 11
1003.883946
 21
115.0
 31
0.0
  0
INSERT
  5
DF7
100
AcDbEntity
  8
0
  6
BYBLOCK
 62
    41
100
AcDbBlockReference
  2
_OPEN
 10
1003.883946
 20
145.0
 30
0.0
 41
15.0
 42
15.0
 43
15.0
 50
90.0
  0
INSERT
  5
DF8
100
AcDbEntity
  8
0
  6
BYBLOCK
 62
    41
100
AcDbBlockReference
  2
_OPEN
 10
1003.883946
 20
100.0
 30
0.0
 41
15.0
 42
15.0
 43
15.0
 50
270.0
  0
MTEXT
  5
DF9
100
AcDbEntity
  8
0
  6
BYBLOCK
 62
    41
100
AcDbMText
 10
994.883946
 20
122.5
 30
0.0
 40
15.0
 41
0.0
 71
     5
 72
     1
  1
\A1;45
  7
ED15
 11
0.0
 21
1.0
 31
0.0
  0
POINT
  5
DFA
100
AcDbEntity
  8
DEFPOINTS
  6
BYBLOCK
 62
     0
100
AcDbPoint
 10
987.552254
 20
145.0
 30
0.0
  0
POINT
  5
DFB
100
AcDbEntity
  8
DEFPOINTS
  6
BYBLOCK
 62
     0
100
AcDbPoint
 10
952.552254
 20
100.0
 30
0.0
  0
POINT
  5
DFC
100
AcDbEntity
  8
DEFPOINTS
  6
BYBLOCK
 62
     0
100
AcDbPoint
 10
1003.883946
 20
100.0
 30
0.0
  0
ENDBLK
  5
DFD
100
AcDbEntity
  8
0
100
AcDbBlockEnd
  0
BLOCK
  5
DFE
100
AcDbEntity
  8
0
100
AcDbBlockBegin
  2
*D10
 70
     1
 10
0.0
 20
0.0
 30
0.0
  3
*D10
  1

  0
LINE
  5
DFF
100
AcDbEntity
  8
0
  6
BYBLOCK
 62
    41
100
AcDbLine
 10
1728.29072
 20
131.0
 30
0.0
 11
1728.29072
 21
161.701469
 31
0.0
  0
LINE
  5
E00
100
AcDbEntity
  8
0
  6
BYBLOCK
 62
    41
100
AcDbLine
 10
1828.29072
 20
131.0
 30
0.0
 11
1828.29072
 21
161.701469
 31
0.0
  0
LINE
  5
E01
100
AcDbEntity
  8
0
  6
BYBLOCK
 62
    41
100
AcDbLine
 10
1743.29072
 20
160.451469
 30
0.0
 11
1813.29072
 21
160.451469
 31
0.0
  0
INSERT
  5
E02
100
AcDbEntity
  8
0
  6
BYBLOCK
 62
    41
100
AcDbBlockReference
  2
_OPEN
 10
1728.29072
 20
160.451469
 30
0.0
 41
15.0
 42
15.0
 43
15.0
 50
180.0
  0
INSERT
  5
E03
100
AcDbEntity
  8
0
  6
BYBLOCK
 62
    41
100
AcDbBlockReference
  2
_OPEN
 10
1828.29072
 20
160.451469
 30
0.0
 41
15.0
 42
15.0
 43
15.0
  0
MTEXT
  5
E04
100
AcDbEntity
  8
0
  6
BYBLOCK
 62
    41
100
AcDbMText
 10
1778.797002
 20
169.451469
 30
0.0
 40
15.0
 41
0.0
 71
     5
 72
     1
  1
\A1;100
  7
ED15
  0
POINT
  5
E05
100
AcDbEntity
  8
DEFPOINTS
  6
BYBLOCK
 62
     0
100
AcDbPoint
 10
1728.29072
 20
130.0
 30
0.0
  0
POINT
  5
E06
100
AcDbEntity
  8
DEFPOINTS
  6
BYBLOCK
 62
     0
100
AcDbPoint
 10
1828.29072
 20
130.0
 30
0.0
  0
POINT
  5
E07
100
AcDbEntity
  8
DEFPOINTS
  6
BYBLOCK
 62
     0
100
AcDbPoint
 10
1828.29072
 20
160.451469
 30
0.0
  0
ENDBLK
  5
E08
100
AcDbEntity
  8
0
100
AcDbBlockEnd
  0
BLOCK
  5
F88
100
AcDbEntity
  8
0
100
AcDbBlockBegin
  2
KSK-200-P
 70
     0
 10
0.0
 20
0.0
 30
0.0
  3
KSK-200-P
  1

  0
LINE
  5
F89
100
AcDbEntity
  8
V0-OBRYS
  6
CONTINUOUS
 62
    90
100
AcDbLine
 10
136.236589
 20
10.000004
 30
0.0
 11
213.7527
 21
10.000004
 31
0.0
  0
LINE
  5
F8A
100
AcDbEntity
  8
V0-OBRYS
  6
CONTINUOUS
 62
    90
100
AcDbLine
 10
115.973956
 20
-9.999996
 30
0.0
 11
213.7527
 21
-9.999996
 31
0.0
  0
ARC
  5
F8B
100
AcDbEntity
  8
V0-OBRYS
  6
CONTINUOUS
 62
    90
100
AcDbCircle
 10
158.7527
 20
100.000004
 30
0.0
 40
5.0
100
AcDbArc
 50
90.0
 51
180.0
  0
ARC
  5
F8C
100
AcDbEntity
  8
V0-OBRYS
  6
CONTINUOUS
 62
    90
100
AcDbCircle
 10
158.7527
 20
-99.999996
 30
0.0
 40
5.0
100
AcDbArc
 50
180.0
 51
270.0
  0
LINE
  5
F8D
100
AcDbEntity
  8
V0-VYPLNE
  6
DASHDOT
 62
    63
100
AcDbLine
 10
-41.2473
 20
0.000004
 30
0.0
 11
208.7527
 21
0.000004
 31
0.0
  0
LINE
  5
F8E
100
AcDbEntity
  8
V0-OBRYS
  6
DASHED
 62
    52
100
AcDbLine
 10
33.561109
 20
-89.062375
 30
0.0
 11
134.058848
 21
88.347413
 31
0.0
  0
ARC
  5
F8F
100
AcDbEntity
  8
V0-OBRYS
  6
CONTINUOUS
 62
    90
100
AcDbCircle
 10
83.7527
 20
0.000004
 30
0.0
 40
37.0
100
AcDbArc
 50
15.68035
 51
90.0
  0
ARC
  5
F90
100
AcDbEntity
  8
V0-OBRYS
  6
CONTINUOUS
 62
    90
100
AcDbCircle
 10
83.7527
 20
0.000004
 30
0.0
 40
43.0
100
AcDbArc
 50
13.447727
 51
90.0
  0
LINE
  5
F91
100
AcDbEntity
  8
V0-OBRYS
  6
CONTINUOUS
 62
    90
100
AcDbLine
 10
138.7527
 20
50.000004
 30
0.0
 11
138.7527
 21
10.000004
 31
0.0
  0
LINE
  5
F92
100
AcDbEntity
  8
V0-OBRYS
  6
CONTINUOUS
 62
    90
100
AcDbLine
 10
68.7527
 20
6.213207
 30
0.0
 11
68.7527
 21
50.000004
 31
0.0
  0
ARC
  5
F93
100
AcDbEntity
  8
V0-VYPLNE
  6
DASHDOT
 62
    63
100
AcDbCircle
 10
83.7527
 20
0.000004
 30
0.0
 40
40.0
100
AcDbArc
 50
260.720854
 51
98.569564
  0
LINE
  5
F94
100
AcDbEntity
  8
V0-OBRYS
  6
CONTINUOUS
 62
    90
100
AcDbLine
 10
-41.2473
 20
0.000004
 30
0.0
 11
-41.2473
 21
100.000004
 31
0.0
  0
LINE
  5
F95
100
AcDbEntity
  8
V0-OBRYS
  6
CONTINUOUS
 62
    90
100
AcDbLine
 10
-1.2473
 20
0.000004
 30
0.0
 11
-1.2473
 21
100.000004
 31
0.0
  0
LINE
  5
F96
100
AcDbEntity
  8
V0-OBRYS
  6
CONTINUOUS
 62
    90
100
AcDbLine
 10
13.7527
 20
100.000004
 30
0.0
 11
13.7527
 21
0.000004
 31
0.0
  0
LINE
  5
F97
100
AcDbEntity
  8
V0-OBRYS
  6
CONTINUOUS
 62
    90
100
AcDbLine
 10
153.7527
 20
100.000004
 30
0.0
 11
153.7527
 21
10.000004
 31
0.0
  0
ARC
  5
F98
100
AcDbEntity
  8
V0-OBRYS
  6
CONTINUOUS
 62
    90
100
AcDbCircle
 10
8.7527
 20
-99.999996
 30
0.0
 40
5.0
100
AcDbArc
 50
270.0
 51
0.0
  0
LINE
  5
F99
100
AcDbEntity
  8
V0-OBRYS
  6
CONTINUOUS
 62
    90
100
AcDbLine
 10
-41.2473
 20
0.000004
 30
0.0
 11
-41.2473
 21
-99.999996
 31
0.0
  0
LINE
  5
F9A
100
AcDbEntity
  8
V0-OBRYS
  6
CONTINUOUS
 62
    90
100
AcDbLine
 10
-1.2473
 20
0.000004
 30
0.0
 11
-1.2473
 21
-99.999996
 31
0.0
  0
LINE
  5
F9B
100
AcDbEntity
  8
V0-OBRYS
  6
CONTINUOUS
 62
    90
100
AcDbLine
 10
-41.2473
 20
-99.999996
 30
0.0
 11
-1.2473
 21
-99.999996
 31
0.0
  0
LINE
  5
F9C
100
AcDbEntity
  8
V0-OBRYS
  6
CONTINUOUS
 62
    90
100
AcDbLine
 10
3.7527
 20
-104.999996
 30
0.0
 11
8.7527
 21
-104.999996
 31
0.0
  0
ARC
  5
F9D
100
AcDbEntity
  8
V0-OBRYS
  6
CONTINUOUS
 62
    90
100
AcDbCircle
 10
3.7527
 20
-99.999996
 30
0.0
 40
5.0
100
AcDbArc
 50
180.0
 51
270.0
  0
POINT
  5
F9E
100
AcDbEntity
  8
V0-VYPLNE
  6
CONTINUOUS
 62
     7
100
AcDbPoint
 10
0.000016
 20
0.000004
 30
0.0
  0
LINE
  5
F9F
100
AcDbEntity
  8
V0-OBRYS
  6
CONTINUOUS
 62
    90
100
AcDbLine
 10
153.7527
 20
-99.999996
 30
0.0
 11
153.7527
 21
-9.999996
 31
0.0
  0
LINE
  5
FA0
100
AcDbEntity
  8
V0-OBRYS
  6
CONTINUOUS
 62
    90
100
AcDbLine
 10
13.7527
 20
-99.999996
 30
0.0
 11
13.7527
 21
0.000004
 31
0.0
  0
LINE
  5
FA1
100
AcDbEntity
  8
V0-OBRYS
  6
CONTINUOUS
 62
    90
100
AcDbLine
 10
153.7527
 20
-99.999996
 30
0.0
 11
13.7527
 21
-99.999996
 31
0.0
  0
CIRCLE
  5
FA2
100
AcDbEntity
  8
V0-OBRYS
  6
CONTINUOUS
 62
    90
100
AcDbCircle
 10
83.7527
 20
0.000004
 30
0.0
 40
5.0
  0
LINE
  5
FA3
100
AcDbEntity
  8
V0-OBRYS
  6
CONTINUOUS
 62
    90
100
AcDbLine
 10
68.7527
 20
-9.999996
 30
0.0
 11
111.63138
 21
-9.999996
 31
0.0
  0
ARC
  5
FA4
100
AcDbEntity
  8
V0-OBRYS
  6
CONTINUOUS
 62
    90
100
AcDbCircle
 10
83.7527
 20
0.000004
 30
0.0
 40
37.0
100
AcDbArc
 50
270.0
 51
344.31965
  0
ARC
  5
FA5
100
AcDbEntity
  8
V0-OBRYS
  6
CONTINUOUS
 62
    90
100
AcDbCircle
 10
83.7527
 20
0.000004
 30
0.0
 40
43.0
100
AcDbArc
 50
270.0
 51
346.552273
  0
LINE
  5
FA6
100
AcDbEntity
  8
V0-OBRYS
  6
CONTINUOUS
 62
    90
100
AcDbLine
 10
68.7527
 20
10.000004
 30
0.0
 11
131.63138
 21
10.000004
 31
0.0
  0
LINE
  5
FA7
100
AcDbEntity
  8
V0-OBRYS
  6
CONTINUOUS
 62
    90
100
AcDbLine
 10
138.7527
 20
-49.999996
 30
0.0
 11
68.7527
 21
-49.999996
 31
0.0
  0
LINE
  5
FA8
100
AcDbEntity
  8
V0-OBRYS
  6
CONTINUOUS
 62
    90
100
AcDbLine
 10
68.7527
 20
-49.999996
 30
0.0
 11
68.7527
 21
-4.019578
 31
0.0
  0
ARC
  5
FA9
100
AcDbEntity
  8
V0-OBRYS
  6
CONTINUOUS
 62
    90
100
AcDbCircle
 10
83.7527
 20
-39.999996
 30
0.0
 40
3.0
100
AcDbArc
 50
90.0
 51
270.0
  0
LINE
  5
FAA
100
AcDbEntity
  8
V0-OBRYS
  6
CONTINUOUS
 62
    90
100
AcDbLine
 10
68.7527
 20
1.000004
 30
0.0
 11
68.7527
 21
10.000004
 31
0.0
  0
LINE
  5
FAB
100
AcDbEntity
  8
V0-OBRYS
  6
CONTINUOUS
 62
    90
100
AcDbLine
 10
78.310024
 20
-12.971833
 30
0.0
 11
78.310024
 21
-9.874238
 31
0.0
  0
LINE
  5
FAC
100
AcDbEntity
  8
V0-OBRYS
  6
CONTINUOUS
 62
    90
100
AcDbLine
 10
75.988372
 20
-0.999996
 30
0.0
 11
75.988372
 21
1.000004
 31
0.0
  0
LINE
  5
FAD
100
AcDbEntity
  8
V0-OBRYS
  6
CONTINUOUS
 62
    90
100
AcDbLine
 10
71.947364
 20
-0.999996
 30
0.0
 11
71.947364
 21
1.000004
 31
0.0
  0
LINE
  5
FAE
100
AcDbEntity
  8
V0-OBRYS
  6
CONTINUOUS
 62
    90
100
AcDbLine
 10
71.947364
 20
-14.604973
 30
0.0
 11
75.988372
 21
-14.604973
 31
0.0
  0
LINE
  5
FAF
100
AcDbEntity
  8
V0-OBRYS
  6
CONTINUOUS
 62
    90
100
AcDbLine
 10
75.988372
 20
-14.604973
 30
0.0
 11
75.988372
 21
-9.999996
 31
0.0
  0
LINE
  5
FB0
100
AcDbEntity
  8
V0-OBRYS
  6
CONTINUOUS
 62
    90
100
AcDbLine
 10
71.947364
 20
-14.604973
 30
0.0
 11
71.947364
 21
-9.999996
 31
0.0
  0
LINE
  5
FB1
100
AcDbEntity
  8
V0-OBRYS
  6
CONTINUOUS
 62
    90
100
AcDbLine
 10
70.05679
 20
-9.87677
 30
0.0
 11
70.05679
 21
-12.971833
 31
0.0
  0
LINE
  5
FB2
100
AcDbEntity
  8
V0-OBRYS
  6
CONTINUOUS
 62
    90
100
AcDbLine
 10
68.7527
 20
-9.999996
 30
0.0
 11
68.7527
 21
-0.999996
 31
0.0
  0
LINE
  5
FB3
100
AcDbEntity
  8
V0-OBRYS
  6
CONTINUOUS
 62
    90
100
AcDbLine
 10
70.05679
 20
-12.971833
 30
0.0
 11
78.310024
 21
-12.971833
 31
0.0
  0
LINE
  5
FB4
100
AcDbEntity
  8
V0-OBRYS
  6
CONTINUOUS
 62
    90
100
AcDbLine
 10
68.7527
 20
-0.999996
 30
0.0
 11
78.853721
 21
-0.999996
 31
0.0
  0
LINE
  5
FB5
100
AcDbEntity
  8
V0-OBRYS
  6
CONTINUOUS
 62
    90
100
AcDbLine
 10
68.7527
 20
1.000004
 30
0.0
 11
78.853721
 21
1.000004
 31
0.0
  0
LINE
  5
FB6
100
AcDbEntity
  8
V0-OBRYS
  6
CONTINUOUS
 62
    90
100
AcDbLine
 10
78.310024
 20
12.971841
 30
0.0
 11
78.310024
 21
9.874246
 31
0.0
  0
LINE
  5
FB7
100
AcDbEntity
  8
V0-OBRYS
  6
CONTINUOUS
 62
    90
100
AcDbLine
 10
71.947364
 20
12.971418
 30
0.0
 11
71.947364
 21
9.962098
 31
0.0
  0
LINE
  5
FB8
100
AcDbEntity
  8
V0-OBRYS
  6
CONTINUOUS
 62
    90
100
AcDbLine
 10
75.988372
 20
12.8842
 30
0.0
 11
75.988372
 21
9.960832
 31
0.0
  0
LINE
  5
FB9
100
AcDbEntity
  8
V0-OBRYS
  6
CONTINUOUS
 62
    90
100
AcDbLine
 10
70.05679
 20
9.876778
 30
0.0
 11
70.05679
 21
12.971841
 31
0.0
  0
LINE
  5
FBA
100
AcDbEntity
  8
V0-OBRYS
  6
CONTINUOUS
 62
    90
100
AcDbLine
 10
70.05679
 20
12.971841
 30
0.0
 11
78.310024
 21
12.971841
 31
0.0
  0
LINE
  5
FBB
100
AcDbEntity
  8
V0-OBRYS
  6
CONTINUOUS
 62
    90
100
AcDbLine
 10
138.7527
 20
-9.999996
 30
0.0
 11
138.7527
 21
-49.999996
 31
0.0
  0
LINE
  5
FBC
100
AcDbEntity
  8
V0-OBRYS
100
AcDbLine
 10
138.7527
 20
-9.999996
 30
0.0
 11
138.7527
 21
-40.85786
 31
0.0
  0
LINE
  5
FBD
100
AcDbEntity
  8
V0-OBRYS
100
AcDbLine
 10
138.7527
 20
-9.999996
 30
0.0
 11
138.7527
 21
-40.85786
 31
0.0
  0
CIRCLE
  5
FBE
100
AcDbEntity
  8
V0-OBRYS
  6
CONTINUOUS
 62
    90
100
AcDbCircle
 10
123.7527
 20
0.000004
 30
0.0
 40
3.0
  0
CIRCLE
  5
FBF
100
AcDbEntity
  8
V0-OBRYS
  6
CONTINUOUS
 62
    90
100
AcDbCircle
 10
123.7527
 20
0.000004
 30
0.0
 40
6.0
  0
LINE
  5
FC0
100
AcDbEntity
  8
V0-OBRYS
  6
CONTINUOUS
 62
    90
100
AcDbLine
 10
96.63163
 20
9.987026
 30
0.0
 11
96.63163
 21
-9.900361
 31
0.0
  0
LINE
  5
FC1
100
AcDbEntity
  8
V0-OBRYS
  6
CONTINUOUS
 62
    90
100
AcDbLine
 10
108.549904
 20
-13.081471
 30
0.0
 11
110.671225
 21
-15.202792
 31
0.0
  0
LINE
  5
FC2
100
AcDbEntity
  8
V0-OBRYS
  6
CONTINUOUS
 62
    90
100
AcDbLine
 10
110.671225
 20
-15.202792
 30
0.0
 11
120.714393
 21
-5.159623
 31
0.0
  0
LINE
  5
FC3
100
AcDbEntity
  8
V0-OBRYS
  6
CONTINUOUS
 62
    90
100
AcDbLine
 10
108.549904
 20
-13.081471
 30
0.0
 11
118.593073
 21
-3.038303
 31
0.0
  0
LINE
  5
FC4
100
AcDbEntity
  8
V0-OBRYS
  6
CONTINUOUS
 62
    90
100
AcDbLine
 10
136.834175
 20
15.2028
 30
0.0
 11
138.955496
 21
13.081479
 31
0.0
  0
LINE
  5
FC5
100
AcDbEntity
  8
V0-OBRYS
  6
CONTINUOUS
 62
    90
100
AcDbLine
 10
136.834175
 20
15.2028
 30
0.0
 11
126.791007
 21
5.159631
 31
0.0
  0
LINE
  5
FC6
100
AcDbEntity
  8
V0-OBRYS
  6
CONTINUOUS
 62
    90
100
AcDbLine
 10
138.955496
 20
13.081479
 30
0.0
 11
128.912327
 21
3.038311
 31
0.0
  0
ARC
  5
FC7
100
AcDbEntity
  8
V0-OBRYS
  6
CONTINUOUS
 62
    90
100
AcDbCircle
 10
8.7527
 20
100.000004
 30
0.0
 40
5.0
100
AcDbArc
 50
0.0
 51
90.0
  0
LINE
  5
FC8
100
AcDbEntity
  8
V0-OBRYS
  6
CONTINUOUS
 62
    90
100
AcDbLine
 10
-41.2473
 20
100.000004
 30
0.0
 11
-1.2473
 21
100.000004
 31
0.0
  0
ARC
  5
FC9
100
AcDbEntity
  8
V0-OBRYS
  6
CONTINUOUS
 62
    90
100
AcDbCircle
 10
3.7527
 20
100.000004
 30
0.0
 40
5.0
100
AcDbArc
 50
90.0
 51
180.0
  0
LINE
  5
FCA
100
AcDbEntity
  8
V0-OBRYS
  6
CONTINUOUS
 62
    90
100
AcDbLine
 10
3.7527
 20
105.000004
 30
0.0
 11
8.7527
 21
105.000004
 31
0.0
  0
MTEXT
  5
FCB
100
AcDbEntity
  8
V0-NAZVY
100
AcDbMText
 10
83.33252
 20
77.854282
 30
0.0
 40
20.0
 41
164.5124
 71
     5
 72
     5
  1
KSK-200
  7
ED10
  0
LINE
  5
FCC
100
AcDbEntity
  8
V0-OBRYS
  6
CONTINUOUS
 62
    90
100
AcDbLine
 10
68.7527
 20
50.000004
 30
0.0
 11
138.7527
 21
50.000004
 31
0.0
  0
ARC
  5
FCD
100
AcDbEntity
  8
V0-OBRYS
  6
CONTINUOUS
 62
    90
100
AcDbCircle
 10
83.7527
 20
40.000004
 30
0.0
 40
3.0
100
AcDbArc
 50
90.0
 51
270.0
  0
LINE
  5
FCE
100
AcDbEntity
  8
V0-OBRYS
  6
CONTINUOUS
 62
    90
100
AcDbLine
 10
153.7527
 20
100.000004
 30
0.0
 11
13.7527
 21
100.000004
 31
0.0
  0
LINE
  5
FCF
100
AcDbEntity
  8
V0-OBRYS
  6
CONTINUOUS
 62
    90
100
AcDbLine
 10
208.7527
 20
10.000004
 30
0.0
 11
208.7527
 21
100.000004
 31
0.0
  0
LINE
  5
FD0
100
AcDbEntity
  8
V0-OBRYS
  6
CONTINUOUS
 62
    90
100
AcDbLine
 10
168.7527
 20
10.000004
 30
0.0
 11
168.7527
 21
100.000004
 31
0.0
  0
LINE
  5
FD1
100
AcDbEntity
  8
V0-OBRYS
  6
CONTINUOUS
 62
    90
100
AcDbLine
 10
208.7527
 20
-9.999996
 30
0.0
 11
208.7527
 21
-99.999996
 31
0.0
  0
LINE
  5
FD2
100
AcDbEntity
  8
V0-OBRYS
  6
CONTINUOUS
 62
    90
100
AcDbLine
 10
168.7527
 20
-9.999996
 30
0.0
 11
168.7527
 21
-99.999996
 31
0.0
  0
LINE
  5
FD3
100
AcDbEntity
  8
V0-OBRYS
  6
CONTINUOUS
 62
    90
100
AcDbLine
 10
208.7527
 20
-99.999996
 30
0.0
 11
168.7527
 21
-99.999996
 31
0.0
  0
LINE
  5
FD4
100
AcDbEntity
  8
V0-OBRYS
  6
CONTINUOUS
 62
    90
100
AcDbLine
 10
163.7527
 20
-104.999996
 30
0.0
 11
158.7527
 21
-104.999996
 31
0.0
  0
ARC
  5
FD5
100
AcDbEntity
  8
V0-OBRYS
  6
CONTINUOUS
 62
    90
100
AcDbCircle
 10
163.7527
 20
-99.999996
 30
0.0
 40
5.0
100
AcDbArc
 50
270.0
 51
0.0
  0
POINT
  5
FD6
100
AcDbEntity
  8
V0-VYPLNE
  6
CONTINUOUS
 62
     7
100
AcDbPoint
 10
168.7527
 20
0.000004
 30
0.0
  0
LINE
  5
FD7
100
AcDbEntity
  8
V0-OBRYS
  6
CONTINUOUS
 62
    90
100
AcDbLine
 10
218.7527
 20
-4.999996
 30
0.0
 11
218.7527
 21
5.000004
 31
0.0
  0
LINE
  5
FD8
100
AcDbEntity
  8
V0-OBRYS
  6
CONTINUOUS
 62
    90
100
AcDbLine
 10
218.7527
 20
-4.999996
 30
0.0
 11
213.7527
 21
-9.999996
 31
0.0
  0
LINE
  5
FD9
100
AcDbEntity
  8
V0-OBRYS
  6
CONTINUOUS
 62
    90
100
AcDbLine
 10
213.7527
 20
10.000004
 30
0.0
 11
218.7527
 21
5.000004
 31
0.0
  0
LINE
  5
FDA
100
AcDbEntity
  8
V0-OBRYS
  6
CONTINUOUS
 62
    90
100
AcDbLine
 10
208.7527
 20
100.000004
 30
0.0
 11
168.7527
 21
100.000004
 31
0.0
  0
ARC
  5
FDB
100
AcDbEntity
  8
V0-OBRYS
  6
CONTINUOUS
 62
    90
100
AcDbCircle
 10
163.7527
 20
100.000004
 30
0.0
 40
5.0
100
AcDbArc
 50
0.0
 51
90.0
  0
LINE
  5
FDC
100
AcDbEntity
  8
V0-OBRYS
  6
CONTINUOUS
 62
    90
100
AcDbLine
 10
163.7527
 20
105.000004
 30
0.0
 11
158.7527
 21
105.000004
 31
0.0
  0
ENDBLK
  5
FDD
100
AcDbEntity
  8
0
100
AcDbBlockEnd
  0
ENDSEC
  0
SECTION
  2
ENTITIES
  0
DIMENSION
  5
A3E
100
AcDbEntity
  8
V0-VYPLNE
  6
CONTINUOUS
 62
    41
100
AcDbDimension
  2
*D2
 10
767.552254
 20
-136.327395
 30
0.0
 11
747.552254
 21
-136.327395
 31
0.0
 70
   160
  3
ED20
100
AcDbAlignedDimension
 13
727.552254
 23
-100.0
 33
0.0
 14
767.552254
 24
-100.0
 34
0.0
100
AcDbRotatedDimension
1001
ACAD
1000
DSTYLE
1002
{
1070
    40
1040
1.0
1002
}
  0
LINE
  5
A3F
100
AcDbEntity
  8
V0-OBRYS
  6
CONTINUOUS
 62
    90
100
AcDbLine
 10
727.552254
 20
-100.0
 30
0.0
 11
767.552254
 21
-100.0
 31
0.0
  0
LINE
  5
A40
100
AcDbEntity
  8
V0-OBRYS
  6
CONTINUOUS
 62
    90
100
AcDbLine
 10
727.552254
 20
100.0
 30
0.0
 11
767.552254
 21
100.0
 31
0.0
  0
LINE
  5
A41
100
AcDbEntity
  8
V0-VYPLNE
  6
DASHDOT
 62
    63
100
AcDbLine
 10
722.552254
 20
0.0
 30
0.0
 11
989.151171
 21
0.0
 31
0.0
  0
DIMENSION
  5
A42
100
AcDbEntity
  8
V0-VYPLNE
  6
CONTINUOUS
 62
    41
100
AcDbDimension
  2
*D1
 10
696.039782
 20
-100.0
 30
0.0
 11
696.039782
 21
-1.802349
 31
0.0
 70
   160
  1
%%c<>
  3
ED20
100
AcDbAlignedDimension
 13
727.552254
 23
100.0
 33
0.0
 14
727.552254
 24
-100.0
 34
0.0
 50
90.0
100
AcDbRotatedDimension
1001
ACAD
1000
DSTYLE
1002
{
1070
    40
1040
1.0
1002
}
  0
LINE
  5
A43
100
AcDbEntity
  8
V0-OBRYS
  6
CONTINUOUS
 62
    90
100
AcDbLine
 10
727.552254
 20
0.0
 30
0.0
 11
727.552254
 21
100.0
 31
0.0
  0
LINE
  5
A44
100
AcDbEntity
  8
V0-OBRYS
  6
CONTINUOUS
 62
    90
100
AcDbLine
 10
727.552254
 20
0.0
 30
0.0
 11
727.552254
 21
-100.0
 31
0.0
  0
POINT
  5
A45
100
AcDbEntity
  8
V0-VYPLNE
  6
CONTINUOUS
 62
     7
100
AcDbPoint
 10
768.79957
 20
0.0
 30
0.0
  0
LINE
  5
A46
100
AcDbEntity
  8
V0-OBRYS
  6
CONTINUOUS
 62
    90
100
AcDbLine
 10
767.552254
 20
0.0
 30
0.0
 11
767.552254
 21
100.0
 31
0.0
  0
LINE
  5
A47
100
AcDbEntity
  8
V0-OBRYS
  6
CONTINUOUS
 62
    90
100
AcDbLine
 10
782.552254
 20
100.0
 30
0.0
 11
782.552254
 21
0.0
 31
0.0
  0
LINE
  5
A48
100
AcDbEntity
  8
V0-OBRYS
  6
CONTINUOUS
 62
    90
100
AcDbLine
 10
782.552254
 20
-100.0
 30
0.0
 11
782.552254
 21
0.0
 31
0.0
  0
LINE
  5
A49
100
AcDbEntity
  8
V0-OBRYS
  6
CONTINUOUS
 62
    90
100
AcDbLine
 10
767.552254
 20
0.0
 30
0.0
 11
767.552254
 21
-100.0
 31
0.0
  0
ARC
  5
A4B
100
AcDbEntity
  8
V0-OBRYS
  6
CONTINUOUS
 62
    90
100
AcDbCircle
 10
772.552254
 20
-100.0
 30
0.0
 40
5.0
100
AcDbArc
 50
180.0
 51
270.0
  0
ARC
  5
A4C
100
AcDbEntity
  8
V0-OBRYS
  6
CONTINUOUS
 62
    90
100
AcDbCircle
 10
777.552254
 20
-100.0
 30
0.0
 40
5.0
100
AcDbArc
 50
270.0
 51
0.0
  0
LINE
  5
A4D
100
AcDbEntity
  8
V0-OBRYS
  6
CONTINUOUS
 62
    90
100
AcDbLine
 10
772.552254
 20
-105.0
 30
0.0
 11
777.552254
 21
-105.0
 31
0.0
  0
ARC
  5
A4F
100
AcDbEntity
  8
V0-OBRYS
  6
CONTINUOUS
 62
    90
100
AcDbCircle
 10
772.552254
 20
100.0
 30
0.0
 40
5.0
100
AcDbArc
 50
90.0
 51
180.0
  0
ARC
  5
A50
100
AcDbEntity
  8
V0-OBRYS
  6
CONTINUOUS
 62
    90
100
AcDbCircle
 10
777.552254
 20
100.0
 30
0.0
 40
5.0
100
AcDbArc
 50
0.0
 51
90.0
  0
LINE
  5
A51
100
AcDbEntity
  8
V0-OBRYS
  6
CONTINUOUS
 62
    90
100
AcDbLine
 10
772.552254
 20
105.0
 30
0.0
 11
777.552254
 21
105.0
 31
0.0
  0
LINE
  5
B85
100
AcDbEntity
  8
V0-OBRYS
  6
CONTINUOUS
 62
    90
100
AcDbLine
 10
922.552254
 20
-100.0
 30
0.0
 11
782.552254
 21
-100.0
 31
0.0
  0
LINE
  5
B86
100
AcDbEntity
  8
V0-OBRYS
  6
CONTINUOUS
 62
    90
100
AcDbLine
 10
922.552254
 20
100.0
 30
0.0
 11
782.552254
 21
100.0
 31
0.0
  0
LINE
  5
B88
100
AcDbEntity
  8
V0-OBRYS
  6
CONTINUOUS
 62
    90
100
AcDbLine
 10
977.552254
 20
0.0
 30
0.0
 11
977.552254
 21
100.0
 31
0.0
  0
LINE
  5
B89
100
AcDbEntity
  8
V0-OBRYS
  6
CONTINUOUS
 62
    90
100
AcDbLine
 10
937.552254
 20
0.0
 30
0.0
 11
937.552254
 21
100.0
 31
0.0
  0
LINE
  5
B8A
100
AcDbEntity
  8
V0-OBRYS
  6
CONTINUOUS
 62
    90
100
AcDbLine
 10
922.552254
 20
100.0
 30
0.0
 11
922.552254
 21
0.0
 31
0.0
  0
POINT
  5
B8B
100
AcDbEntity
  8
V0-VYPLNE
  6
CONTINUOUS
 62
     7
100
AcDbPoint
 10
937.552254
 20
0.0
 30
0.0
  0
LINE
  5
B8C
100
AcDbEntity
  8
V0-OBRYS
  6
CONTINUOUS
 62
    90
100
AcDbLine
 10
977.552254
 20
-100.0
 30
0.0
 11
937.552254
 21
-100.0
 31
0.0
  0
LINE
  5
B8D
100
AcDbEntity
  8
V0-OBRYS
  6
CONTINUOUS
 62
    90
100
AcDbLine
 10
977.552254
 20
0.0
 30
0.0
 11
977.552254
 21
-100.0
 31
0.0
  0
LINE
  5
B8E
100
AcDbEntity
  8
V0-OBRYS
  6
CONTINUOUS
 62
    90
100
AcDbLine
 10
937.552254
 20
0.0
 30
0.0
 11
937.552254
 21
-100.0
 31
0.0
  0
LINE
  5
B8F
100
AcDbEntity
  8
V0-OBRYS
  6
CONTINUOUS
 62
    90
100
AcDbLine
 10
922.552254
 20
-100.0
 30
0.0
 11
922.552254
 21
0.0
 31
0.0
  0
LINE
  5
B90
100
AcDbEntity
  8
V0-OBRYS
  6
CONTINUOUS
 62
    90
100
AcDbLine
 10
932.552254
 20
-105.0
 30
0.0
 11
927.552254
 21
-105.0
 31
0.0
  0
ARC
  5
B91
100
AcDbEntity
  8
V0-OBRYS
  6
CONTINUOUS
 62
    90
100
AcDbCircle
 10
932.552254
 20
-100.0
 30
0.0
 40
5.0
100
AcDbArc
 50
270.0
 51
0.0
  0
ARC
  5
B92
100
AcDbEntity
  8
V0-OBRYS
  6
CONTINUOUS
 62
    90
100
AcDbCircle
 10
927.552254
 20
-100.0
 30
0.0
 40
5.0
100
AcDbArc
 50
180.0
 51
270.0
  0
LINE
  5
B93
100
AcDbEntity
  8
V0-OBRYS
  6
CONTINUOUS
 62
    90
100
AcDbLine
 10
977.552254
 20
100.0
 30
0.0
 11
937.552254
 21
100.0
 31
0.0
  0
LINE
  5
B94
100
AcDbEntity
  8
V0-OBRYS
  6
CONTINUOUS
 62
    90
100
AcDbLine
 10
932.552254
 20
105.0
 30
0.0
 11
927.552254
 21
105.0
 31
0.0
  0
ARC
  5
B95
100
AcDbEntity
  8
V0-OBRYS
  6
CONTINUOUS
 62
    90
100
AcDbCircle
 10
932.552254
 20
100.0
 30
0.0
 40
5.0
100
AcDbArc
 50
0.0
 51
90.0
  0
ARC
  5
B96
100
AcDbEntity
  8
V0-OBRYS
  6
CONTINUOUS
 62
    90
100
AcDbCircle
 10
927.552254
 20
100.0
 30
0.0
 40
5.0
100
AcDbArc
 50
90.0
 51
180.0
  0
DIMENSION
  5
BA3
100
AcDbEntity
  8
DEFPOINTS
  6
CONTINUOUS
 62
    90
100
AcDbDimension
  2
*D3
 10
977.547962
 20
-173.459906
 30
0.0
 11
852.550108
 21
-173.459906
 31
0.0
 70
   160
  3
ED10
100
AcDbAlignedDimension
 13
727.552254
 23
-101.0
 33
0.0
 14
977.547962
 24
-101.0
 34
0.0
100
AcDbRotatedDimension
1001
ACAD
1000
DSTYLE
1002
{
1070
    40
1040
1.0
1002
}
  0
DIMENSION
  5
C16
100
AcDbEntity
  8
DEFPOINTS
  6
CONTINUOUS
 62
    90
100
AcDbDimension
  2
*D4
 10
937.552254
 20
-136.327395
 30
0.0
 11
852.552254
 21
-136.327395
 31
0.0
 70
   160
  3
ED10
100
AcDbAlignedDimension
 13
767.552254
 23
-100.0
 33
0.0
 14
937.552254
 24
-100.0
 34
0.0
100
AcDbRotatedDimension
1001
ACAD
1000
DSTYLE
1002
{
1070
    40
1040
1.0
1002
}
  0
LINE
  5
C6C
100
AcDbEntity
  8
V0-OBRYS
  6
CONTINUOUS
 62
    90
100
AcDbLine
 10
922.552254
 20
-235.323996
 30
0.0
 11
922.552254
 21
-325.323996
 31
0.0
  0
LINE
  5
C6D
100
AcDbEntity
  8
V0-OBRYS
  6
CONTINUOUS
 62
    90
100
AcDbLine
 10
937.552254
 20
-325.323996
 30
0.0
 11
937.552254
 21
-235.323996
 31
0.0
  0
LINE
  5
C6E
100
AcDbEntity
  8
V0-OBRYS
  6
CONTINUOUS
 62
    90
100
AcDbLine
 10
977.552254
 20
-325.323996
 30
0.0
 11
977.552254
 21
-235.323996
 31
0.0
  0
LINE
  5
C6F
100
AcDbEntity
  8
V0-OBRYS
  6
CONTINUOUS
 62
    90
100
AcDbLine
 10
782.552254
 20
-235.323996
 30
0.0
 11
782.552254
 21
-335.323996
 31
0.0
  0
LINE
  5
C70
100
AcDbEntity
  8
V0-OBRYS
  6
CONTINUOUS
 62
    90
100
AcDbLine
 10
767.552254
 20
-335.323996
 30
0.0
 11
767.552254
 21
-235.323996
 31
0.0
  0
LINE
  5
C71
100
AcDbEntity
  8
V0-OBRYS
  6
CONTINUOUS
 62
    90
100
AcDbLine
 10
727.552254
 20
-335.323996
 30
0.0
 11
727.552254
 21
-235.323996
 31
0.0
  0
LINE
  5
C72
100
AcDbEntity
  8
V0-OBRYS
  6
CONTINUOUS
 62
    90
100
AcDbLine
 10
922.552254
 20
-435.323996
 30
0.0
 11
782.552254
 21
-435.323996
 31
0.0
  0
LINE
  5
C73
100
AcDbEntity
  8
V0-VYPLNE
  6
DASHDOT
 62
    63
100
AcDbLine
 10
727.552254
 20
-335.323996
 30
0.0
 11
977.552254
 21
-335.323996
 31
0.0
  0
ARC
  5
C74
100
AcDbEntity
  8
V0-OBRYS
  6
CONTINUOUS
 62
    90
100
AcDbCircle
 10
777.552254
 20
-435.323996
 30
0.0
 40
5.0
100
AcDbArc
 50
270.0
 51
0.0
  0
ARC
  5
C75
100
AcDbEntity
  8
V0-OBRYS
  6
CONTINUOUS
 62
    90
100
AcDbCircle
 10
772.552254
 20
-435.323996
 30
0.0
 40
5.0
100
AcDbArc
 50
180.0
 51
270.0
  0
LINE
  5
C76
100
AcDbEntity
  8
V0-OBRYS
  6
CONTINUOUS
 62
    90
100
AcDbLine
 10
772.552254
 20
-440.323996
 30
0.0
 11
777.552254
 21
-440.323996
 31
0.0
  0
LINE
  5
C77
100
AcDbEntity
  8
V0-OBRYS
  6
CONTINUOUS
 62
    90
100
AcDbLine
 10
767.552254
 20
-335.323996
 30
0.0
 11
767.552254
 21
-435.323996
 31
0.0
  0
LINE
  5
C78
100
AcDbEntity
  8
V0-OBRYS
  6
CONTINUOUS
 62
    90
100
AcDbLine
 10
782.552254
 20
-435.323996
 30
0.0
 11
782.552254
 21
-335.323996
 31
0.0
  0
LINE
  5
C79
100
AcDbEntity
  8
V0-OBRYS
  6
CONTINUOUS
 62
    90
100
AcDbLine
 10
727.552254
 20
-335.323996
 30
0.0
 11
727.552254
 21
-435.323996
 31
0.0
  0
LINE
  5
C7A
100
AcDbEntity
  8
V0-OBRYS
  6
CONTINUOUS
 62
    90
100
AcDbLine
 10
727.552254
 20
-435.323996
 30
0.0
 11
767.552254
 21
-435.323996
 31
0.0
  0
POINT
  5
C7B
100
AcDbEntity
  8
V0-VYPLNE
  6
CONTINUOUS
 62
     7
100
AcDbPoint
 10
768.79957
 20
-335.323996
 30
0.0
  0
ARC
  5
C7C
100
AcDbEntity
  8
V0-OBRYS
  6
CONTINUOUS
 62
    90
100
AcDbCircle
 10
927.552254
 20
-435.323996
 30
0.0
 40
5.0
100
AcDbArc
 50
180.0
 51
270.0
  0
ARC
  5
C7D
100
AcDbEntity
  8
V0-OBRYS
  6
CONTINUOUS
 62
    90
100
AcDbCircle
 10
932.552254
 20
-435.323996
 30
0.0
 40
5.0
100
AcDbArc
 50
270.0
 51
0.0
  0
LINE
  5
C7E
100
AcDbEntity
  8
V0-OBRYS
  6
CONTINUOUS
 62
    90
100
AcDbLine
 10
932.552254
 20
-440.323996
 30
0.0
 11
927.552254
 21
-440.323996
 31
0.0
  0
LINE
  5
C7F
100
AcDbEntity
  8
V0-OBRYS
  6
CONTINUOUS
 62
    90
100
AcDbLine
 10
977.552254
 20
-435.323996
 30
0.0
 11
937.552254
 21
-435.323996
 31
0.0
  0
POINT
  5
C80
100
AcDbEntity
  8
V0-VYPLNE
  6
CONTINUOUS
 62
     7
100
AcDbPoint
 10
937.552254
 20
-335.323996
 30
0.0
  0
LINE
  5
C81
100
AcDbEntity
  8
V0-OBRYS
  6
CONTINUOUS
 62
    90
100
AcDbLine
 10
922.552254
 20
-435.323996
 30
0.0
 11
922.552254
 21
-345.323996
 31
0.0
  0
LINE
  5
C82
100
AcDbEntity
  8
V0-OBRYS
  6
CONTINUOUS
 62
    90
100
AcDbLine
 10
937.552254
 20
-345.323996
 30
0.0
 11
937.552254
 21
-435.323996
 31
0.0
  0
LINE
  5
C83
100
AcDbEntity
  8
V0-OBRYS
  6
CONTINUOUS
 62
    90
100
AcDbLine
 10
977.552254
 20
-345.323996
 30
0.0
 11
977.552254
 21
-435.323996
 31
0.0
  0
LINE
  5
C84
100
AcDbEntity
  8
V0-OBRYS
  6
CONTINUOUS
 62
    90
100
AcDbLine
 10
922.552254
 20
-235.323996
 30
0.0
 11
782.552254
 21
-235.323996
 31
0.0
  0
LINE
  5
C85
100
AcDbEntity
  8
V0-OBRYS
  6
CONTINUOUS
 62
    90
100
AcDbLine
 10
727.552254
 20
-235.323996
 30
0.0
 11
767.552254
 21
-235.323996
 31
0.0
  0
LINE
  5
C86
100
AcDbEntity
  8
V0-OBRYS
  6
CONTINUOUS
 62
    90
100
AcDbLine
 10
772.552254
 20
-230.323996
 30
0.0
 11
777.552254
 21
-230.323996
 31
0.0
  0
ARC
  5
C87
100
AcDbEntity
  8
V0-OBRYS
  6
CONTINUOUS
 62
    90
100
AcDbCircle
 10
772.552254
 20
-235.323996
 30
0.0
 40
5.0
100
AcDbArc
 50
90.0
 51
180.0
  0
ARC
  5
C88
100
AcDbEntity
  8
V0-OBRYS
  6
CONTINUOUS
 62
    90
100
AcDbCircle
 10
777.552254
 20
-235.323996
 30
0.0
 40
5.0
100
AcDbArc
 50
0.0
 51
90.0
  0
LINE
  5
C89
100
AcDbEntity
  8
V0-OBRYS
  6
CONTINUOUS
 62
    90
100
AcDbLine
 10
977.552254
 20
-235.323996
 30
0.0
 11
937.552254
 21
-235.323996
 31
0.0
  0
LINE
  5
C8A
100
AcDbEntity
  8
V0-OBRYS
  6
CONTINUOUS
 62
    90
100
AcDbLine
 10
932.552254
 20
-230.323996
 30
0.0
 11
927.552254
 21
-230.323996
 31
0.0
  0
ARC
  5
C8B
100
AcDbEntity
  8
V0-OBRYS
  6
CONTINUOUS
 62
    90
100
AcDbCircle
 10
927.552254
 20
-235.323996
 30
0.0
 40
5.0
100
AcDbArc
 50
90.0
 51
180.0
  0
ARC
  5
C8C
100
AcDbEntity
  8
V0-OBRYS
  6
CONTINUOUS
 62
    90
100
AcDbCircle
 10
932.552254
 20
-235.323996
 30
0.0
 40
5.0
100
AcDbArc
 50
0.0
 51
90.0
  0
DIMENSION
  5
D41
100
AcDbEntity
  8
V0-VYPLNE
  6
CONTINUOUS
 62
    41
100
AcDbDimension
  2
*D8
 10
987.552254
 20
176.623177
 30
0.0
 11
920.052254
 21
176.623177
 31
0.0
 70
   160
  3
ED15
100
AcDbAlignedDimension
 13
852.552254
 23
142.0
 33
0.0
 14
987.552254
 24
145.0
 34
0.0
100
AcDbRotatedDimension
1001
ACAD
1000
DSTYLE
1002
{
1070
    40
1040
1.0
1070
   178
1070
    41
1070
   177
1070
    41
1070
   176
1070
    41
1002
}
  0
LINE
  5
D42
100
AcDbEntity
  8
V0-OBRYS
  6
CONTINUOUS
 62
    90
100
AcDbLine
 10
884.773509
 20
-345.323996
 30
0.0
 11
982.552254
 21
-345.323996
 31
0.0
  0
LINE
  5
D43
100
AcDbEntity
  8
V0-OBRYS
  6
CONTINUOUS
 62
    90
100
AcDbLine
 10
905.036142
 20
-325.323996
 30
0.0
 11
982.552254
 21
-325.323996
 31
0.0
  0
LINE
  5
D44
100
AcDbEntity
  8
V0-OBRYS
  6
CONTINUOUS
 62
    90
100
AcDbLine
 10
933.936312
 20
142.33835
 30
0.0
 11
908.379874
 21
129.049002
 31
0.0
  0
LINE
  5
D45
100
AcDbEntity
  8
V0-OBRYS
  6
CONTINUOUS
 62
    90
100
AcDbLine
 10
932.552254
 20
145.0
 30
0.0
 11
907.552254
 21
132.0
 31
0.0
  0
LINE
  5
D46
100
AcDbEntity
  8
V0-VYPLNE
  6
DASHED
 62
    52
100
AcDbLine
 10
855.552254
 20
129.049002
 30
0.0
 11
855.865235
 21
-104.52964
 31
0.0
  0
LINE
  5
D47
100
AcDbEntity
  8
V0-VYPLNE
  6
DASHED
 62
    52
100
AcDbLine
 10
849.552254
 20
129.049002
 30
0.0
 11
849.865235
 21
-104.52964
 31
0.0
  0
LINE
  5
D48
100
AcDbEntity
  8
V0-OBRYS
  6
CONTINUOUS
 62
    90
100
AcDbLine
 10
852.552254
 20
143.0
 30
0.0
 11
852.865235
 21
-109.516903
 31
0.0
  0
ARC
  5
D49
100
AcDbEntity
  8
V0-VYPLNE
  6
DASHDOT
 62
    63
100
AcDbCircle
 10
852.552254
 20
-335.323996
 30
0.0
 40
40.0
100
AcDbArc
 50
260.720854
 51
98.569564
  0
LINE
  5
D4A
100
AcDbEntity
  8
V0-OBRYS
  6
CONTINUOUS
 62
    90
100
AcDbLine
 10
837.552254
 20
-329.110793
 30
0.0
 11
837.552254
 21
-285.323996
 31
0.0
  0
LINE
  5
D4B
100
AcDbEntity
  8
V0-OBRYS
  6
CONTINUOUS
 62
    90
100
AcDbLine
 10
907.552254
 20
-285.323996
 30
0.0
 11
907.552254
 21
-325.323996
 31
0.0
  0
ARC
  5
D4C
100
AcDbEntity
  8
V0-OBRYS
  6
CONTINUOUS
 62
    90
100
AcDbCircle
 10
852.552254
 20
-335.323996
 30
0.0
 40
43.0
100
AcDbArc
 50
13.447727
 51
90.0
  0
ARC
  5
D4D
100
AcDbEntity
  8
V0-OBRYS
  6
CONTINUOUS
 62
    90
100
AcDbCircle
 10
852.552254
 20
-335.323996
 30
0.0
 40
37.0
100
AcDbArc
 50
15.68035
 51
90.0
  0
LINE
  5
D4E
100
AcDbEntity
  8
V0-OBRYS
  6
CONTINUOUS
 62
    90
100
AcDbLine
 10
907.552254
 20
-385.323996
 30
0.0
 11
837.552254
 21
-385.323996
 31
0.0
  0
LINE
  5
D4F
100
AcDbEntity
  8
V0-OBRYS
  6
CONTINUOUS
 62
    90
100
AcDbLine
 10
837.552254
 20
-325.323996
 30
0.0
 11
900.430933
 21
-325.323996
 31
0.0
  0
ARC
  5
D50
100
AcDbEntity
  8
V0-OBRYS
  6
CONTINUOUS
 62
    90
100
AcDbCircle
 10
852.552254
 20
-335.323996
 30
0.0
 40
43.0
100
AcDbArc
 50
270.0
 51
346.552273
  0
ARC
  5
D51
100
AcDbEntity
  8
V0-OBRYS
  6
CONTINUOUS
 62
    90
100
AcDbCircle
 10
852.552254
 20
-335.323996
 30
0.0
 40
37.0
100
AcDbArc
 50
270.0
 51
344.31965
  0
LINE
  5
D52
100
AcDbEntity
  8
V0-OBRYS
  6
CONTINUOUS
 62
    90
100
AcDbLine
 10
837.552254
 20
-345.323996
 30
0.0
 11
880.430933
 21
-345.323996
 31
0.0
  0
LINE
  5
D53
100
AcDbEntity
  8
V0-OBRYS
  6
CONTINUOUS
 62
    90
100
AcDbLine
 10
837.552254
 20
-385.323996
 30
0.0
 11
837.552254
 21
-339.343578
 31
0.0
  0
ARC
  5
D54
100
AcDbEntity
  8
V0-OBRYS
  6
CONTINUOUS
 62
    90
100
AcDbCircle
 10
852.552254
 20
-375.323996
 30
0.0
 40
3.0
100
AcDbArc
 50
90.0
 51
270.0
  0
LINE
  5
D55
100
AcDbEntity
  8
V0-OBRYS
  6
CONTINUOUS
 62
    90
100
AcDbLine
 10
837.552254
 20
-334.323996
 30
0.0
 11
847.653274
 21
-334.323996
 31
0.0
  0
LINE
  5
D56
100
AcDbEntity
  8
V0-OBRYS
  6
CONTINUOUS
 62
    90
100
AcDbLine
 10
837.552254
 20
-336.323996
 30
0.0
 11
847.653274
 21
-336.323996
 31
0.0
  0
LINE
  5
D57
100
AcDbEntity
  8
V0-OBRYS
  6
CONTINUOUS
 62
    90
100
AcDbLine
 10
838.856343
 20
-348.295833
 30
0.0
 11
847.109577
 21
-348.295833
 31
0.0
  0
LINE
  5
D58
100
AcDbEntity
  8
V0-OBRYS
  6
CONTINUOUS
 62
    90
100
AcDbLine
 10
838.856343
 20
-322.352159
 30
0.0
 11
847.109577
 21
-322.352159
 31
0.0
  0
LINE
  5
D59
100
AcDbEntity
  8
V0-OBRYS
  6
CONTINUOUS
 62
    90
100
AcDbLine
 10
837.552254
 20
-334.323996
 30
0.0
 11
837.552254
 21
-325.323996
 31
0.0
  0
LINE
  5
D5A
100
AcDbEntity
  8
V0-OBRYS
  6
CONTINUOUS
 62
    90
100
AcDbLine
 10
837.552254
 20
-345.323996
 30
0.0
 11
837.552254
 21
-336.323996
 31
0.0
  0
LINE
  5
D5B
100
AcDbEntity
  8
V0-OBRYS
  6
CONTINUOUS
 62
    90
100
AcDbLine
 10
838.856343
 20
-345.20077
 30
0.0
 11
838.856343
 21
-348.295833
 31
0.0
  0
LINE
  5
D5C
100
AcDbEntity
  8
V0-OBRYS
  6
CONTINUOUS
 62
    90
100
AcDbLine
 10
840.746918
 20
-349.928973
 30
0.0
 11
840.746918
 21
-345.323996
 31
0.0
  0
LINE
  5
D5D
100
AcDbEntity
  8
V0-OBRYS
  6
CONTINUOUS
 62
    90
100
AcDbLine
 10
844.787925
 20
-349.928973
 30
0.0
 11
844.787925
 21
-345.323996
 31
0.0
  0
LINE
  5
D5E
100
AcDbEntity
  8
V0-OBRYS
  6
CONTINUOUS
 62
    90
100
AcDbLine
 10
840.746918
 20
-349.928973
 30
0.0
 11
844.787925
 21
-349.928973
 31
0.0
  0
LINE
  5
D5F
100
AcDbEntity
  8
V0-OBRYS
  6
CONTINUOUS
 62
    90
100
AcDbLine
 10
840.746918
 20
-336.323996
 30
0.0
 11
840.746918
 21
-334.323996
 31
0.0
  0
LINE
  5
D60
100
AcDbEntity
  8
V0-OBRYS
  6
CONTINUOUS
 62
    90
100
AcDbLine
 10
844.787925
 20
-336.323996
 30
0.0
 11
844.787925
 21
-334.323996
 31
0.0
  0
LINE
  5
D61
100
AcDbEntity
  8
V0-OBRYS
  6
CONTINUOUS
 62
    90
100
AcDbLine
 10
838.856343
 20
-325.447222
 30
0.0
 11
838.856343
 21
-322.352159
 31
0.0
  0
LINE
  5
D62
100
AcDbEntity
  8
V0-OBRYS
  6
CONTINUOUS
 62
    90
100
AcDbLine
 10
844.787925
 20
-322.4398
 30
0.0
 11
844.787925
 21
-325.363168
 31
0.0
  0
LINE
  5
D63
100
AcDbEntity
  8
V0-OBRYS
  6
CONTINUOUS
 62
    90
100
AcDbLine
 10
840.746918
 20
-322.352582
 30
0.0
 11
840.746918
 21
-325.361902
 31
0.0
  0
LINE
  5
D64
100
AcDbEntity
  8
V0-OBRYS
  6
CONTINUOUS
 62
    90
100
AcDbLine
 10
865.431184
 20
-325.336974
 30
0.0
 11
865.431184
 21
-345.224361
 31
0.0
  0
CIRCLE
  5
D65
100
AcDbEntity
  8
V0-OBRYS
  6
CONTINUOUS
 62
    90
100
AcDbCircle
 10
852.552254
 20
-335.323996
 30
0.0
 40
5.0
  0
LINE
  5
D66
100
AcDbEntity
  8
V0-OBRYS
  6
CONTINUOUS
 62
    90
100
AcDbLine
 10
847.109577
 20
-348.295833
 30
0.0
 11
847.109577
 21
-345.198238
 31
0.0
  0
LINE
  5
D67
100
AcDbEntity
  8
V0-OBRYS
  6
CONTINUOUS
 62
    90
100
AcDbLine
 10
847.109577
 20
-322.352159
 30
0.0
 11
847.109577
 21
-325.449754
 31
0.0
  0
LINE
  5
D68
100
AcDbEntity
  8
V0-OBRYS
100
AcDbLine
 10
907.552254
 20
-345.323996
 30
0.0
 11
907.552254
 21
-376.18186
 31
0.0
  0
LINE
  5
D69
100
AcDbEntity
  8
V0-OBRYS
100
AcDbLine
 10
907.552254
 20
-345.323996
 30
0.0
 11
907.552254
 21
-376.18186
 31
0.0
  0
LINE
  5
D6A
100
AcDbEntity
  8
V0-OBRYS
  6
CONTINUOUS
 62
    90
100
AcDbLine
 10
907.552254
 20
-345.323996
 30
0.0
 11
907.552254
 21
-385.323996
 31
0.0
  0
CIRCLE
  5
D6B
100
AcDbEntity
  8
V0-OBRYS
  6
CONTINUOUS
 62
    90
100
AcDbCircle
 10
892.552254
 20
-335.323996
 30
0.0
 40
6.0
  0
CIRCLE
  5
D6C
100
AcDbEntity
  8
V0-OBRYS
  6
CONTINUOUS
 62
    90
100
AcDbCircle
 10
892.552254
 20
-335.323996
 30
0.0
 40
3.0
  0
LINE
  5
D6D
100
AcDbEntity
  8
V0-OBRYS
  6
CONTINUOUS
 62
    90
100
AcDbLine
 10
877.349458
 20
-348.405471
 30
0.0
 11
887.392627
 21
-338.362303
 31
0.0
  0
LINE
  5
D6E
100
AcDbEntity
  8
V0-OBRYS
  6
CONTINUOUS
 62
    90
100
AcDbLine
 10
879.470778
 20
-350.526792
 30
0.0
 11
889.513947
 21
-340.483623
 31
0.0
  0
LINE
  5
D6F
100
AcDbEntity
  8
V0-OBRYS
  6
CONTINUOUS
 62
    90
100
AcDbLine
 10
877.349458
 20
-348.405471
 30
0.0
 11
879.470778
 21
-350.526792
 31
0.0
  0
LINE
  5
D70
100
AcDbEntity
  8
V0-OBRYS
  6
CONTINUOUS
 62
    90
100
AcDbLine
 10
907.755049
 20
-322.242521
 30
0.0
 11
897.71188
 21
-332.285689
 31
0.0
  0
LINE
  5
D71
100
AcDbEntity
  8
V0-OBRYS
  6
CONTINUOUS
 62
    90
100
AcDbLine
 10
905.633729
 20
-320.1212
 30
0.0
 11
895.59056
 21
-330.164369
 31
0.0
  0
LINE
  5
D72
100
AcDbEntity
  8
V0-OBRYS
  6
CONTINUOUS
 62
    90
100
AcDbLine
 10
905.633729
 20
-320.1212
 30
0.0
 11
907.755049
 21
-322.242521
 31
0.0
  0
LINE
  5
D73
100
AcDbEntity
  8
V0-OBRYS
  6
CONTINUOUS
 62
    90
100
AcDbLine
 10
837.552254
 20
-285.323996
 30
0.0
 11
907.552254
 21
-285.323996
 31
0.0
  0
ARC
  5
D74
100
AcDbEntity
  8
V0-OBRYS
  6
CONTINUOUS
 62
    90
100
AcDbCircle
 10
852.552254
 20
-295.323996
 30
0.0
 40
3.0
100
AcDbArc
 50
90.0
 51
270.0
  0
LINE
  5
D76
100
AcDbEntity
  8
V0-OBRYS
  6
CONTINUOUS
 62
    90
100
AcDbLine
 10
855.865235
 20
-104.54388
 30
0.0
 11
855.865235
 21
-106.753824
 31
0.0
  0
LINE
  5
D77
100
AcDbEntity
  8
V0-OBRYS
  6
CONTINUOUS
 62
    90
100
AcDbLine
 10
849.865235
 20
-104.54388
 30
0.0
 11
849.865235
 21
-106.753824
 31
0.0
  0
LINE
  5
D78
100
AcDbEntity
  8
V0-OBRYS
  6
CONTINUOUS
 62
    90
100
AcDbLine
 10
849.865235
 20
-106.753824
 30
0.0
 11
855.865235
 21
-106.753824
 31
0.0
  0
LINE
  5
D79
100
AcDbEntity
  8
V0-VYPLNE
  6
DASHDOT
 62
    63
100
AcDbLine
 10
887.552254
 20
145.0
 30
0.0
 11
887.552254
 21
126.582585
 31
0.0
  0
ARC
  5
D7A
100
AcDbEntity
  8
V0-OBRYS
  6
CONTINUOUS
 62
    90
100
AcDbCircle
 10
827.552254
 20
134.524501
 30
0.0
 40
5.475499
100
AcDbArc
 50
90.0
 51
270.0
  0
LINE
  5
D7B
100
AcDbEntity
  8
V0-OBRYS
  6
CONTINUOUS
 62
    90
100
AcDbLine
 10
908.379874
 20
129.049002
 30
0.0
 11
852.024427
 21
129.049002
 31
0.0
  0
LINE
  5
D7C
100
AcDbEntity
  8
V0-OBRYS
  6
CONTINUOUS
100
AcDbLine
 10
844.296765
 20
100.0
 30
0.0
 11
852.552254
 21
100.0
 31
0.0
  0
LINE
  5
D7D
100
AcDbEntity
  8
V0-OBRYS
  6
CONTINUOUS
 62
    90
100
AcDbLine
 10
822.552254
 20
129.049002
 30
0.0
 11
853.08008
 21
129.049002
 31
0.0
  0
LINE
  5
D7E
100
AcDbEntity
  8
V0-OBRYS
  6
CONTINUOUS
 62
    90
100
AcDbLine
 10
822.552254
 20
129.049002
 30
0.0
 11
822.552254
 21
99.860781
 31
0.0
  0
LINE
  5
D7F
100
AcDbEntity
  8
V0-OBRYS
  6
CONTINUOUS
 62
    90
100
AcDbLine
 10
902.552254
 20
129.049002
 30
0.0
 11
902.552254
 21
99.860781
 31
0.0
  0
LINE
  5
D80
100
AcDbEntity
  8
V0-OBRYS
  6
CONTINUOUS
 62
    90
100
AcDbLine
 10
907.646488
 20
132.049002
 30
0.0
 11
831.928779
 21
132.049002
 31
0.0
  0
LINE
  5
D81
100
AcDbEntity
  8
V0-OBRYS
  6
CONTINUOUS
 62
    90
100
AcDbLine
 10
865.552254
 20
137.0
 30
0.0
 11
831.928779
 21
137.0
 31
0.0
  0
LINE
  5
D82
100
AcDbEntity
  8
V0-OBRYS
  6
CONTINUOUS
 62
    90
100
AcDbLine
 10
865.552254
 20
140.0
 30
0.0
 11
827.552254
 21
140.0
 31
0.0
  0
LINE
  5
D84
100
AcDbEntity
  8
V0-OBRYS
  6
CONTINUOUS
 62
    90
100
AcDbLine
 10
849.552254
 20
142.0
 30
0.0
 11
852.552254
 21
142.0
 31
0.0
  0
LINE
  5
D85
100
AcDbEntity
  8
V0-OBRYS
  6
CONTINUOUS
 62
    90
100
AcDbLine
 10
849.552254
 20
140.0
 30
0.0
 11
849.552254
 21
142.0
 31
0.0
  0
LINE
  5
D86
100
AcDbEntity
  8
V0-OBRYS
  6
CONTINUOUS
 62
    90
100
AcDbLine
 10
849.552254
 20
132.0
 30
0.0
 11
849.552254
 21
137.072606
 31
0.0
  0
LINE
  5
D87
100
AcDbEntity
  8
V0-OBRYS
  6
CONTINUOUS
 62
    90
100
AcDbLine
 10
855.552254
 20
132.0
 30
0.0
 11
855.552254
 21
137.072606
 31
0.0
  0
LINE
  5
D88
100
AcDbEntity
  8
V0-OBRYS
  6
CONTINUOUS
 62
    90
100
AcDbLine
 10
855.552254
 20
140.0
 30
0.0
 11
855.552254
 21
142.0
 31
0.0
  0
LINE
  5
D89
100
AcDbEntity
  8
V0-OBRYS
  6
CONTINUOUS
 62
    90
100
AcDbLine
 10
855.552254
 20
142.0
 30
0.0
 11
852.552254
 21
142.0
 31
0.0
  0
LINE
  5
D8A
100
AcDbEntity
  8
V0-OBRYS
  6
CONTINUOUS
 62
    90
100
AcDbLine
 10
865.552254
 20
140.0
 30
0.0
 11
865.552254
 21
137.0
 31
0.0
  0
LINE
  5
D8B
100
AcDbEntity
  8
V0-OBRYS
  6
CONTINUOUS
 62
    90
100
AcDbLine
 10
901.043319
 20
139.590211
 30
0.0
 11
891.587815
 21
132.049002
 31
0.0
  0
LINE
  5
D8C
100
AcDbEntity
  8
V0-OBRYS
  6
CONTINUOUS
 62
    90
100
AcDbLine
 10
889.912598
 20
136.023604
 30
0.0
 11
899.573223
 21
142.527417
 31
0.0
  0
LINE
  5
D8D
100
AcDbEntity
  8
V0-OBRYS
  6
CONTINUOUS
 62
    90
100
AcDbLine
 10
874.061188
 20
139.590211
 30
0.0
 11
883.516692
 21
132.049002
 31
0.0
  0
LINE
  5
D8E
100
AcDbEntity
  8
V0-OBRYS
  6
CONTINUOUS
 62
    90
100
AcDbLine
 10
885.191909
 20
136.023604
 30
0.0
 11
875.531284
 21
142.527417
 31
0.0
  0
LINE
  5
D8F
100
AcDbEntity
  8
V0-OBRYS
  6
CONTINUOUS
 62
    90
100
AcDbLine
 10
875.531284
 20
142.527417
 30
0.0
 11
874.061188
 21
139.590211
 31
0.0
  0
LINE
  5
D90
100
AcDbEntity
  8
V0-OBRYS
  6
CONTINUOUS
 62
    90
100
AcDbLine
 10
887.502059
 20
136.023604
 30
0.0
 11
885.191909
 21
136.023604
 31
0.0
  0
LINE
  5
D91
100
AcDbEntity
  8
V0-OBRYS
  6
CONTINUOUS
 62
    90
100
AcDbLine
 10
885.191909
 20
136.023604
 30
0.0
 11
883.511801
 21
132.037396
 31
0.0
  0
LINE
  5
D92
100
AcDbEntity
  8
V0-OBRYS
  6
CONTINUOUS
 62
    90
100
AcDbLine
 10
887.602448
 20
136.023604
 30
0.0
 11
889.912598
 21
136.023604
 31
0.0
  0
LINE
  5
D93
100
AcDbEntity
  8
V0-OBRYS
  6
CONTINUOUS
 62
    90
100
AcDbLine
 10
889.912598
 20
136.023604
 30
0.0
 11
891.592706
 21
132.037396
 31
0.0
  0
LINE
  5
D94
100
AcDbEntity
  8
V0-OBRYS
  6
CONTINUOUS
 62
    90
100
AcDbLine
 10
899.573223
 20
142.527417
 30
0.0
 11
901.043319
 21
139.590211
 31
0.0
  0
LINE
  5
D95
100
AcDbEntity
  8
V0-VYPLNE
  6
DASHDOT
 62
    63
100
AcDbLine
 10
1218.235358
 20
130.0
 30
0.0
 11
1218.235358
 21
-95.233974
 31
0.0
  0
LINE
  5
D96
100
AcDbEntity
  8
V0-OBRYS
  6
CONTINUOUS
 62
    90
100
AcDbLine
 10
1215.235358
 20
99.78248
 30
0.0
 11
1215.548339
 21
-106.753824
 31
0.0
  0
LINE
  5
D97
100
AcDbEntity
  8
V0-OBRYS
  6
CONTINUOUS
 62
    90
100
AcDbLine
 10
1221.235358
 20
99.983448
 30
0.0
 11
1221.548339
 21
-106.753824
 31
0.0
  0
LINE
  5
D98
100
AcDbEntity
  8
V0-OBRYS
  6
CONTINUOUS
 62
    90
100
AcDbLine
 10
982.552254
 20
-325.323996
 30
0.0
 11
987.552254
 21
-330.323996
 31
0.0
  0
LINE
  5
D99
100
AcDbEntity
  8
V0-OBRYS
  6
CONTINUOUS
 62
    90
100
AcDbLine
 10
987.552254
 20
-340.323996
 30
0.0
 11
982.552254
 21
-345.323996
 31
0.0
  0
LINE
  5
D9A
100
AcDbEntity
  8
V0-OBRYS
  6
CONTINUOUS
 62
    90
100
AcDbLine
 10
987.552254
 20
-340.323996
 30
0.0
 11
987.552254
 21
-330.323996
 31
0.0
  0
LINE
  5
D9C
100
AcDbEntity
  8
V0-OBRYS
  6
CONTINUOUS
 62
    90
100
AcDbLine
 10
1215.548339
 20
-106.753824
 30
0.0
 11
1221.548339
 21
-106.753824
 31
0.0
  0
DIMENSION
  5
D9D
100
AcDbEntity
  8
V0-VYPLNE
  6
CONTINUOUS
 62
    41
100
AcDbDimension
  2
*D9
 10
1003.883946
 20
100.0
 30
0.0
 11
994.883946
 21
122.5
 31
0.0
 70
    32
  3
ED15
100
AcDbAlignedDimension
 13
987.552254
 23
145.0
 33
0.0
 14
952.552254
 24
100.0
 34
0.0
 50
90.0
100
AcDbRotatedDimension
1001
ACAD
1000
DSTYLE
1002
{
1070
    40
1040
1.0
1070
   178
1070
    41
1070
   177
1070
    41
1070
   176
1070
    41
1002
}
  0
LINE
  5
D9E
100
AcDbEntity
  8
V0-OBRYS
  6
CONTINUOUS
 62
    90
100
AcDbLine
 10
987.552254
 20
142.0
 30
0.0
 11
932.552254
 21
142.0
 31
0.0
  0
LINE
  5
D9F
100
AcDbEntity
  8
V0-OBRYS
  6
CONTINUOUS
 62
    90
100
AcDbLine
 10
987.552254
 20
145.0
 30
0.0
 11
932.552254
 21
145.0
 31
0.0
  0
LINE
  5
DA0
100
AcDbEntity
  8
V0-OBRYS
  6
CONTINUOUS
100
AcDbLine
 10
1225.828473
 20
96.666381
 30
0.0
 11
1211.274232
 21
96.666381
 31
0.0
  0
LINE
  5
DA1
100
AcDbEntity
  8
V0-OBRYS
  6
CONTINUOUS
 62
    90
100
AcDbLine
 10
1207.938899
 20
142.379089
 30
0.0
 11
1217.272425
 21
142.379089
 31
0.0
  0
LINE
  5
DA2
100
AcDbEntity
  8
V0-OBRYS
  6
CONTINUOUS
 62
    90
100
AcDbLine
 10
1217.272425
 20
131.050352
 30
0.0
 11
1207.870063
 21
131.050352
 31
0.0
  0
LINE
  5
DA3
100
AcDbEntity
  8
V0-OBRYS
  6
CONTINUOUS
 62
    90
100
AcDbLine
 10
1168.235358
 20
130.0
 30
0.0
 11
1268.235358
 21
130.0
 31
0.0
  0
DIMENSION
  5
DA4
100
AcDbEntity
  8
V0-VYPLNE
  6
CONTINUOUS
 62
    63
100
AcDbDimension
  2
*D10
 10
1268.235358
 20
160.451469
 30
0.0
 11
1218.741639
 21
160.451469
 31
0.0
 12
-560.055363
 22
0.0
 32
0.0
 70
   160
  3
ED15
100
AcDbAlignedDimension
 13
1168.235358
 23
130.0
 33
0.0
 14
1268.235358
 24
130.0
 34
0.0
100
AcDbRotatedDimension
1001
ACAD
1000
DSTYLE
1002
{
1070
    40
1040
1.0
1070
   178
1070
    41
1070
   177
1070
    41
1070
   176
1070
    41
1002
}
  0
LINE
  5
DA5
100
AcDbEntity
  8
V0-OBRYS
  6
CONTINUOUS
 62
    90
100
AcDbLine
 10
1207.938899
 20
133.051484
 30
0.0
 11
1207.938899
 21
130.0
 31
0.0
  0
LINE
  5
DA6
100
AcDbEntity
  8
V0-OBRYS
  6
CONTINUOUS
 62
    90
100
AcDbLine
 10
1207.938899
 20
130.0
 30
0.0
 11
1207.938899
 21
142.379089
 31
0.0
  0
LINE
  5
DA7
100
AcDbEntity
  8
V0-OBRYS
  6
CONTINUOUS
 62
    90
100
AcDbLine
 10
1168.235358
 20
130.0
 30
0.0
 11
1168.235358
 21
99.553484
 31
0.0
  0
LINE
  5
DA8
100
AcDbEntity
  8
V0-OBRYS
  6
CONTINUOUS
 62
    90
100
AcDbLine
 10
1204.898649
 20
134.245016
 30
0.0
 11
1207.907969
 21
134.245016
 31
0.0
  0
LINE
  5
DA9
100
AcDbEntity
  8
V0-OBRYS
  6
CONTINUOUS
 62
    90
100
AcDbLine
 10
1207.938899
 20
132.354442
 30
0.0
 11
1204.898226
 21
132.354442
 31
0.0
  0
LINE
  5
DAA
100
AcDbEntity
  8
V0-OBRYS
  6
CONTINUOUS
 62
    90
100
AcDbLine
 10
1204.898226
 20
140.607676
 30
0.0
 11
1207.995821
 21
140.607676
 31
0.0
  0
LINE
  5
DAB
100
AcDbEntity
  8
V0-OBRYS
  6
CONTINUOUS
 62
    90
100
AcDbLine
 10
1204.985868
 20
138.286024
 30
0.0
 11
1207.909236
 21
138.286024
 31
0.0
  0
LINE
  5
DAC
100
AcDbEntity
  8
V0-OBRYS
  6
CONTINUOUS
 62
    90
100
AcDbLine
 10
1204.898226
 20
132.354442
 30
0.0
 11
1204.898226
 21
140.607676
 31
0.0
  0
LINE
  5
DAD
100
AcDbEntity
  8
V0-OBRYS
  6
CONTINUOUS
 62
    90
100
AcDbLine
 10
1227.975925
 20
133.051484
 30
0.0
 11
1227.975925
 21
130.0
 31
0.0
  0
LINE
  5
DAE
100
AcDbEntity
  8
V0-OBRYS
  6
CONTINUOUS
 62
    90
100
AcDbLine
 10
1227.975925
 20
130.0
 30
0.0
 11
1227.975925
 21
142.379089
 31
0.0
  0
LINE
  5
DAF
100
AcDbEntity
  8
V0-OBRYS
  6
CONTINUOUS
 62
    90
100
AcDbLine
 10
1217.272425
 20
131.050352
 30
0.0
 11
1217.272425
 21
142.379089
 31
0.0
  0
LINE
  5
DB0
100
AcDbEntity
  8
V0-OBRYS
  6
CONTINUOUS
 62
    90
100
AcDbLine
 10
1219.272425
 20
131.050352
 30
0.0
 11
1219.272425
 21
142.379089
 31
0.0
  0
LINE
  5
DB1
100
AcDbEntity
  8
V0-VYPLNE
  6
DASHED
 62
    52
100
AcDbLine
 10
1215.235358
 20
130.0
 30
0.0
 11
1215.235358
 21
100.586349
 31
0.0
  0
LINE
  5
DB2
100
AcDbEntity
  8
V0-VYPLNE
  6
DASHED
 62
    52
100
AcDbLine
 10
1221.235358
 20
130.0
 30
0.0
 11
1221.235358
 21
100.988284
 31
0.0
  0
LINE
  5
DB3
100
AcDbEntity
  8
V0-OBRYS
  6
CONTINUOUS
 62
    90
100
AcDbLine
 10
1227.870063
 20
131.050352
 30
0.0
 11
1219.272425
 21
131.050352
 31
0.0
  0
LINE
  5
DB4
100
AcDbEntity
  8
V0-OBRYS
  6
CONTINUOUS
 62
    90
100
AcDbLine
 10
1268.235358
 20
130.0
 30
0.0
 11
1268.235358
 21
99.553484
 31
0.0
  0
LINE
  5
DB5
100
AcDbEntity
  8
V0-OBRYS
  6
CONTINUOUS
 62
    90
100
AcDbLine
 10
1219.272425
 20
142.379089
 30
0.0
 11
1227.975925
 21
142.379089
 31
0.0
  0
LINE
  5
DB6
100
AcDbEntity
  8
V0-OBRYS
  6
CONTINUOUS
 62
    90
100
AcDbLine
 10
1219.272425
 20
134.295263
 30
0.0
 11
1217.272425
 21
134.295263
 31
0.0
  0
LINE
  5
DB7
100
AcDbEntity
  8
V0-OBRYS
  6
CONTINUOUS
 62
    90
100
AcDbLine
 10
1219.272425
 20
138.336271
 30
0.0
 11
1217.272425
 21
138.336271
 31
0.0
  0
LINE
  5
DB8
100
AcDbEntity
  8
V0-OBRYS
  6
CONTINUOUS
 62
    90
100
AcDbLine
 10
1227.975925
 20
132.354442
 30
0.0
 11
1230.8419
 21
132.354442
 31
0.0
  0
LINE
  5
DB9
100
AcDbEntity
  8
V0-OBRYS
  6
CONTINUOUS
 62
    90
100
AcDbLine
 10
1230.8419
 20
140.607676
 30
0.0
 11
1227.975925
 21
140.607676
 31
0.0
  0
LINE
  5
DBA
100
AcDbEntity
  8
V0-OBRYS
  6
CONTINUOUS
 62
    90
100
AcDbLine
 10
1232.47504
 20
134.245016
 30
0.0
 11
1227.975925
 21
134.245016
 31
0.0
  0
LINE
  5
DBB
100
AcDbEntity
  8
V0-OBRYS
  6
CONTINUOUS
 62
    90
100
AcDbLine
 10
1232.47504
 20
138.286024
 30
0.0
 11
1227.975925
 21
138.286024
 31
0.0
  0
LINE
  5
DBC
100
AcDbEntity
  8
V0-OBRYS
  6
CONTINUOUS
 62
    90
100
AcDbLine
 10
1232.47504
 20
134.245016
 30
0.0
 11
1232.47504
 21
138.286024
 31
0.0
  0
LINE
  5
DBD
100
AcDbEntity
  8
V0-OBRYS
  6
CONTINUOUS
 62
    90
100
AcDbLine
 10
1230.8419
 20
132.354442
 30
0.0
 11
1230.8419
 21
140.607676
 31
0.0
  0
LWPOLYLINE
  5
DBE
100
AcDbEntity
  8
V0-OBRYS
  6
CONTINUOUS
 62
    90
100
AcDbPolyline
 90
        4
 70
     1
 43
0.0
 10
844.466563
 20
100.0
 10
860.637944
 20
100.0
 10
860.637944
 20
104.54388
 10
844.466563
 20
104.54388
  0
MTEXT
  5
DC0
100
AcDbEntity
  8
V0-NAZVY
100
AcDbMText
 10
1201.627596
 20
-286.188601
 30
0.0
 40
37.5
 41
308.46075
 71
     5
 72
     5
  1
MSK-200
  7
ED10
  0
MTEXT
  5
DC1
100
AcDbEntity
  8
V0-ZBYTEK
 62
    51
100
AcDbMText
 10
1211.251835
 20
-341.156875
 30
0.0
 40
21.0
 41
594.8886
 71
     5
 72
     5
  1
KLAPKA SKRTICI
  7
ED10
  0
MTEXT
  5
DC2
100
AcDbEntity
  8
V0-ZBYTEK
100
AcDbMText
 10
1208.860966
 20
-386.613445
 30
0.0
 40
15.0
 41
235.64325
 71
     5
 72
     5
  1
S RUCNIM OVLADANIM KOVOVYM
  7
ED10
  0
LINE
  5
E09
100
AcDbEntity
  8
V0-OBRYS
  6
CONTINUOUS
 62
    90
100
AcDbLine
 10
844.466563
 20
-104.54388
 30
0.0
 11
860.637944
 21
-104.54388
 31
0.0
  0
LINE
  5
E0A
100
AcDbEntity
  8
V0-OBRYS
  6
CONTINUOUS
 62
    90
100
AcDbLine
 10
860.637944
 20
-104.54388
 30
0.0
 11
860.637944
 21
-100.0
 31
0.0
  0
LINE
  5
E0B
100
AcDbEntity
  8
V0-OBRYS
  6
CONTINUOUS
 62
    90
100
AcDbLine
 10
860.637944
 20
-100.0
 30
0.0
 11
844.466563
 21
-100.0
 31
0.0
  0
LINE
  5
E0C
100
AcDbEntity
  8
V0-OBRYS
  6
CONTINUOUS
 62
    90
100
AcDbLine
 10
844.466563
 20
-100.0
 30
0.0
 11
844.466563
 21
-104.54388
 31
0.0
  0
LINE
  5
E0E
100
AcDbEntity
  8
V0-OBRYS
  6
CONTINUOUS
 62
    90
100
AcDbLine
 10
1225.859369
 20
-100.179044
 30
0.0
 11
1225.859369
 21
-95.233902
 31
0.0
  0
LINE
  5
E0F
100
AcDbEntity
  8
V0-OBRYS
  6
CONTINUOUS
 62
    90
100
AcDbLine
 10
1225.859369
 20
-95.233902
 30
0.0
 11
1210.24832
 21
-95.233902
 31
0.0
  0
LINE
  5
E10
100
AcDbEntity
  8
V0-OBRYS
  6
CONTINUOUS
 62
    90
100
AcDbLine
 10
1210.24832
 20
-95.233902
 30
0.0
 11
1210.24832
 21
-100.179044
 31
0.0
  0
CIRCLE
  5
E12
100
AcDbEntity
  8
V0-OBRYS
  6
CONTINUOUS
 62
    90
100
AcDbCircle
 10
1218.235358
 20
0.657254
 30
0.0
 40
100.0
  0
CIRCLE
  5
E13
100
AcDbEntity
  8
V0-OBRYS
  6
CONTINUOUS
 62
    90
100
AcDbCircle
 10
1218.235358
 20
0.657254
 30
0.0
 40
105.0
  0
LINE
  5
E14
100
AcDbEntity
  8
V0-OBRYS
  6
CONTINUOUS
 62
    90
100
AcDbLine
 10
1210.745828
 20
96.666381
 30
0.0
 11
1226.356877
 21
96.666381
 31
0.0
  0
LINE
  5
E15
100
AcDbEntity
  8
V0-OBRYS
  6
CONTINUOUS
 62
    90
100
AcDbLine
 10
1226.356877
 20
96.666381
 30
0.0
 11
1226.356877
 21
101.611523
 31
0.0
  0
LINE
  5
E17
100
AcDbEntity
  8
V0-OBRYS
  6
CONTINUOUS
 62
    90
100
AcDbLine
 10
1210.745828
 20
101.611523
 30
0.0
 11
1210.745828
 21
96.666381
 31
0.0
  0
ELLIPSE
  5
E18
100
AcDbEntity
  8
V0-OBRYS
  6
CONTINUOUS
 62
    90
100
AcDbEllipse
 10
1218.302599
 20
0.716239
 30
0.0
 11
0.2487541897733081
 21
95.95014147966768
 31
0.0
210
0.0
220
0.0
230
0.9999999999999998
 40
0.656373
 41
0.0
 42
6.283185307179586
  0
LINE
  5
E19
100
AcDbEntity
  8
V0-VYPLNE
  6
DASHDOT
 62
    63
100
AcDbLine
 10
1103.936752
 20
0.0
 30
0.0
 11
1331.50584
 21
0.0
 31
0.0
  0
ELLIPSE
  5
E1A
100
AcDbEntity
  8
V0-VYPLNE
  6
DASHED
 62
    52
100
AcDbEllipse
 10
852.334333
 20
-0.64492
 30
0.0
 11
0.0
 21
95.74079997320064
 31
0.0
210
0.0
220
0.0
230
1.0
 40
0.657066
 41
0.0
 42
6.283185307179586
  0
LINE
  5
E1B
100
AcDbEntity
  8
V0-OBRYS
  6
DASHED
 62
    52
100
AcDbLine
 10
802.360662
 20
-424.386375
 30
0.0
 11
902.858402
 21
-246.976587
 31
0.0
  0
LWPOLYLINE
  5
E1C
100
AcDbEntity
  8
V0-OBRYS
  6
CONTINUOUS
 62
    90
100
AcDbPolyline
 90
        6
 70
     1
 43
0.0
 10
823.175728
 20
131.997713
 10
827.552254
 20
129.470925
 10
831.928779
 20
131.997713
 10
831.928779
 20
137.051289
 10
827.552254
 20
139.578077
 10
823.175728
 20
137.051289
  0
CIRCLE
  5
E1D
100
AcDbEntity
  8
V0-OBRYS
  6
CONTINUOUS
 62
    90
100
AcDbCircle
 10
827.552254
 20
134.524501
 30
0.0
 40
4.288961
  0
CIRCLE
  5
E1E
100
AcDbEntity
  8
V0-OBRYS
  6
CONTINUOUS
 62
    90
100
AcDbCircle
 10
827.552254
 20
134.524501
 30
0.0
 40
2.099877
  0
POINT
  5
E25
100
AcDbEntity
  8
V0-VYPLNE
  6
CONTINUOUS
 62
     7
100
AcDbPoint
 10
1218.235358
 20
0.0
 30
0.0
  0
MTEXT
  5
FE5
100
AcDbEntity
  8
V0-NAZVY
100
AcDbMText
 10
1210.07941
 20
-151.272847
 30
0.0
 40
26.25
 41
215.922525
 71
     5
 72
     5
  1
MSK-200
  7
ED10
  0
MTEXT
  5
FE6
100
AcDbEntity
  8
V0-NAZVY
100
AcDbMText
 10
854.878343
 20
-51.119241
 30
0.0
 40
26.25
 41
215.922525
 71
     5
 72
     5
  1
MSK-200
  7
ED10
  0
MTEXT
  5
FE7
100
AcDbEntity
  8
V0-NAZVY
100
AcDbMText
 10
857.826069
 20
-409.021098
 30
0.0
 40
26.25
 41
215.922525
 71
     5
 72
     5
  1
MSK-200
  7
ED10
  0
VIEWPORT
  5
22
100
AcDbEntity
 67
     1
  8
0
100
AcDbViewport
 10
261.517699
 20
148.5
 30
0.0
 40
523.035398
 41
297.0
 68
    -1
 69
     1
1001
ACAD
1000
MVIEW
1002
{
1070
    16
1010
0.0
1020
0.0
1030
0.0
1010
0.0
1020
0.0
1030
1.0
1040
0.0
1040
297.0
1040
261.517699
1040
148.5
1040
50.0
1040
0.0
1040
0.0
1070
     0
1070
   100
1070
     1
1070
     1
1070
     0
1070
     0
1070
     0
1070
     0
1040
0.0
1040
0.0
1040
0.0
1040
1.0
1040
1.0
1040
10.0
1040
10.0
1070
     0
1002
{
1002
}
1002
}
  0
ENDSEC
  0
SECTION
  2
OBJECTS
  0
DICTIONARY
  5
C
100
AcDbDictionary
  3
ACAD_GROUP
350
D
  3
ACAD_MLINESTYLE
350
E
  3
ACDBVARIABLEDICTIONARY
350
5D
  0
DICTIONARY
  5
D
102
{ACAD_REACTORS
330
C
102
}
100
AcDbDictionary
  0
DICTIONARY
  5
E
102
{ACAD_REACTORS
330
C
102
}
100
AcDbDictionary
  3
STANDARD
350
13
  0
DICTIONARY
  5
5D
102
{ACAD_REACTORS
330
C
102
}
100
AcDbDictionary
  3
DIMADEC
350
5E
  3
SORTENTS
350
3D8
  0
MLINESTYLE
  5
13
102
{ACAD_REACTORS
330
E
102
}
100
AcDbMlineStyle
  2
STANDARD
 70
     0
  3

 62
     0
 51
90.0
 52
90.0
 71
     2
 49
0.5
 62
   256
  6
BYLAYER
 49
-0.5
 62
   256
  6
BYLAYER
  0
DICTIONARYVAR
  5
5E
102
{ACAD_REACTORS
330
5D
102
}
100
DictionaryVariables
280
     0
  1
0
  0
DICTIONARYVAR
  5
3D8
102
{ACAD_REACTORS
330
5D
102
}
100
DictionaryVariables
280
     0
  1
96
  0
ENDSEC
  0
EOF
