  0
SECTION
  2
HEADER
  9
$ACADVER
  1
AC1014
  9
$ACADMAINTVER
 70
     0
  9
$DWGCODEPAGE
  3
ANSI_1250
  9
$INSBASE
 10
0.0
 20
0.0
 30
0.0
  9
$EXTMIN
 10
919.997958
 20
-873.045232
 30
0.0
  9
$EXTMAX
 10
1379.917288
 20
-373.898779
 30
0.0
  9
$LIMMIN
 10
0.0
 20
0.0
  9
$LIMMAX
 10
420.0
 20
297.0
  9
$ORTHOMODE
 70
     1
  9
$REGENMODE
 70
     1
  9
$FILLMODE
 70
     1
  9
$QTEXTMODE
 70
     0
  9
$MIRRTEXT
 70
     1
  9
$DRAGMODE
 70
     2
  9
$LTSCALE
 40
1.0
  9
$OSMODE
 70
    15
  9
$ATTMODE
 70
     1
  9
$TEXTSIZE
 40
2.5
  9
$TRACEWID
 40
1.0
  9
$TEXTSTYLE
  7
ED10
  9
$CLAYER
  8
V0-ZBYTEK
  9
$CELTYPE
  6
BYLAYER
  9
$CECOLOR
 62
     2
  9
$CELTSCALE
 40
1.0
  9
$DELOBJ
 70
     1
  9
$DISPSILH
 70
     0
  9
$DIMSCALE
 40
0.0
  9
$DIMASZ
 40
25.0
  9
$DIMEXO
 40
0.625
  9
$DIMDLI
 40
3.75
  9
$DIMRND
 40
0.0
  9
$DIMDLE
 40
0.0
  9
$DIMEXE
 40
1.25
  9
$DIMTP
 40
0.0
  9
$DIMTM
 40
0.0
  9
$DIMTXT
 40
10.0
  9
$DIMCEN
 40
2.5
  9
$DIMTSZ
 40
0.0
  9
$DIMTOL
 70
     0
  9
$DIMLIM
 70
     0
  9
$DIMTIH
 70
     0
  9
$DIMTOH
 70
     0
  9
$DIMSE1
 70
     0
  9
$DIMSE2
 70
     0
  9
$DIMTAD
 70
     3
  9
$DIMZIN
 70
     8
  9
$DIMBLK
  1

  9
$DIMASO
 70
     1
  9
$DIMSHO
 70
     1
  9
$DIMPOST
  1

  9
$DIMAPOST
  1

  9
$DIMALT
 70
     0
  9
$DIMALTD
 70
     4
  9
$DIMALTF
 40
0.0394
  9
$DIMLFAC
 40
1.0
  9
$DIMTOFL
 70
     1
  9
$DIMTVP
 40
0.0
  9
$DIMTIX
 70
     0
  9
$DIMSOXD
 70
     0
  9
$DIMSAH
 70
     1
  9
$DIMBLK1
  1
_OPEN
  9
$DIMBLK2
  1
_OPEN
  9
$DIMSTYLE
  2
ED2
  9
$DIMCLRD
 70
     0
  9
$DIMCLRE
 70
     0
  9
$DIMCLRT
 70
     0
  9
$DIMTFAC
 40
1.0
  9
$DIMGAP
 40
5.0
  9
$DIMJUST
 70
     0
  9
$DIMSD1
 70
     0
  9
$DIMSD2
 70
     0
  9
$DIMTOLJ
 70
     1
  9
$DIMTZIN
 70
     8
  9
$DIMALTZ
 70
     0
  9
$DIMALTTZ
 70
     0
  9
$DIMFIT
 70
     3
  9
$DIMUPT
 70
     0
  9
$DIMUNIT
 70
     2
  9
$DIMDEC
 70
     0
  9
$DIMTDEC
 70
     1
  9
$DIMALTU
 70
     8
  9
$DIMALTTD
 70
     4
  9
$DIMTXSTY
  7
ED
  9
$DIMAUNIT
 70
     0
  9
$LUNITS
 70
     2
  9
$LUPREC
 70
     4
  9
$SKETCHINC
 40
1.0
  9
$FILLETRAD
 40
10.0
  9
$AUNITS
 70
     0
  9
$AUPREC
 70
     0
  9
$MENU
  1
.
  9
$ELEVATION
 40
0.0
  9
$PELEVATION
 40
0.0
  9
$THICKNESS
 40
0.0
  9
$LIMCHECK
 70
     0
  9
$BLIPMODE
 70
     0
  9
$CHAMFERA
 40
10.0
  9
$CHAMFERB
 40
10.0
  9
$CHAMFERC
 40
20.0
  9
$CHAMFERD
 40
0.0
  9
$SKPOLY
 70
     1
  9
$TDCREATE
 40
2451196.643769328
  9
$TDUPDATE
 40
2453319.749868298
  9
$TDINDWG
 40
0.1635046065
  9
$TDUSRTIMER
 40
0.1635046065
  9
$USRTIMER
 70
     1
  9
$ANGBASE
 50
0.0
  9
$ANGDIR
 70
     0
  9
$PDMODE
 70
     3
  9
$PDSIZE
 40
15.0
  9
$PLINEWID
 40
0.0
  9
$COORDS
 70
     1
  9
$SPLFRAME
 70
     0
  9
$SPLINETYPE
 70
     6
  9
$SPLINESEGS
 70
     8
  9
$ATTDIA
 70
     0
  9
$ATTREQ
 70
     1
  9
$HANDLING
 70
     1
  9
$HANDSEED
  5
E48
  9
$SURFTAB1
 70
     6
  9
$SURFTAB2
 70
     6
  9
$SURFTYPE
 70
     6
  9
$SURFU
 70
     6
  9
$SURFV
 70
     6
  9
$UCSNAME
  2

  9
$UCSORG
 10
1169.835013434384
 20
-473.8987792018146
 30
0.0
  9
$UCSXDIR
 10
1.0
 20
0.0
 30
0.0
  9
$UCSYDIR
 10
0.0
 20
1.0
 30
0.0
  9
$PUCSNAME
  2

  9
$PUCSORG
 10
0.0
 20
0.0
 30
0.0
  9
$PUCSXDIR
 10
1.0
 20
0.0
 30
0.0
  9
$PUCSYDIR
 10
0.0
 20
1.0
 30
0.0
  9
$USERI1
 70
     0
  9
$USERI2
 70
     0
  9
$USERI3
 70
     0
  9
$USERI4
 70
     0
  9
$USERI5
 70
     0
  9
$USERR1
 40
0.0
  9
$USERR2
 40
0.0
  9
$USERR3
 40
0.0
  9
$USERR4
 40
0.0
  9
$USERR5
 40
0.0
  9
$WORLDVIEW
 70
     1
  9
$SHADEDGE
 70
     3
  9
$SHADEDIF
 70
    70
  9
$TILEMODE
 70
     1
  9
$MAXACTVP
 70
    48
  9
$PINSBASE
 10
0.0
 20
0.0
 30
0.0
  9
$PLIMCHECK
 70
     0
  9
$PEXTMIN
 10
1.000000E+20
 20
1.000000E+20
 30
1.000000E+20
  9
$PEXTMAX
 10
-1.000000E+20
 20
-1.000000E+20
 30
-1.000000E+20
  9
$PLIMMIN
 10
0.0
 20
0.0
  9
$PLIMMAX
 10
420.0
 20
297.0
  9
$UNITMODE
 70
     0
  9
$VISRETAIN
 70
     1
  9
$PLINEGEN
 70
     0
  9
$PSLTSCALE
 70
     1
  9
$TREEDEPTH
 70
  3020
  9
$PICKSTYLE
 70
     1
  9
$CMLSTYLE
  2
STANDARD
  9
$CMLJUST
 70
     0
  9
$CMLSCALE
 40
1.0
  9
$PROXYGRAPHICS
 70
     1
  9
$MEASUREMENT
 70
     1
  0
ENDSEC
  0
SECTION
  2
CLASSES
  0
CLASS
  1
DICTIONARYVAR
  2
AcDbDictionaryVar
  3
"AutoCAD"
 90
        0
280
     0
281
     0
  0
CLASS
  1
LWPOLYLINE
  2
AcDbPolyline
  3
"AutoCAD"
 90
        0
280
     0
281
     1
  0
CLASS
  1
HATCH
  2
AcDbHatch
  3
"ACAD_SEDONA"
 90
        0
280
     0
281
     1
  0
ENDSEC
  0
SECTION
  2
TABLES
  0
TABLE
  2
VPORT
  5
8
100
AcDbSymbolTable
 70
     2
  0
VPORT
  5
E47
100
AcDbSymbolTableRecord
100
AcDbViewportTableRecord
  2
*ACTIVE
 70
     0
 10
0.0
 20
0.0
 11
1.0
 21
1.0
 12
1165.787533
 22
-602.713215
 13
0.0
 23
0.0
 14
10.0
 24
10.0
 15
10.0
 25
10.0
 16
0.0
 26
0.0
 36
1.0
 17
0.0
 27
0.0
 37
0.0
 40
606.06648
 41
1.585567
 42
50.0
 43
0.0
 44
0.0
 50
0.0
 51
0.0
 71
     0
 72
   100
 73
     1
 74
     1
 75
     0
 76
     0
 77
     0
 78
     0
  0
ENDTAB
  0
TABLE
  2
LTYPE
  5
5
100
AcDbSymbolTable
 70
     5
  0
LTYPE
  5
14
100
AcDbSymbolTableRecord
100
AcDbLinetypeTableRecord
  2
BYBLOCK
 70
     0
  3

 72
    65
 73
     0
 40
0.0
  0
LTYPE
  5
15
100
AcDbSymbolTableRecord
100
AcDbLinetypeTableRecord
  2
BYLAYER
 70
     0
  3

 72
    65
 73
     0
 40
0.0
  0
LTYPE
  5
16
100
AcDbSymbolTableRecord
100
AcDbLinetypeTableRecord
  2
CONTINUOUS
 70
     0
  3
Solid line
 72
    65
 73
     0
 40
0.0
  0
LTYPE
  5
7F
100
AcDbSymbolTableRecord
100
AcDbLinetypeTableRecord
  2
DASHDOT
 70
     0
  3
Dash dot __ . __ . __ . __ . __ . __ . __ . __
 72
    65
 73
     4
 40
25.4
 49
12.7
 74
     0
 49
-6.35
 74
     0
 49
0.0
 74
     0
 49
-6.35
 74
     0
  0
LTYPE
  5
80
100
AcDbSymbolTableRecord
100
AcDbLinetypeTableRecord
  2
DASHED
 70
     0
  3
Dashed __ __ __ __ __ __ __ __ __ __ __ __ __ _
 72
    65
 73
     2
 40
19.05
 49
12.7
 74
     0
 49
-6.35
 74
     0
  0
LTYPE
  5
5AA
100
AcDbSymbolTableRecord
100
AcDbLinetypeTableRecord
  2
DOT
 70
     0
  3
Dot . . . . . . . . . . . . . . . . . . . . . .
 72
    65
 73
     2
 40
6.35
 49
0.0
 74
     0
 49
-6.35
 74
     0
  0
LTYPE
  5
CAA
100
AcDbSymbolTableRecord
100
AcDbLinetypeTableRecord
  2
DOT2
 70
     0
  3
...............................................
 72
    65
 73
     2
 40
0.125
 49
0.0
 74
     0
 49
-0.125
 74
     0
  0
ENDTAB
  0
TABLE
  2
LAYER
  5
2
100
AcDbSymbolTable
 70
     6
  0
LAYER
  5
F
100
AcDbSymbolTableRecord
100
AcDbLayerTableRecord
  2
0
 70
     0
 62
     7
  6
CONTINUOUS
  0
LAYER
  5
9E
100
AcDbSymbolTableRecord
100
AcDbLayerTableRecord
  2
DEFPOINTS
 70
     0
 62
     7
  6
CONTINUOUS
  0
LAYER
  5
377
100
AcDbSymbolTableRecord
100
AcDbLayerTableRecord
  2
V0-OBRYS
 70
     0
 62
    90
  6
CONTINUOUS
  0
LAYER
  5
378
100
AcDbSymbolTableRecord
100
AcDbLayerTableRecord
  2
V0-VYPLNE
 70
     0
 62
    52
  6
CONTINUOUS
  0
LAYER
  5
37A
100
AcDbSymbolTableRecord
100
AcDbLayerTableRecord
  2
V0-NAZVY
 70
     0
 62
   210
  6
CONTINUOUS
  0
LAYER
  5
559
100
AcDbSymbolTableRecord
100
AcDbLayerTableRecord
  2
V0-ZBYTEK
 70
     0
 62
    51
  6
CONTINUOUS
  0
ENDTAB
  0
TABLE
  2
STYLE
  5
3
100
AcDbSymbolTable
 70
     8
  0
STYLE
  5
10
100
AcDbSymbolTableRecord
100
AcDbTextStyleTableRecord
  2
STANDARD
 70
     0
 40
0.0
 41
1.0
 50
0.0
 71
     0
 42
2.5
  3
ISOCP
  4

  0
STYLE
  5
331
100
AcDbSymbolTableRecord
100
AcDbTextStyleTableRecord
  2
ED
 70
     0
 40
20.0
 41
1.0
 50
0.0
 71
     0
 42
2.5
  3
ISOCP.shx
  4

  0
STYLE
  5
5B3
100
AcDbSymbolTableRecord
100
AcDbTextStyleTableRecord
  2
EDVENT
 70
     0
 40
10.0
 41
1.0
 50
0.0
 71
     0
 42
2.5
  3
ISOCP.shx
  4

  0
STYLE
  5
5B4
100
AcDbSymbolTableRecord
100
AcDbTextStyleTableRecord
  2
E
 70
     0
 40
25.0
 41
1.0
 50
0.0
 71
     0
 42
2.5
  3
ISOCP.shx
  4

  0
STYLE
  5
5B5
100
AcDbSymbolTableRecord
100
AcDbTextStyleTableRecord
  2
ED-VENT
 70
     0
 40
25.0
 41
1.0
 50
0.0
 71
     0
 42
2.5
  3
ISOCP.shx
  4

  0
STYLE
  5
881
100
AcDbSymbolTableRecord
100
AcDbTextStyleTableRecord
  2
ED2
 70
     0
 40
25.0
 41
1.0
 50
0.0
 71
     0
 42
2.5
  3
ISOCP.shx
  4

  0
STYLE
  5
CB1
100
AcDbSymbolTableRecord
100
AcDbTextStyleTableRecord
  2

 70
     1
 40
0.0
 41
1.0
 50
0.0
 71
     0
 42
4.0
  3
ltypeshp.shx
  4

  0
STYLE
  5
D97
100
AcDbSymbolTableRecord
100
AcDbTextStyleTableRecord
  2
ED10
 70
     0
 40
10.0
 41
1.0
 50
0.0
 71
     0
 42
2.5
  3
ISOCP.shx
  4

  0
ENDTAB
  0
TABLE
  2
VIEW
  5
6
100
AcDbSymbolTable
 70
     0
  0
ENDTAB
  0
TABLE
  2
UCS
  5
7
100
AcDbSymbolTable
 70
     0
  0
ENDTAB
  0
TABLE
  2
APPID
  5
9
100
AcDbSymbolTable
 70
     4
  0
APPID
  5
11
100
AcDbSymbolTableRecord
100
AcDbRegAppTableRecord
  2
ACAD
 70
     0
  0
APPID
  5
CB2
100
AcDbSymbolTableRecord
100
AcDbRegAppTableRecord
  2
CONTENTTABDATA
 70
     0
  0
APPID
  5
CB3
100
AcDbSymbolTableRecord
100
AcDbRegAppTableRecord
  2
CONTENTCURRENTTAB
 70
     0
  0
APPID
  5
CB4
100
AcDbSymbolTableRecord
100
AcDbRegAppTableRecord
  2
CONTENTBLOCKDESCRIPTION
 70
     0
  0
ENDTAB
  0
TABLE
  2
DIMSTYLE
  5
A
100
AcDbSymbolTable
 70
     3
  0
DIMSTYLE
105
1D
100
AcDbSymbolTableRecord
100
AcDbDimStyleTableRecord
  2
STANDARD
 70
     0
  3

  4

  5

  6
_OPEN
  7
_OPEN
 40
0.0
 41
15.0
 42
0.625
 43
3.75
 44
1.25
 45
0.0
 46
0.0
 47
0.0
 48
0.0
140
15.0
141
2.5
142
0.0
143
0.0394
144
1.0
145
0.0
146
1.0
147
3.0
 71
     0
 72
     0
 73
     0
 74
     0
 75
     0
 76
     0
 77
     1
 78
     8
170
     0
171
     4
172
     1
173
     1
174
     0
175
     0
176
     0
177
     0
178
     0
270
     2
271
     0
272
     1
273
     8
274
     4
340
331
275
     0
280
     0
281
     0
282
     0
283
     1
284
     8
285
     0
286
     0
287
     3
288
     0
  0
DIMSTYLE
105
397
100
AcDbSymbolTableRecord
100
AcDbDimStyleTableRecord
  2
ED
 70
     0
  3

  4

  5

  6
_OPEN
  7
_OPEN
 40
0.0
 41
15.0
 42
0.625
 43
3.75
 44
1.25
 45
0.0
 46
0.0
 47
0.0
 48
0.0
140
15.0
141
2.5
142
0.0
143
0.0394
144
1.0
145
0.0
146
1.0
147
3.0
 71
     0
 72
     0
 73
     0
 74
     0
 75
     0
 76
     0
 77
     1
 78
     8
170
     0
171
     4
172
     1
173
     1
174
     0
175
     0
176
     0
177
     0
178
     0
270
     2
271
     0
272
     1
273
     8
274
     4
340
331
275
     0
280
     0
281
     0
282
     0
283
     1
284
     8
285
     0
286
     0
287
     3
288
     0
  0
DIMSTYLE
105
77C
102
{ACAD_REACTORS
330
DA4
330
DB1
330
DBE
330
DCB
330
E10
102
}
100
AcDbSymbolTableRecord
100
AcDbDimStyleTableRecord
  2
ED2
 70
     0
  3

  4

  5

  6
_OPEN
  7
_OPEN
 40
0.0
 41
25.0
 42
0.625
 43
3.75
 44
1.25
 45
0.0
 46
0.0
 47
0.0
 48
0.0
140
30.0
141
2.5
142
0.0
143
0.0394
144
1.0
145
0.0
146
1.0
147
5.0
 71
     0
 72
     0
 73
     0
 74
     0
 75
     0
 76
     0
 77
     1
 78
     8
170
     0
171
     4
172
     1
173
     1
174
     0
175
     0
176
     0
177
     0
178
     0
270
     2
271
     0
272
     1
273
     8
274
     4
340
331
275
     0
280
     0
281
     0
282
     0
283
     1
284
     8
285
     0
286
     0
287
     3
288
     0
  0
ENDTAB
  0
TABLE
  2
BLOCK_RECORD
  5
1
100
AcDbSymbolTable
 70
    11
  0
BLOCK_RECORD
  5
1A
100
AcDbSymbolTableRecord
100
AcDbBlockTableRecord
  2
*MODEL_SPACE
  0
BLOCK_RECORD
  5
17
100
AcDbSymbolTableRecord
100
AcDbBlockTableRecord
  2
*PAPER_SPACE
  0
BLOCK_RECORD
  5
90
100
AcDbSymbolTableRecord
100
AcDbBlockTableRecord
  2
_OPEN
  0
BLOCK_RECORD
  5
D98
100
AcDbSymbolTableRecord
100
AcDbBlockTableRecord
  2
*D4
  0
BLOCK_RECORD
  5
DA5
100
AcDbSymbolTableRecord
100
AcDbBlockTableRecord
  2
*D5
  0
BLOCK_RECORD
  5
DB2
100
AcDbSymbolTableRecord
100
AcDbBlockTableRecord
  2
*D6
  0
BLOCK_RECORD
  5
DBF
100
AcDbSymbolTableRecord
100
AcDbBlockTableRecord
  2
*D7
  0
BLOCK_RECORD
  5
E05
100
AcDbSymbolTableRecord
100
AcDbBlockTableRecord
  2
*D9
  0
BLOCK_RECORD
  5
E23
100
AcDbSymbolTableRecord
100
AcDbBlockTableRecord
  2
*D10
  0
ENDTAB
  0
ENDSEC
  0
SECTION
  2
BLOCKS
  0
BLOCK
  5
1B
100
AcDbEntity
  8
0
100
AcDbBlockBegin
  2
*MODEL_SPACE
 70
     0
 10
0.0
 20
0.0
 30
0.0
  3
*MODEL_SPACE
  1

  0
ENDBLK
  5
1C
100
AcDbEntity
  8
0
100
AcDbBlockEnd
  0
BLOCK
  5
18
100
AcDbEntity
 67
     1
  8
0
100
AcDbBlockBegin
  2
*PAPER_SPACE
 70
     0
 10
0.0
 20
0.0
 30
0.0
  3
*PAPER_SPACE
  1

  0
ENDBLK
  5
19
100
AcDbEntity
 67
     1
  8
0
100
AcDbBlockEnd
  0
BLOCK
  5
91
100
AcDbEntity
  8
0
100
AcDbBlockBegin
  2
_OPEN
 70
     0
 10
0.0
 20
0.0
 30
0.0
  3
_OPEN
  1

  0
LINE
  5
92
100
AcDbEntity
  8
0
  6
BYBLOCK
 62
     0
100
AcDbLine
 10
-1.0
 20
0.166667
 30
0.0
 11
0.0
 21
0.0
 31
0.0
  0
LINE
  5
93
100
AcDbEntity
  8
0
  6
BYBLOCK
 62
     0
100
AcDbLine
 10
0.0
 20
0.0
 30
0.0
 11
-1.0
 21
-0.166667
 31
0.0
  0
LINE
  5
94
100
AcDbEntity
  8
0
  6
BYBLOCK
 62
     0
100
AcDbLine
 10
0.0
 20
0.0
 30
0.0
 11
-1.0
 21
0.0
 31
0.0
  0
ENDBLK
  5
95
100
AcDbEntity
  8
0
100
AcDbBlockEnd
  0
BLOCK
  5
D99
100
AcDbEntity
  8
0
100
AcDbBlockBegin
  2
*D4
 70
     1
 10
0.0
 20
0.0
 30
0.0
  3
*D4
  1

  0
LINE
  5
D9A
100
AcDbEntity
  8
0
  6
BYBLOCK
 62
     0
100
AcDbLine
 10
1037.835013
 20
-564.523779
 30
0.0
 11
1037.835013
 21
-635.53043
 31
0.0
  0
LINE
  5
D9B
100
AcDbEntity
  8
0
  6
BYBLOCK
 62
     0
100
AcDbLine
 10
1301.835013
 20
-564.523779
 30
0.0
 11
1301.835013
 21
-635.53043
 31
0.0
  0
LINE
  5
D9C
100
AcDbEntity
  8
0
  6
BYBLOCK
 62
     0
100
AcDbLine
 10
1062.835013
 20
-634.28043
 30
0.0
 11
1276.835013
 21
-634.28043
 31
0.0
  0
INSERT
  5
D9D
100
AcDbEntity
  8
0
  6
BYBLOCK
 62
     0
100
AcDbBlockReference
  2
_OPEN
 10
1037.835013
 20
-634.28043
 30
0.0
 41
25.0
 42
25.0
 43
25.0
 50
180.0
  0
INSERT
  5
D9E
100
AcDbEntity
  8
0
  6
BYBLOCK
 62
     0
100
AcDbBlockReference
  2
_OPEN
 10
1301.835013
 20
-634.28043
 30
0.0
 41
25.0
 42
25.0
 43
25.0
  0
MTEXT
  5
D9F
100
AcDbEntity
  8
0
  6
BYBLOCK
 62
     0
100
AcDbMText
 10
1169.835013
 20
-619.278461
 30
0.0
 40
20.0
 41
0.0
 71
     5
 72
     1
  1
\A1;264
  7
ED
  0
POINT
  5
DA0
100
AcDbEntity
  8
DEFPOINTS
  6
BYBLOCK
 62
     0
100
AcDbPoint
 10
1037.835013
 20
-563.898779
 30
0.0
  0
POINT
  5
DA1
100
AcDbEntity
  8
DEFPOINTS
  6
BYBLOCK
 62
     0
100
AcDbPoint
 10
1301.835013
 20
-563.898779
 30
0.0
  0
POINT
  5
DA2
100
AcDbEntity
  8
DEFPOINTS
  6
BYBLOCK
 62
     0
100
AcDbPoint
 10
1301.835013
 20
-634.28043
 30
0.0
  0
ENDBLK
  5
DA3
100
AcDbEntity
  8
0
100
AcDbBlockEnd
  0
BLOCK
  5
DA6
100
AcDbEntity
  8
0
100
AcDbBlockBegin
  2
*D5
 70
     1
 10
0.0
 20
0.0
 30
0.0
  3
*D5
  1

  0
LINE
  5
DA7
100
AcDbEntity
  8
0
  6
BYBLOCK
 62
     0
100
AcDbLine
 10
1047.835013
 20
-561.638674
 30
0.0
 11
1047.835013
 21
-603.176938
 31
0.0
  0
LINE
  5
DA8
100
AcDbEntity
  8
0
  6
BYBLOCK
 62
     0
100
AcDbLine
 10
1291.835013
 20
-561.638674
 30
0.0
 11
1291.835013
 21
-603.176938
 31
0.0
  0
LINE
  5
DA9
100
AcDbEntity
  8
0
  6
BYBLOCK
 62
     0
100
AcDbLine
 10
1072.835013
 20
-601.926938
 30
0.0
 11
1266.835013
 21
-601.926938
 31
0.0
  0
INSERT
  5
DAA
100
AcDbEntity
  8
0
  6
BYBLOCK
 62
     0
100
AcDbBlockReference
  2
_OPEN
 10
1047.835013
 20
-601.926938
 30
0.0
 41
25.0
 42
25.0
 43
25.0
 50
180.0
  0
INSERT
  5
DAB
100
AcDbEntity
  8
0
  6
BYBLOCK
 62
     0
100
AcDbBlockReference
  2
_OPEN
 10
1291.835013
 20
-601.926938
 30
0.0
 41
25.0
 42
25.0
 43
25.0
  0
MTEXT
  5
DAC
100
AcDbEntity
  8
0
  6
BYBLOCK
 62
     0
100
AcDbMText
 10
1169.835013
 20
-586.924969
 30
0.0
 40
20.0
 41
0.0
 71
     5
 72
     1
  1
\A1;244
  7
ED
  0
POINT
  5
DAD
100
AcDbEntity
  8
DEFPOINTS
  6
BYBLOCK
 62
     0
100
AcDbPoint
 10
1047.835013
 20
-561.013674
 30
0.0
  0
POINT
  5
DAE
100
AcDbEntity
  8
DEFPOINTS
  6
BYBLOCK
 62
     0
100
AcDbPoint
 10
1291.835013
 20
-561.013674
 30
0.0
  0
POINT
  5
DAF
100
AcDbEntity
  8
DEFPOINTS
  6
BYBLOCK
 62
     0
100
AcDbPoint
 10
1291.835013
 20
-601.926938
 30
0.0
  0
ENDBLK
  5
DB0
100
AcDbEntity
  8
0
100
AcDbBlockEnd
  0
BLOCK
  5
DB3
100
AcDbEntity
  8
0
100
AcDbBlockBegin
  2
*D6
 70
     1
 10
0.0
 20
0.0
 30
0.0
  3
*D6
  1

  0
LINE
  5
DB4
100
AcDbEntity
  8
0
  6
BYBLOCK
 62
     0
100
AcDbLine
 10
1300.460013
 20
-393.898779
 30
0.0
 11
1342.59703
 21
-393.898779
 31
0.0
  0
LINE
  5
DB5
100
AcDbEntity
  8
0
  6
BYBLOCK
 62
     0
100
AcDbLine
 10
1300.460013
 20
-553.898779
 30
0.0
 11
1342.59703
 21
-553.898779
 31
0.0
  0
LINE
  5
DB6
100
AcDbEntity
  8
0
  6
BYBLOCK
 62
     0
100
AcDbLine
 10
1341.34703
 20
-418.898779
 30
0.0
 11
1341.34703
 21
-528.898779
 31
0.0
  0
INSERT
  5
DB7
100
AcDbEntity
  8
0
  6
BYBLOCK
 62
     0
100
AcDbBlockReference
  2
_OPEN
 10
1341.34703
 20
-393.898779
 30
0.0
 41
25.0
 42
25.0
 43
25.0
 50
90.0
  0
INSERT
  5
DB8
100
AcDbEntity
  8
0
  6
BYBLOCK
 62
     0
100
AcDbBlockReference
  2
_OPEN
 10
1341.34703
 20
-553.898779
 30
0.0
 41
25.0
 42
25.0
 43
25.0
 50
270.0
  0
MTEXT
  5
DB9
100
AcDbEntity
  8
0
  6
BYBLOCK
 62
     0
100
AcDbMText
 10
1326.34703
 20
-473.898779
 30
0.0
 40
20.0
 41
0.0
 71
     5
 72
     1
  1
\A1;160
  7
ED
 11
0.0
 21
1.0
 31
0.0
  0
POINT
  5
DBA
100
AcDbEntity
  8
DEFPOINTS
  6
BYBLOCK
 62
     0
100
AcDbPoint
 10
1299.835013
 20
-393.898779
 30
0.0
  0
POINT
  5
DBB
100
AcDbEntity
  8
DEFPOINTS
  6
BYBLOCK
 62
     0
100
AcDbPoint
 10
1299.835013
 20
-553.898779
 30
0.0
  0
POINT
  5
DBC
100
AcDbEntity
  8
DEFPOINTS
  6
BYBLOCK
 62
     0
100
AcDbPoint
 10
1341.34703
 20
-553.898779
 30
0.0
  0
ENDBLK
  5
DBD
100
AcDbEntity
  8
0
100
AcDbBlockEnd
  0
BLOCK
  5
DC0
100
AcDbEntity
  8
0
100
AcDbBlockBegin
  2
*D7
 70
     1
 10
0.0
 20
0.0
 30
0.0
  3
*D7
  1

  0
LINE
  5
DC1
100
AcDbEntity
  8
0
  6
BYBLOCK
 62
     0
100
AcDbLine
 10
1302.460013
 20
-383.898779
 30
0.0
 11
1377.000621
 21
-383.898779
 31
0.0
  0
LINE
  5
DC2
100
AcDbEntity
  8
0
  6
BYBLOCK
 62
     0
100
AcDbLine
 10
1302.460013
 20
-564.523779
 30
0.0
 11
1377.000621
 21
-564.523779
 31
0.0
  0
LINE
  5
DC3
100
AcDbEntity
  8
0
  6
BYBLOCK
 62
     0
100
AcDbLine
 10
1375.750621
 20
-408.898779
 30
0.0
 11
1375.750621
 21
-539.523779
 31
0.0
  0
INSERT
  5
DC4
100
AcDbEntity
  8
0
  6
BYBLOCK
 62
     0
100
AcDbBlockReference
  2
_OPEN
 10
1375.750621
 20
-383.898779
 30
0.0
 41
25.0
 42
25.0
 43
25.0
 50
90.0
  0
INSERT
  5
DC5
100
AcDbEntity
  8
0
  6
BYBLOCK
 62
     0
100
AcDbBlockReference
  2
_OPEN
 10
1375.750621
 20
-564.523779
 30
0.0
 41
25.0
 42
25.0
 43
25.0
 50
270.0
  0
MTEXT
  5
DC6
100
AcDbEntity
  8
0
  6
BYBLOCK
 62
     0
100
AcDbMText
 10
1360.750621
 20
-474.211279
 30
0.0
 40
20.0
 41
0.0
 71
     5
 72
     1
  1
\A1;181
  7
ED
 11
0.0
 21
1.0
 31
0.0
  0
POINT
  5
DC7
100
AcDbEntity
  8
DEFPOINTS
  6
BYBLOCK
 62
     0
100
AcDbPoint
 10
1301.835013
 20
-383.898779
 30
0.0
  0
POINT
  5
DC8
100
AcDbEntity
  8
DEFPOINTS
  6
BYBLOCK
 62
     0
100
AcDbPoint
 10
1301.835013
 20
-564.523779
 30
0.0
  0
POINT
  5
DC9
100
AcDbEntity
  8
DEFPOINTS
  6
BYBLOCK
 62
     0
100
AcDbPoint
 10
1375.750621
 20
-564.523779
 30
0.0
  0
ENDBLK
  5
DCA
100
AcDbEntity
  8
0
100
AcDbBlockEnd
  0
BLOCK
  5
E11
100
AcDbEntity
  8
0
100
AcDbBlockBegin
  2
*D9
 70
     1
 10
0.0
 20
0.0
 30
0.0
  3
*D9
  1

  0
LINE
  5
E12
100
AcDbEntity
  8
0
  6
BYBLOCK
 62
     0
100
AcDbLine
 10
979.095917
 20
-540.615344
 30
0.0
 11
1099.040764
 21
-498.661134
 31
0.0
  0
LINE
  5
E13
100
AcDbEntity
  8
0
  6
BYBLOCK
 62
     0
100
AcDbLine
 10
1240.629263
 20
-449.136425
 30
0.0
 11
1264.227346
 21
-440.882306
 31
0.0
  0
MTEXT
  5
E14
100
AcDbEntity
  8
0
  6
BYBLOCK
 62
     0
100
AcDbMText
 10
1002.468578
 20
-516.548953
 30
0.0
 40
20.0
 41
0.0
 71
     5
 72
     1
  1
\A1;\U+2205100
  7
ED
 11
0.943923
 21
0.330165
 31
0.0
  0
LINE
  5
E15
100
AcDbEntity
  8
0
  6
BYBLOCK
 62
     0
100
AcDbLine
 10
1217.03118
 20
-457.390543
 30
0.0
 11
1122.638847
 21
-490.407016
 31
0.0
  0
INSERT
  5
E16
100
AcDbEntity
  8
0
  6
BYBLOCK
 62
     0
100
AcDbBlockReference
  2
_OPEN
 10
1217.03118
 20
-457.390543
 30
0.0
 41
25.0
 42
25.0
 43
25.0
 50
199.278774
  0
INSERT
  5
E17
100
AcDbEntity
  8
0
  6
BYBLOCK
 62
     0
100
AcDbBlockReference
  2
_OPEN
 10
1122.638847
 20
-490.407016
 30
0.0
 41
25.0
 42
25.0
 43
25.0
 50
19.278774
  0
POINT
  5
E18
100
AcDbEntity
  8
DEFPOINTS
  6
BYBLOCK
 62
     0
100
AcDbPoint
 10
1122.638847
 20
-490.407016
 30
0.0
  0
POINT
  5
E19
100
AcDbEntity
  8
DEFPOINTS
  6
BYBLOCK
 62
     0
100
AcDbPoint
 10
1217.03118
 20
-457.390543
 30
0.0
  0
ENDBLK
  5
E1A
100
AcDbEntity
  8
0
100
AcDbBlockEnd
  0
BLOCK
  5
E31
100
AcDbEntity
  8
0
100
AcDbBlockBegin
  2
*D10
 70
     1
 10
0.0
 20
0.0
 30
0.0
  3
*D10
  1

  0
LINE
  5
E32
100
AcDbEntity
  8
0
  6
BYBLOCK
 62
     0
100
AcDbLine
 10
1220.460013
 20
-696.362738
 30
0.0
 11
1346.644513
 21
-696.362738
 31
0.0
  0
LINE
  5
E33
100
AcDbEntity
  8
0
  6
BYBLOCK
 62
     0
100
AcDbLine
 10
1220.460013
 20
-663.362738
 30
0.0
 11
1346.644513
 21
-663.362738
 31
0.0
  0
LINE
  5
E34
100
AcDbEntity
  8
0
  6
BYBLOCK
 62
     0
100
AcDbLine
 10
1345.394513
 20
-721.362738
 30
0.0
 11
1345.394513
 21
-746.362738
 31
0.0
  0
LINE
  5
E35
100
AcDbEntity
  8
0
  6
BYBLOCK
 62
     0
100
AcDbLine
 10
1345.394513
 20
-638.362738
 30
0.0
 11
1345.394513
 21
-613.362738
 31
0.0
  0
LINE
  5
E36
100
AcDbEntity
  8
0
  6
BYBLOCK
 62
     0
100
AcDbLine
 10
1345.394513
 20
-696.362738
 30
0.0
 11
1345.394513
 21
-663.362738
 31
0.0
  0
INSERT
  5
E37
100
AcDbEntity
  8
0
  6
BYBLOCK
 62
     0
100
AcDbBlockReference
  2
_OPEN
 10
1345.394513
 20
-696.362738
 30
0.0
 41
25.0
 42
25.0
 43
25.0
 50
90.0
  0
INSERT
  5
E38
100
AcDbEntity
  8
0
  6
BYBLOCK
 62
     0
100
AcDbBlockReference
  2
_OPEN
 10
1345.394513
 20
-663.362738
 30
0.0
 41
25.0
 42
25.0
 43
25.0
 50
270.0
  0
MTEXT
  5
E39
100
AcDbEntity
  8
0
  6
BYBLOCK
 62
     0
100
AcDbMText
 10
1330.394513
 20
-679.862738
 30
0.0
 40
20.0
 41
0.0
 71
     5
 72
     1
  1
\A1;33
  7
ED
 11
0.0
 21
1.0
 31
0.0
  0
POINT
  5
E3A
100
AcDbEntity
  8
DEFPOINTS
  6
BYBLOCK
 62
     0
100
AcDbPoint
 10
1219.835013
 20
-696.362738
 30
0.0
  0
POINT
  5
E3B
100
AcDbEntity
  8
DEFPOINTS
  6
BYBLOCK
 62
     0
100
AcDbPoint
 10
1219.835013
 20
-663.362738
 30
0.0
  0
POINT
  5
E3C
100
AcDbEntity
  8
DEFPOINTS
  6
BYBLOCK
 62
     0
100
AcDbPoint
 10
1345.394513
 20
-663.362738
 30
0.0
  0
ENDBLK
  5
E3D
100
AcDbEntity
  8
0
100
AcDbBlockEnd
  0
ENDSEC
  0
SECTION
  2
ENTITIES
  0
TEXT
  5
CF9
100
AcDbEntity
  8
V0-NAZVY
  6
CONTINUOUS
 62
   210
100
AcDbText
 10
1044.666112
 20
-843.989729
 30
0.0
 40
40.0
  1
MAR - 100
 72
     1
 11
1164.68186
 21
-843.989729
 31
0.0
100
AcDbText
  0
TEXT
  5
CFA
100
AcDbEntity
  8
V0-ZBYTEK
  6
CONTINUOUS
 62
     2
100
AcDbText
 10
1096.660143
 20
-872.888759
 30
0.0
 40
22.5
  1
ADAPTER
 72
     1
 11
1160.785143
 21
-872.888759
 31
0.0
100
AcDbText
  0
LINE
  5
D7C
100
AcDbEntity
  8
V0-VYPLNE
  6
DASHDOT
100
AcDbLine
 10
1044.835013
 20
-473.898779
 30
0.0
 11
1294.835013
 21
-473.898779
 31
0.0
  0
LINE
  5
D7D
100
AcDbEntity
  8
V0-VYPLNE
  6
DASHDOT
100
AcDbLine
 10
1169.835013
 20
-373.898779
 30
0.0
 11
1169.835013
 21
-573.898779
 31
0.0
  0
CIRCLE
  5
D7E
100
AcDbEntity
  8
V0-OBRYS
100
AcDbCircle
 10
1169.835013
 20
-473.898779
 30
0.0
 40
50.0
  0
LINE
  5
D7F
100
AcDbEntity
  8
V0-OBRYS
100
AcDbLine
 10
1037.835013
 20
-563.898779
 30
0.0
 11
1037.835013
 21
-383.898779
 31
0.0
  0
LINE
  5
D80
100
AcDbEntity
  8
V0-OBRYS
100
AcDbLine
 10
1037.835013
 20
-383.898779
 30
0.0
 11
1301.835013
 21
-383.898779
 31
0.0
  0
LINE
  5
D81
100
AcDbEntity
  8
V0-OBRYS
100
AcDbLine
 10
1301.835013
 20
-383.898779
 30
0.0
 11
1301.835013
 21
-563.898779
 31
0.0
  0
LINE
  5
D82
100
AcDbEntity
  8
V0-OBRYS
100
AcDbLine
 10
1301.835013
 20
-563.898779
 30
0.0
 11
1037.835013
 21
-563.898779
 31
0.0
  0
CIRCLE
  5
D83
100
AcDbEntity
  8
V0-OBRYS
100
AcDbCircle
 10
1047.835013
 20
-553.898779
 30
0.0
 40
4.5
  0
CIRCLE
  5
D84
100
AcDbEntity
  8
V0-OBRYS
100
AcDbCircle
 10
1047.835013
 20
-393.898779
 30
0.0
 40
4.5
  0
LINE
  5
D85
100
AcDbEntity
  8
V0-ZBYTEK
  6
DASHED
100
AcDbLine
 10
1039.835013
 20
-393.898779
 30
0.0
 11
1056.946986
 21
-393.898779
 31
0.0
  0
LINE
  5
D86
100
AcDbEntity
  8
V0-ZBYTEK
  6
DASHED
100
AcDbLine
 10
1047.835013
 20
-401.29818
 30
0.0
 11
1047.835013
 21
-386.783884
 31
0.0
  0
LINE
  5
D87
100
AcDbEntity
  8
V0-ZBYTEK
  6
DASHED
100
AcDbLine
 10
1039.835013
 20
-553.898779
 30
0.0
 11
1056.946986
 21
-553.898779
 31
0.0
  0
LINE
  5
D88
100
AcDbEntity
  8
V0-ZBYTEK
  6
DASHED
100
AcDbLine
 10
1047.835013
 20
-546.499378
 30
0.0
 11
1047.835013
 21
-561.013674
 31
0.0
  0
LINE
  5
D89
100
AcDbEntity
  8
V0-ZBYTEK
  6
DASHED
100
AcDbLine
 10
1299.835013
 20
-393.898779
 30
0.0
 11
1282.723041
 21
-393.898779
 31
0.0
  0
LINE
  5
D8A
100
AcDbEntity
  8
V0-ZBYTEK
  6
DASHED
100
AcDbLine
 10
1291.835013
 20
-401.29818
 30
0.0
 11
1291.835013
 21
-386.783884
 31
0.0
  0
CIRCLE
  5
D8B
100
AcDbEntity
  8
V0-OBRYS
100
AcDbCircle
 10
1291.835013
 20
-393.898779
 30
0.0
 40
4.5
  0
LINE
  5
D8C
100
AcDbEntity
  8
V0-ZBYTEK
  6
DASHED
100
AcDbLine
 10
1299.835013
 20
-553.898779
 30
0.0
 11
1282.723041
 21
-553.898779
 31
0.0
  0
LINE
  5
D8D
100
AcDbEntity
  8
V0-ZBYTEK
  6
DASHED
100
AcDbLine
 10
1291.835013
 20
-546.499378
 30
0.0
 11
1291.835013
 21
-561.013674
 31
0.0
  0
CIRCLE
  5
D8E
100
AcDbEntity
  8
V0-OBRYS
100
AcDbCircle
 10
1291.835013
 20
-553.898779
 30
0.0
 40
4.5
  0
LINE
  5
D8F
100
AcDbEntity
  8
V0-OBRYS
100
AcDbLine
 10
1037.835013
 20
-696.362738
 30
0.0
 11
1301.835013
 21
-696.362738
 31
0.0
  0
LINE
  5
D90
100
AcDbEntity
  8
V0-OBRYS
100
AcDbLine
 10
1037.835013
 20
-696.362738
 30
0.0
 11
1037.835013
 21
-701.362738
 31
0.0
  0
LINE
  5
D91
100
AcDbEntity
  8
V0-OBRYS
100
AcDbLine
 10
1037.835013
 20
-701.362738
 30
0.0
 11
1301.835013
 21
-701.362738
 31
0.0
  0
LINE
  5
D92
100
AcDbEntity
  8
V0-OBRYS
100
AcDbLine
 10
1301.835013
 20
-701.362738
 30
0.0
 11
1301.835013
 21
-696.362738
 31
0.0
  0
LINE
  5
D93
100
AcDbEntity
  8
V0-OBRYS
100
AcDbLine
 10
1301.835013
 20
-696.362738
 30
0.0
 11
1282.889185
 21
-696.362738
 31
0.0
  0
DIMENSION
  5
DA4
100
AcDbEntity
  8
V0-ZBYTEK
 62
    41
100
AcDbDimension
  2
*D4
 10
1301.835013
 20
-634.28043
 30
0.0
 11
1169.835013
 21
-619.278461
 31
0.0
 70
    32
  3
ED2
100
AcDbAlignedDimension
 13
1037.835013
 23
-563.898779
 33
0.0
 14
1301.835013
 24
-563.898779
 34
0.0
100
AcDbRotatedDimension
1001
ACAD
1000
DSTYLE
1002
{
1070
   140
1040
10.0
1070
    40
1040
1.0
1002
}
  0
DIMENSION
  5
DB1
100
AcDbEntity
  8
V0-ZBYTEK
 62
    41
100
AcDbDimension
  2
*D5
 10
1291.835013
 20
-601.926938
 30
0.0
 11
1169.835013
 21
-586.924969
 31
0.0
 70
    32
  3
ED2
100
AcDbAlignedDimension
 13
1047.835013
 23
-561.013674
 33
0.0
 14
1291.835013
 24
-561.013674
 34
0.0
100
AcDbRotatedDimension
1001
ACAD
1000
DSTYLE
1002
{
1070
   140
1040
10.0
1070
    40
1040
1.0
1002
}
  0
DIMENSION
  5
DBE
100
AcDbEntity
  8
V0-ZBYTEK
 62
    41
100
AcDbDimension
  2
*D6
 10
1341.34703
 20
-553.898779
 30
0.0
 11
1326.34703
 21
-473.898779
 31
0.0
 70
    32
  3
ED2
100
AcDbAlignedDimension
 13
1299.835013
 23
-393.898779
 33
0.0
 14
1299.835013
 24
-553.898779
 34
0.0
 50
90.0
100
AcDbRotatedDimension
1001
ACAD
1000
DSTYLE
1002
{
1070
   140
1040
10.0
1070
    40
1040
1.0
1002
}
  0
DIMENSION
  5
DCB
100
AcDbEntity
  8
V0-ZBYTEK
 62
    41
100
AcDbDimension
  2
*D7
 10
1375.750621
 20
-564.523779
 30
0.0
 11
1360.750621
 21
-474.211279
 31
0.0
 70
    32
  3
ED2
100
AcDbAlignedDimension
 13
1301.835013
 23
-383.898779
 33
0.0
 14
1301.835013
 24
-564.523779
 34
0.0
 50
90.0
100
AcDbRotatedDimension
1001
ACAD
1000
DSTYLE
1002
{
1070
   140
1040
10.0
1070
    40
1040
1.0
1002
}
  0
DIMENSION
  5
E10
100
AcDbEntity
  8
V0-ZBYTEK
 62
    41
100
AcDbDimension
  2
*D9
 10
1217.03118
 20
-457.390543
 30
0.0
 11
1007.421049
 21
-530.707803
 31
0.0
 70
   163
  3
ED2
100
AcDbDiametricDimension
 15
1122.638847
 25
-490.407016
 35
0.0
 40
0.0
1001
ACAD
1000
DSTYLE
1002
{
1070
   288
1070
     1
1070
   140
1040
10.0
1070
    77
1070
     3
1070
    40
1040
1.0
1002
}
  0
LEADER
  5
E1D
100
AcDbEntity
  8
V0-ZBYTEK
 62
    41
100
AcDbLeader
  3
ED2
 73
     0
 75
     1
 40
20.0
 41
57.43187
 76
     3
 10
1047.835013
 20
-553.756526
 30
0.0
 10
1007.429828
 20
-612.937984
 30
0.0
 10
982.429828
 20
-612.937984
 30
0.0
 77
    41
340
E1E
1001
ACAD
1000
DSTYLE
1002
{
1070
   140
1040
10.0
1070
    77
1070
     3
1070
    40
1040
1.0
1002
}
  0
MTEXT
  5
E1E
102
{ACAD_REACTORS
330
E1D
102
}
100
AcDbEntity
  8
V0-ZBYTEK
 62
    41
100
AcDbMText
 10
977.429828
 20
-597.937984
 30
0.0
 40
20.0
 41
0.0
 71
     6
 72
     1
  1
\A1;4x%%c9
  7
ED
  0
LINE
  5
E1F
100
AcDbEntity
  8
V0-OBRYS
100
AcDbLine
 10
1119.835013
 20
-663.362738
 30
0.0
 11
1219.835013
 21
-663.362738
 31
0.0
  0
LINE
  5
E20
100
AcDbEntity
  8
V0-OBRYS
100
AcDbLine
 10
1119.835013
 20
-696.362738
 30
0.0
 11
1119.835013
 21
-663.362738
 31
0.0
  0
DIMENSION
  5
E21
100
AcDbEntity
  8
V0-ZBYTEK
 62
    41
100
AcDbDimension
  2
*D10
 10
1345.394513
 20
-663.362738
 30
0.0
 11
1330.394513
 21
-679.862738
 31
0.0
 70
    32
  3
ED2
100
AcDbAlignedDimension
 13
1219.835013
 23
-696.362738
 33
0.0
 14
1219.835013
 24
-663.362738
 34
0.0
 50
90.0
100
AcDbRotatedDimension
1001
ACAD
1000
DSTYLE
1002
{
1070
   140
1040
10.0
1070
    40
1040
1.0
1002
}
  0
LINE
  5
E22
100
AcDbEntity
  8
V0-OBRYS
100
AcDbLine
 10
1219.835013
 20
-663.362738
 30
0.0
 11
1219.835013
 21
-696.362738
 31
0.0
  0
VIEWPORT
  5
22
100
AcDbEntity
 67
     1
  8
0
100
AcDbViewport
 10
261.517699
 20
148.5
 30
0.0
 40
523.035398
 41
297.0
 68
    -1
 69
     1
1001
ACAD
1000
MVIEW
1002
{
1070
    16
1010
0.0
1020
0.0
1030
0.0
1010
0.0
1020
0.0
1030
1.0
1040
0.0
1040
297.0
1040
261.517699
1040
148.5
1040
50.0
1040
0.0
1040
0.0
1070
     0
1070
   100
1070
     1
1070
     1
1070
     0
1070
     0
1070
     0
1070
     0
1040
0.0
1040
0.0
1040
0.0
1040
1.0
1040
1.0
1040
10.0
1040
10.0
1070
     0
1002
{
1002
}
1002
}
  0
ENDSEC
  0
SECTION
  2
OBJECTS
  0
DICTIONARY
  5
C
100
AcDbDictionary
  3
ACAD_GROUP
350
D
  3
ACAD_MLINESTYLE
350
E
  3
ACDBVARIABLEDICTIONARY
350
5D
  0
DICTIONARY
  5
D
102
{ACAD_REACTORS
330
C
102
}
100
AcDbDictionary
  0
DICTIONARY
  5
E
102
{ACAD_REACTORS
330
C
102
}
100
AcDbDictionary
  3
STANDARD
350
13
  0
DICTIONARY
  5
5D
102
{ACAD_REACTORS
330
C
102
}
100
AcDbDictionary
  3
DIMADEC
350
5E
  3
SORTENTS
350
3D8
  0
MLINESTYLE
  5
13
102
{ACAD_REACTORS
330
E
102
}
100
AcDbMlineStyle
  2
STANDARD
 70
     0
  3

 62
     0
 51
90.0
 52
90.0
 71
     2
 49
0.5
 62
   256
  6
BYLAYER
 49
-0.5
 62
   256
  6
BYLAYER
  0
DICTIONARYVAR
  5
5E
102
{ACAD_REACTORS
330
5D
102
}
100
DictionaryVariables
280
     0
  1
0
  0
DICTIONARYVAR
  5
3D8
102
{ACAD_REACTORS
330
5D
102
}
100
DictionaryVariables
280
     0
  1
96
  0
ENDSEC
  0
EOF
