  0
SECTION
  2
HEADER
  9
$ACADVER
  1
AC1014
  9
$ACADMAINTVER
 70
     0
  9
$DWGCODEPAGE
  3
ANSI_1250
  9
$INSBASE
 10
0.0
 20
0.0
 30
0.0
  9
$EXTMIN
 10
-56.364958
 20
-448.647704
 30
0.0
  9
$EXTMAX
 10
1309.926204
 20
262.117097
 30
0.0
  9
$LIMMIN
 10
0.0
 20
0.0
  9
$LIMMAX
 10
420.0
 20
297.0
  9
$ORTHOMODE
 70
     1
  9
$REGENMODE
 70
     1
  9
$FILLMODE
 70
     1
  9
$QTEXTMODE
 70
     0
  9
$MIRRTEXT
 70
     1
  9
$DRAGMODE
 70
     2
  9
$LTSCALE
 40
1.0
  9
$OSMODE
 70
    15
  9
$ATTMODE
 70
     1
  9
$TEXTSIZE
 40
2.5
  9
$TRACEWID
 40
1.0
  9
$TEXTSTYLE
  7
ED
  9
$CLAYER
  8
0
  9
$CELTYPE
  6
BYLAYER
  9
$CECOLOR
 62
   256
  9
$CELTSCALE
 40
1.0
  9
$DELOBJ
 70
     1
  9
$DISPSILH
 70
     0
  9
$DIMSCALE
 40
1.0
  9
$DIMASZ
 40
25.0
  9
$DIMEXO
 40
0.625
  9
$DIMDLI
 40
3.75
  9
$DIMRND
 40
0.0
  9
$DIMDLE
 40
0.0
  9
$DIMEXE
 40
1.25
  9
$DIMTP
 40
0.0
  9
$DIMTM
 40
0.0
  9
$DIMTXT
 40
20.0
  9
$DIMCEN
 40
2.5
  9
$DIMTSZ
 40
0.0
  9
$DIMTOL
 70
     0
  9
$DIMLIM
 70
     0
  9
$DIMTIH
 70
     0
  9
$DIMTOH
 70
     0
  9
$DIMSE1
 70
     0
  9
$DIMSE2
 70
     0
  9
$DIMTAD
 70
     1
  9
$DIMZIN
 70
     8
  9
$DIMBLK
  1

  9
$DIMASO
 70
     1
  9
$DIMSHO
 70
     1
  9
$DIMPOST
  1

  9
$DIMAPOST
  1

  9
$DIMALT
 70
     0
  9
$DIMALTD
 70
     4
  9
$DIMALTF
 40
0.0394
  9
$DIMLFAC
 40
1.0
  9
$DIMTOFL
 70
     1
  9
$DIMTVP
 40
0.0
  9
$DIMTIX
 70
     0
  9
$DIMSOXD
 70
     0
  9
$DIMSAH
 70
     1
  9
$DIMBLK1
  1
_OPEN
  9
$DIMBLK2
  1
_OPEN
  9
$DIMSTYLE
  2
ED
  9
$DIMCLRD
 70
     0
  9
$DIMCLRE
 70
     0
  9
$DIMCLRT
 70
   256
  9
$DIMTFAC
 40
1.0
  9
$DIMGAP
 40
1.0
  9
$DIMJUST
 70
     0
  9
$DIMSD1
 70
     0
  9
$DIMSD2
 70
     0
  9
$DIMTOLJ
 70
     1
  9
$DIMTZIN
 70
     0
  9
$DIMALTZ
 70
     0
  9
$DIMALTTZ
 70
     0
  9
$DIMFIT
 70
     3
  9
$DIMUPT
 70
     0
  9
$DIMUNIT
 70
     8
  9
$DIMDEC
 70
     4
  9
$DIMTDEC
 70
     4
  9
$DIMALTU
 70
     8
  9
$DIMALTTD
 70
     4
  9
$DIMTXSTY
  7
A
  9
$DIMAUNIT
 70
     0
  9
$LUNITS
 70
     2
  9
$LUPREC
 70
     4
  9
$SKETCHINC
 40
1.0
  9
$FILLETRAD
 40
10.0
  9
$AUNITS
 70
     0
  9
$AUPREC
 70
     0
  9
$MENU
  1
.
  9
$ELEVATION
 40
0.0
  9
$PELEVATION
 40
0.0
  9
$THICKNESS
 40
0.0
  9
$LIMCHECK
 70
     0
  9
$BLIPMODE
 70
     0
  9
$CHAMFERA
 40
10.0
  9
$CHAMFERB
 40
10.0
  9
$CHAMFERC
 40
20.0
  9
$CHAMFERD
 40
0.0
  9
$SKPOLY
 70
     1
  9
$TDCREATE
 40
2451196.643769328
  9
$TDUPDATE
 40
2453315.432493414
  9
$TDINDWG
 40
0.1029448264
  9
$TDUSRTIMER
 40
0.1029448264
  9
$USRTIMER
 70
     1
  9
$ANGBASE
 50
0.0
  9
$ANGDIR
 70
     0
  9
$PDMODE
 70
     3
  9
$PDSIZE
 40
15.0
  9
$PLINEWID
 40
0.0
  9
$COORDS
 70
     1
  9
$SPLFRAME
 70
     0
  9
$SPLINETYPE
 70
     6
  9
$SPLINESEGS
 70
     8
  9
$ATTDIA
 70
     0
  9
$ATTREQ
 70
     1
  9
$HANDLING
 70
     1
  9
$HANDSEED
  5
8E4
  9
$SURFTAB1
 70
     6
  9
$SURFTAB2
 70
     6
  9
$SURFTYPE
 70
     6
  9
$SURFU
 70
     6
  9
$SURFV
 70
     6
  9
$UCSNAME
  2

  9
$UCSORG
 10
0.0
 20
0.0
 30
0.0
  9
$UCSXDIR
 10
1.0
 20
0.0
 30
0.0
  9
$UCSYDIR
 10
0.0
 20
1.0
 30
0.0
  9
$PUCSNAME
  2

  9
$PUCSORG
 10
0.0
 20
0.0
 30
0.0
  9
$PUCSXDIR
 10
1.0
 20
0.0
 30
0.0
  9
$PUCSYDIR
 10
0.0
 20
1.0
 30
0.0
  9
$USERI1
 70
     0
  9
$USERI2
 70
     0
  9
$USERI3
 70
     0
  9
$USERI4
 70
     0
  9
$USERI5
 70
     0
  9
$USERR1
 40
0.0
  9
$USERR2
 40
0.0
  9
$USERR3
 40
0.0
  9
$USERR4
 40
0.0
  9
$USERR5
 40
0.0
  9
$WORLDVIEW
 70
     1
  9
$SHADEDGE
 70
     3
  9
$SHADEDIF
 70
    70
  9
$TILEMODE
 70
     1
  9
$MAXACTVP
 70
    48
  9
$PINSBASE
 10
0.0
 20
0.0
 30
0.0
  9
$PLIMCHECK
 70
     0
  9
$PEXTMIN
 10
1.000000E+20
 20
1.000000E+20
 30
1.000000E+20
  9
$PEXTMAX
 10
-1.000000E+20
 20
-1.000000E+20
 30
-1.000000E+20
  9
$PLIMMIN
 10
0.0
 20
0.0
  9
$PLIMMAX
 10
420.0
 20
297.0
  9
$UNITMODE
 70
     0
  9
$VISRETAIN
 70
     1
  9
$PLINEGEN
 70
     0
  9
$PSLTSCALE
 70
     1
  9
$TREEDEPTH
 70
  3020
  9
$PICKSTYLE
 70
     1
  9
$CMLSTYLE
  2
STANDARD
  9
$CMLJUST
 70
     0
  9
$CMLSCALE
 40
1.0
  9
$PROXYGRAPHICS
 70
     1
  9
$MEASUREMENT
 70
     1
  0
ENDSEC
  0
SECTION
  2
CLASSES
  0
CLASS
  1
DICTIONARYVAR
  2
AcDbDictionaryVar
  3
"AutoCAD"
 90
        0
280
     0
281
     0
  0
CLASS
  1
LWPOLYLINE
  2
AcDbPolyline
  3
"AutoCAD"
 90
        0
280
     0
281
     1
  0
CLASS
  1
HATCH
  2
AcDbHatch
  3
"ACAD_SEDONA"
 90
        0
280
     0
281
     1
  0
ENDSEC
  0
SECTION
  2
TABLES
  0
TABLE
  2
VPORT
  5
8
100
AcDbSymbolTable
 70
     2
  0
VPORT
  5
8E3
100
AcDbSymbolTableRecord
100
AcDbViewportTableRecord
  2
*ACTIVE
 70
     0
 10
0.0
 20
0.0
 11
1.0
 21
1.0
 12
619.153357
 22
-88.382777
 13
0.0
 23
0.0
 14
10.0
 24
10.0
 15
10.0
 25
10.0
 16
0.0
 26
0.0
 36
1.0
 17
0.0
 27
0.0
 37
0.0
 40
913.432673
 41
1.523346
 42
50.0
 43
0.0
 44
0.0
 50
0.0
 51
0.0
 71
     0
 72
   100
 73
     1
 74
     1
 75
     0
 76
     0
 77
     0
 78
     0
  0
ENDTAB
  0
TABLE
  2
LTYPE
  5
5
100
AcDbSymbolTable
 70
     4
  0
LTYPE
  5
14
100
AcDbSymbolTableRecord
100
AcDbLinetypeTableRecord
  2
BYBLOCK
 70
     0
  3

 72
    65
 73
     0
 40
0.0
  0
LTYPE
  5
15
100
AcDbSymbolTableRecord
100
AcDbLinetypeTableRecord
  2
BYLAYER
 70
     0
  3

 72
    65
 73
     0
 40
0.0
  0
LTYPE
  5
16
100
AcDbSymbolTableRecord
100
AcDbLinetypeTableRecord
  2
CONTINUOUS
 70
     0
  3
Solid line
 72
    65
 73
     0
 40
0.0
  0
LTYPE
  5
7F
100
AcDbSymbolTableRecord
100
AcDbLinetypeTableRecord
  2
DASHDOT
 70
     0
  3
Dash dot __ . __ . __ . __ . __ . __ . __ . __
 72
    65
 73
     4
 40
25.4
 49
12.7
 74
     0
 49
-6.35
 74
     0
 49
0.0
 74
     0
 49
-6.35
 74
     0
  0
LTYPE
  5
80
100
AcDbSymbolTableRecord
100
AcDbLinetypeTableRecord
  2
DASHED
 70
     0
  3
Dashed __ __ __ __ __ __ __ __ __ __ __ __ __ _
 72
    65
 73
     2
 40
19.05
 49
12.7
 74
     0
 49
-6.35
 74
     0
  0
LTYPE
  5
5AA
100
AcDbSymbolTableRecord
100
AcDbLinetypeTableRecord
  2
DOT
 70
     0
  3
Dot . . . . . . . . . . . . . . . . . . . . . .
 72
    65
 73
     2
 40
6.35
 49
0.0
 74
     0
 49
-6.35
 74
     0
  0
ENDTAB
  0
TABLE
  2
LAYER
  5
2
100
AcDbSymbolTable
 70
     6
  0
LAYER
  5
F
100
AcDbSymbolTableRecord
100
AcDbLayerTableRecord
  2
0
 70
     0
 62
     7
  6
CONTINUOUS
  0
LAYER
  5
9E
100
AcDbSymbolTableRecord
100
AcDbLayerTableRecord
  2
DEFPOINTS
 70
     0
 62
     7
  6
CONTINUOUS
  0
LAYER
  5
377
100
AcDbSymbolTableRecord
100
AcDbLayerTableRecord
  2
V0-OBRYS
 70
     0
 62
    90
  6
CONTINUOUS
  0
LAYER
  5
378
100
AcDbSymbolTableRecord
100
AcDbLayerTableRecord
  2
V0-VYPLNE
 70
     0
 62
    52
  6
CONTINUOUS
  0
LAYER
  5
37A
100
AcDbSymbolTableRecord
100
AcDbLayerTableRecord
  2
V0-NAZVY
 70
     0
 62
   210
  6
CONTINUOUS
  0
LAYER
  5
559
100
AcDbSymbolTableRecord
100
AcDbLayerTableRecord
  2
V0-ZBYTEK
 70
     0
 62
    51
  6
CONTINUOUS
  0
ENDTAB
  0
TABLE
  2
STYLE
  5
3
100
AcDbSymbolTable
 70
     6
  0
STYLE
  5
10
100
AcDbSymbolTableRecord
100
AcDbTextStyleTableRecord
  2
STANDARD
 70
     0
 40
0.0
 41
1.0
 50
0.0
 71
     0
 42
2.5
  3
ISOCP
  4

  0
STYLE
  5
331
100
AcDbSymbolTableRecord
100
AcDbTextStyleTableRecord
  2
ED
 70
     0
 40
20.0
 41
1.0
 50
0.0
 71
     0
 42
2.5
  3
ISOCP.shx
  4

  0
STYLE
  5
5B3
100
AcDbSymbolTableRecord
100
AcDbTextStyleTableRecord
  2
EDVENT
 70
     0
 40
10.0
 41
1.0
 50
0.0
 71
     0
 42
2.5
  3
ISOCP.shx
  4

  0
STYLE
  5
5B4
100
AcDbSymbolTableRecord
100
AcDbTextStyleTableRecord
  2
E
 70
     0
 40
25.0
 41
1.0
 50
0.0
 71
     0
 42
2.5
  3
ISOCP.shx
  4

  0
STYLE
  5
5B5
100
AcDbSymbolTableRecord
100
AcDbTextStyleTableRecord
  2
ED-VENT
 70
     0
 40
25.0
 41
1.0
 50
0.0
 71
     0
 42
2.5
  3
ISOCP.shx
  4

  0
STYLE
  5
7BB
100
AcDbSymbolTableRecord
100
AcDbTextStyleTableRecord
  2
A
 70
     0
 40
20.0
 41
1.0
 50
0.0
 71
     0
 42
2.5
  3
isocp2.shx
  4

  0
ENDTAB
  0
TABLE
  2
VIEW
  5
6
100
AcDbSymbolTable
 70
     0
  0
ENDTAB
  0
TABLE
  2
UCS
  5
7
100
AcDbSymbolTable
 70
     0
  0
ENDTAB
  0
TABLE
  2
APPID
  5
9
100
AcDbSymbolTable
 70
     1
  0
APPID
  5
11
100
AcDbSymbolTableRecord
100
AcDbRegAppTableRecord
  2
ACAD
 70
     0
  0
ENDTAB
  0
TABLE
  2
DIMSTYLE
  5
A
100
AcDbSymbolTable
 70
     3
  0
DIMSTYLE
105
1D
100
AcDbSymbolTableRecord
100
AcDbDimStyleTableRecord
  2
STANDARD
 70
     0
  3

  4

  5

  6
_OPEN
  7
_OPEN
 40
0.0
 41
15.0
 42
0.625
 43
3.75
 44
1.25
 45
0.0
 46
0.0
 47
0.0
 48
0.0
140
15.0
141
2.5
142
0.0
143
0.0394
144
1.0
145
0.0
146
1.0
147
3.0
 71
     0
 72
     0
 73
     0
 74
     0
 75
     0
 76
     0
 77
     1
 78
     8
170
     0
171
     4
172
     1
173
     1
174
     0
175
     0
176
     0
177
     0
178
     0
270
     2
271
     0
272
     1
273
     8
274
     4
340
331
275
     0
280
     0
281
     0
282
     0
283
     1
284
     8
285
     0
286
     0
287
     3
288
     0
  0
DIMSTYLE
105
397
100
AcDbSymbolTableRecord
100
AcDbDimStyleTableRecord
  2
ED
 70
     0
  3

  4

  5

  6
_OPEN
  7
_OPEN
 40
0.0
 41
15.0
 42
0.625
 43
3.75
 44
1.25
 45
0.0
 46
0.0
 47
0.0
 48
0.0
140
15.0
141
2.5
142
0.0
143
0.0394
144
1.0
145
0.0
146
1.0
147
3.0
 71
     0
 72
     0
 73
     0
 74
     0
 75
     0
 76
     0
 77
     1
 78
     8
170
     0
171
     4
172
     1
173
     1
174
     0
175
     0
176
     0
177
     0
178
     0
270
     2
271
     0
272
     1
273
     8
274
     4
340
331
275
     0
280
     0
281
     0
282
     0
283
     1
284
     8
285
     0
286
     0
287
     3
288
     0
  0
DIMSTYLE
105
7BC
100
AcDbSymbolTableRecord
100
AcDbDimStyleTableRecord
  2
STANDARDA
 70
     0
  3

  4

  5

  6
_OPEN
  7
_OPEN
 40
1.0
 41
25.0
 42
0.625
 43
3.75
 44
1.25
 45
0.0
 46
0.0
 47
0.0
 48
0.0
140
20.0
141
2.5
142
0.0
143
0.0394
144
1.0
145
0.0
146
1.0
147
1.0
 71
     0
 72
     0
 73
     0
 74
     0
 75
     0
 76
     0
 77
     1
 78
     8
170
     0
171
     4
172
     1
173
     1
174
     0
175
     0
176
     0
177
     0
178
   256
270
     8
271
     4
272
     4
273
     8
274
     4
340
5B5
275
     0
280
     0
281
     0
282
     0
283
     1
284
     0
285
     0
286
     0
287
     3
288
     0
  0
ENDTAB
  0
TABLE
  2
BLOCK_RECORD
  5
1
100
AcDbSymbolTable
 70
    21
  0
BLOCK_RECORD
  5
1A
100
AcDbSymbolTableRecord
100
AcDbBlockTableRecord
  2
*MODEL_SPACE
  0
BLOCK_RECORD
  5
17
100
AcDbSymbolTableRecord
100
AcDbBlockTableRecord
  2
*PAPER_SPACE
  0
BLOCK_RECORD
  5
90
100
AcDbSymbolTableRecord
100
AcDbBlockTableRecord
  2
_OPEN
  0
BLOCK_RECORD
  5
866
100
AcDbSymbolTableRecord
100
AcDbBlockTableRecord
  2
*D16
  0
BLOCK_RECORD
  5
872
100
AcDbSymbolTableRecord
100
AcDbBlockTableRecord
  2
*D17
  0
BLOCK_RECORD
  5
87E
100
AcDbSymbolTableRecord
100
AcDbBlockTableRecord
  2
*D18
  0
BLOCK_RECORD
  5
88C
100
AcDbSymbolTableRecord
100
AcDbBlockTableRecord
  2
*D19
  0
BLOCK_RECORD
  5
898
100
AcDbSymbolTableRecord
100
AcDbBlockTableRecord
  2
*D20
  0
ENDTAB
  0
ENDSEC
  0
SECTION
  2
BLOCKS
  0
BLOCK
  5
1B
100
AcDbEntity
  8
0
100
AcDbBlockBegin
  2
*MODEL_SPACE
 70
     0
 10
0.0
 20
0.0
 30
0.0
  3
*MODEL_SPACE
  1

  0
ENDBLK
  5
1C
100
AcDbEntity
  8
0
100
AcDbBlockEnd
  0
BLOCK
  5
18
100
AcDbEntity
 67
     1
  8
0
100
AcDbBlockBegin
  2
*PAPER_SPACE
 70
     0
 10
0.0
 20
0.0
 30
0.0
  3
*PAPER_SPACE
  1

  0
ENDBLK
  5
19
100
AcDbEntity
 67
     1
  8
0
100
AcDbBlockEnd
  0
BLOCK
  5
91
100
AcDbEntity
  8
0
100
AcDbBlockBegin
  2
_OPEN
 70
     0
 10
0.0
 20
0.0
 30
0.0
  3
_OPEN
  1

  0
LINE
  5
92
100
AcDbEntity
  8
0
  6
BYBLOCK
 62
     0
100
AcDbLine
 10
-1.0
 20
0.166667
 30
0.0
 11
0.0
 21
0.0
 31
0.0
  0
LINE
  5
93
100
AcDbEntity
  8
0
  6
BYBLOCK
 62
     0
100
AcDbLine
 10
0.0
 20
0.0
 30
0.0
 11
-1.0
 21
-0.166667
 31
0.0
  0
LINE
  5
94
100
AcDbEntity
  8
0
  6
BYBLOCK
 62
     0
100
AcDbLine
 10
0.0
 20
0.0
 30
0.0
 11
-1.0
 21
0.0
 31
0.0
  0
ENDBLK
  5
95
100
AcDbEntity
  8
0
100
AcDbBlockEnd
  0
BLOCK
  5
8A4
100
AcDbEntity
  8
0
100
AcDbBlockBegin
  2
*D16
 70
     1
 10
0.0
 20
0.0
 30
0.0
  3
*D16
  1

  0
LINE
  5
8A5
100
AcDbEntity
  8
0
  6
BYBLOCK
 62
     0
100
AcDbLine
 10
-6.364958
 20
126.880303
 30
0.0
 11
-6.364958
 21
243.349556
 31
0.0
  0
LINE
  5
8A6
100
AcDbEntity
  8
0
  6
BYBLOCK
 62
     0
100
AcDbLine
 10
893.635042
 20
126.880303
 30
0.0
 11
893.635042
 21
243.349556
 31
0.0
  0
LINE
  5
8A7
100
AcDbEntity
  8
0
  6
BYBLOCK
 62
     0
100
AcDbLine
 10
18.635042
 20
242.099556
 30
0.0
 11
868.635042
 21
242.099556
 31
0.0
  0
INSERT
  5
8A8
100
AcDbEntity
  8
0
  6
BYBLOCK
 62
     0
100
AcDbBlockReference
  2
_OPEN
 10
-6.364958
 20
242.099556
 30
0.0
 41
25.0
 42
25.0
 43
25.0
 50
180.0
  0
INSERT
  5
8A9
100
AcDbEntity
  8
0
  6
BYBLOCK
 62
     0
100
AcDbBlockReference
  2
_OPEN
 10
893.635042
 20
242.099556
 30
0.0
 41
25.0
 42
25.0
 43
25.0
  0
MTEXT
  5
8AA
100
AcDbEntity
  8
0
  6
BYBLOCK
100
AcDbMText
 10
443.635042
 20
253.099556
 30
0.0
 40
20.0
 41
0.0
 71
     5
 72
     1
  1
\A1;900
  7
A
  0
POINT
  5
8AB
100
AcDbEntity
  8
DEFPOINTS
  6
BYBLOCK
 62
     0
100
AcDbPoint
 10
-6.364958
 20
126.255303
 30
0.0
  0
POINT
  5
8AC
100
AcDbEntity
  8
DEFPOINTS
  6
BYBLOCK
 62
     0
100
AcDbPoint
 10
893.635042
 20
126.255303
 30
0.0
  0
POINT
  5
8AD
100
AcDbEntity
  8
DEFPOINTS
  6
BYBLOCK
 62
     0
100
AcDbPoint
 10
893.635042
 20
242.099556
 30
0.0
  0
ENDBLK
  5
8AE
100
AcDbEntity
  8
0
100
AcDbBlockEnd
  0
BLOCK
  5
8AF
100
AcDbEntity
  8
0
100
AcDbBlockBegin
  2
*D17
 70
     1
 10
0.0
 20
0.0
 30
0.0
  3
*D17
  1

  0
LINE
  5
8B0
100
AcDbEntity
  8
0
  6
BYBLOCK
 62
     0
100
AcDbLine
 10
18.635042
 20
176.880303
 30
0.0
 11
18.635042
 21
205.562747
 31
0.0
  0
LINE
  5
8B1
100
AcDbEntity
  8
0
  6
BYBLOCK
 62
     0
100
AcDbLine
 10
868.635042
 20
176.880303
 30
0.0
 11
868.635042
 21
205.562747
 31
0.0
  0
LINE
  5
8B2
100
AcDbEntity
  8
0
  6
BYBLOCK
 62
     0
100
AcDbLine
 10
43.635042
 20
204.312747
 30
0.0
 11
843.635042
 21
204.312747
 31
0.0
  0
INSERT
  5
8B3
100
AcDbEntity
  8
0
  6
BYBLOCK
 62
     0
100
AcDbBlockReference
  2
_OPEN
 10
18.635042
 20
204.312747
 30
0.0
 41
25.0
 42
25.0
 43
25.0
 50
180.0
  0
INSERT
  5
8B4
100
AcDbEntity
  8
0
  6
BYBLOCK
 62
     0
100
AcDbBlockReference
  2
_OPEN
 10
868.635042
 20
204.312747
 30
0.0
 41
25.0
 42
25.0
 43
25.0
  0
MTEXT
  5
8B5
100
AcDbEntity
  8
0
  6
BYBLOCK
100
AcDbMText
 10
443.635042
 20
215.312747
 30
0.0
 40
20.0
 41
0.0
 71
     5
 72
     1
  1
\A1;850
  7
A
  0
POINT
  5
8B6
100
AcDbEntity
  8
DEFPOINTS
  6
BYBLOCK
 62
     0
100
AcDbPoint
 10
18.635042
 20
176.255303
 30
0.0
  0
POINT
  5
8B7
100
AcDbEntity
  8
DEFPOINTS
  6
BYBLOCK
 62
     0
100
AcDbPoint
 10
868.635042
 20
176.255303
 30
0.0
  0
POINT
  5
8B8
100
AcDbEntity
  8
DEFPOINTS
  6
BYBLOCK
 62
     0
100
AcDbPoint
 10
868.635042
 20
204.312747
 30
0.0
  0
ENDBLK
  5
8B9
100
AcDbEntity
  8
0
100
AcDbBlockEnd
  0
BLOCK
  5
8BA
100
AcDbEntity
  8
0
100
AcDbBlockBegin
  2
*D18
 70
     1
 10
0.0
 20
0.0
 30
0.0
  3
*D18
  1

  0
LINE
  5
8BB
100
AcDbEntity
  8
0
  6
BYBLOCK
 62
     0
100
AcDbLine
 10
-6.364958
 20
-34.369697
 30
0.0
 11
-6.364958
 21
-127.377676
 31
0.0
  0
LINE
  5
8BC
100
AcDbEntity
  8
0
  6
BYBLOCK
 62
     0
100
AcDbLine
 10
18.635042
 20
-84.369697
 30
0.0
 11
18.635042
 21
-127.377676
 31
0.0
  0
LINE
  5
8BD
100
AcDbEntity
  8
0
  6
BYBLOCK
 62
     0
100
AcDbLine
 10
-31.364958
 20
-126.127676
 30
0.0
 11
-56.364958
 21
-126.127676
 31
0.0
  0
LINE
  5
8BE
100
AcDbEntity
  8
0
  6
BYBLOCK
 62
     0
100
AcDbLine
 10
43.635042
 20
-126.127676
 30
0.0
 11
98.873452
 21
-126.127676
 31
0.0
  0
LINE
  5
8BF
100
AcDbEntity
  8
0
  6
BYBLOCK
 62
     0
100
AcDbLine
 10
-6.364958
 20
-126.127676
 30
0.0
 11
18.635042
 21
-126.127676
 31
0.0
  0
INSERT
  5
8C0
100
AcDbEntity
  8
0
  6
BYBLOCK
 62
     0
100
AcDbBlockReference
  2
_OPEN
 10
-6.364958
 20
-126.127676
 30
0.0
 41
25.0
 42
25.0
 43
25.0
  0
INSERT
  5
8C1
100
AcDbEntity
  8
0
  6
BYBLOCK
 62
     0
100
AcDbBlockReference
  2
_OPEN
 10
18.635042
 20
-126.127676
 30
0.0
 41
25.0
 42
25.0
 43
25.0
 50
180.0
  0
MTEXT
  5
8C2
100
AcDbEntity
  8
0
  6
BYBLOCK
 62
     0
100
AcDbMText
 10
84.205301
 20
-113.125708
 30
0.0
 40
20.0
 41
0.0
 71
     5
 72
     1
  1
\A1;25
  7
ED
  0
POINT
  5
8C3
100
AcDbEntity
  8
DEFPOINTS
  6
BYBLOCK
 62
     0
100
AcDbPoint
 10
-6.364958
 20
-33.744697
 30
0.0
  0
POINT
  5
8C4
100
AcDbEntity
  8
DEFPOINTS
  6
BYBLOCK
 62
     0
100
AcDbPoint
 10
18.635042
 20
-83.744697
 30
0.0
  0
POINT
  5
8C5
100
AcDbEntity
  8
DEFPOINTS
  6
BYBLOCK
 62
     0
100
AcDbPoint
 10
18.635042
 20
-126.127676
 30
0.0
  0
ENDBLK
  5
8C6
100
AcDbEntity
  8
0
100
AcDbBlockEnd
  0
BLOCK
  5
8C7
100
AcDbEntity
  8
0
100
AcDbBlockBegin
  2
*D19
 70
     1
 10
0.0
 20
0.0
 30
0.0
  3
*D19
  1

  0
LINE
  5
8C8
100
AcDbEntity
  8
0
  6
BYBLOCK
 62
     0
100
AcDbLine
 10
894.260042
 20
126.255303
 30
0.0
 11
928.347842
 21
126.255303
 31
0.0
  0
LINE
  5
8C9
100
AcDbEntity
  8
0
  6
BYBLOCK
 62
     0
100
AcDbLine
 10
894.260042
 20
-33.744697
 30
0.0
 11
928.347842
 21
-33.744697
 31
0.0
  0
LINE
  5
8CA
100
AcDbEntity
  8
0
  6
BYBLOCK
 62
     0
100
AcDbLine
 10
927.097842
 20
101.255303
 30
0.0
 11
927.097842
 21
-8.744697
 31
0.0
  0
INSERT
  5
8CB
100
AcDbEntity
  8
0
  6
BYBLOCK
 62
     0
100
AcDbBlockReference
  2
_OPEN
 10
927.097842
 20
126.255303
 30
0.0
 41
25.0
 42
25.0
 43
25.0
 50
90.0
  0
INSERT
  5
8CC
100
AcDbEntity
  8
0
  6
BYBLOCK
 62
     0
100
AcDbBlockReference
  2
_OPEN
 10
927.097842
 20
-33.744697
 30
0.0
 41
25.0
 42
25.0
 43
25.0
 50
270.0
  0
MTEXT
  5
8CD
100
AcDbEntity
  8
0
  6
BYBLOCK
100
AcDbMText
 10
916.097842
 20
46.255303
 30
0.0
 40
20.0
 41
0.0
 71
     5
 72
     1
  1
\A1;\U+2205160
  7
A
 11
0.0
 21
1.0
 31
0.0
  0
POINT
  5
8CE
100
AcDbEntity
  8
DEFPOINTS
  6
BYBLOCK
 62
     0
100
AcDbPoint
 10
893.635042
 20
126.255303
 30
0.0
  0
POINT
  5
8CF
100
AcDbEntity
  8
DEFPOINTS
  6
BYBLOCK
 62
     0
100
AcDbPoint
 10
893.635042
 20
-33.744697
 30
0.0
  0
POINT
  5
8D0
100
AcDbEntity
  8
DEFPOINTS
  6
BYBLOCK
 62
     0
100
AcDbPoint
 10
927.097842
 20
-33.744697
 30
0.0
  0
ENDBLK
  5
8D1
100
AcDbEntity
  8
0
100
AcDbBlockEnd
  0
BLOCK
  5
8D2
100
AcDbEntity
  8
0
100
AcDbBlockBegin
  2
*D20
 70
     1
 10
0.0
 20
0.0
 30
0.0
  3
*D20
  1

  0
LINE
  5
8D3
100
AcDbEntity
  8
0
  6
BYBLOCK
 62
     0
100
AcDbLine
 10
869.260042
 20
176.255303
 30
0.0
 11
966.172066
 21
176.255303
 31
0.0
  0
LINE
  5
8D4
100
AcDbEntity
  8
0
  6
BYBLOCK
 62
     0
100
AcDbLine
 10
869.260042
 20
-83.744697
 30
0.0
 11
966.172066
 21
-83.744697
 31
0.0
  0
LINE
  5
8D5
100
AcDbEntity
  8
0
  6
BYBLOCK
 62
     0
100
AcDbLine
 10
964.922066
 20
151.255303
 30
0.0
 11
964.922066
 21
-58.744697
 31
0.0
  0
INSERT
  5
8D6
100
AcDbEntity
  8
0
  6
BYBLOCK
 62
     0
100
AcDbBlockReference
  2
_OPEN
 10
964.922066
 20
176.255303
 30
0.0
 41
25.0
 42
25.0
 43
25.0
 50
90.0
  0
INSERT
  5
8D7
100
AcDbEntity
  8
0
  6
BYBLOCK
 62
     0
100
AcDbBlockReference
  2
_OPEN
 10
964.922066
 20
-83.744697
 30
0.0
 41
25.0
 42
25.0
 43
25.0
 50
270.0
  0
MTEXT
  5
8D8
100
AcDbEntity
  8
0
  6
BYBLOCK
100
AcDbMText
 10
953.920097
 20
46.255303
 30
0.0
 40
20.0
 41
0.0
 71
     5
 72
     1
  1
\A1;\U+2205260
  7
A
 11
0.0
 21
1.0
 31
0.0
  0
POINT
  5
8D9
100
AcDbEntity
  8
DEFPOINTS
  6
BYBLOCK
 62
     0
100
AcDbPoint
 10
868.635042
 20
176.255303
 30
0.0
  0
POINT
  5
8DA
100
AcDbEntity
  8
DEFPOINTS
  6
BYBLOCK
 62
     0
100
AcDbPoint
 10
868.635042
 20
-83.744697
 30
0.0
  0
POINT
  5
8DB
100
AcDbEntity
  8
DEFPOINTS
  6
BYBLOCK
 62
     0
100
AcDbPoint
 10
964.922066
 20
-83.744697
 30
0.0
  0
ENDBLK
  5
8DC
100
AcDbEntity
  8
0
100
AcDbBlockEnd
  0
ENDSEC
  0
SECTION
  2
ENTITIES
  0
LINE
  5
814
100
AcDbEntity
  8
V0-VYPLNE
  6
DASHDOT
 62
    63
 48
3.0
100
AcDbLine
 10
-22.020678
 20
46.255303
 30
0.0
 11
876.88959
 21
46.255303
 31
0.0
  0
LINE
  5
815
100
AcDbEntity
  8
V0-OBRYS
 62
    90
100
AcDbLine
 10
18.635042
 20
46.255303
 30
0.0
 11
18.635042
 21
176.255303
 31
0.0
  0
LINE
  5
816
100
AcDbEntity
  8
V0-OBRYS
 62
    90
100
AcDbLine
 10
18.635042
 20
176.255303
 30
0.0
 11
593.635042
 21
176.255303
 31
0.0
  0
LINE
  5
817
100
AcDbEntity
  8
V0-OBRYS
 62
    90
100
AcDbLine
 10
-6.364958
 20
46.255303
 30
0.0
 11
-6.364958
 21
126.255303
 31
0.0
  0
LINE
  5
818
100
AcDbEntity
  8
V0-OBRYS
 62
    90
100
AcDbLine
 10
-6.364958
 20
126.255303
 30
0.0
 11
18.635042
 21
126.255303
 31
0.0
  0
LINE
  5
819
100
AcDbEntity
  8
V0-OBRYS
 62
    90
100
AcDbLine
 10
-1.361537
 20
46.255303
 30
0.0
 11
-1.361537
 21
129.066835
 31
0.0
  0
LINE
  5
81A
100
AcDbEntity
  8
V0-OBRYS
 62
    90
100
AcDbLine
 10
-1.361537
 20
129.066835
 30
0.0
 11
0.804352
 21
129.066835
 31
0.0
  0
LINE
  5
81B
100
AcDbEntity
  8
V0-OBRYS
 62
    90
100
AcDbLine
 10
0.804352
 20
129.066835
 30
0.0
 11
0.804352
 21
46.255303
 31
0.0
  0
LINE
  5
81C
100
AcDbEntity
  8
V0-OBRYS
 62
    90
100
AcDbLine
 10
18.635042
 20
-83.744697
 30
0.0
 11
593.635042
 21
-83.744697
 31
0.0
  0
LINE
  5
81D
100
AcDbEntity
  8
V0-OBRYS
 62
    90
100
AcDbLine
 10
18.635042
 20
46.255303
 30
0.0
 11
18.635042
 21
-83.744697
 31
0.0
  0
LINE
  5
81E
100
AcDbEntity
  8
V0-OBRYS
 62
    90
100
AcDbLine
 10
-6.364958
 20
-33.744697
 30
0.0
 11
18.635042
 21
-33.744697
 31
0.0
  0
LINE
  5
81F
100
AcDbEntity
  8
V0-OBRYS
 62
    90
100
AcDbLine
 10
0.804352
 20
-36.556229
 30
0.0
 11
0.804352
 21
46.255303
 31
0.0
  0
LINE
  5
820
100
AcDbEntity
  8
V0-OBRYS
 62
    90
100
AcDbLine
 10
-1.361537
 20
46.255303
 30
0.0
 11
-1.361537
 21
-36.556229
 31
0.0
  0
LINE
  5
821
100
AcDbEntity
  8
V0-OBRYS
 62
    90
100
AcDbLine
 10
-6.364958
 20
46.255303
 30
0.0
 11
-6.364958
 21
-33.744697
 31
0.0
  0
LINE
  5
822
100
AcDbEntity
  8
V0-OBRYS
 62
    90
100
AcDbLine
 10
-1.361537
 20
-36.556229
 30
0.0
 11
0.804352
 21
-36.556229
 31
0.0
  0
LINE
  5
823
100
AcDbEntity
  8
V0-OBRYS
 62
    90
100
AcDbLine
 10
868.635042
 20
-83.744697
 30
0.0
 11
593.635042
 21
-83.744697
 31
0.0
  0
LINE
  5
824
100
AcDbEntity
  8
V0-OBRYS
 62
    90
100
AcDbLine
 10
868.635042
 20
176.255303
 30
0.0
 11
593.635042
 21
176.255303
 31
0.0
  0
LINE
  5
825
100
AcDbEntity
  8
V0-OBRYS
 62
    90
100
AcDbLine
 10
893.635042
 20
46.255303
 30
0.0
 11
893.635042
 21
-33.744697
 31
0.0
  0
LINE
  5
826
100
AcDbEntity
  8
V0-OBRYS
 62
    90
100
AcDbLine
 10
888.631621
 20
46.255303
 30
0.0
 11
888.631621
 21
-36.556229
 31
0.0
  0
LINE
  5
827
100
AcDbEntity
  8
V0-OBRYS
 62
    90
100
AcDbLine
 10
886.465732
 20
-36.556229
 30
0.0
 11
886.465732
 21
46.255303
 31
0.0
  0
LINE
  5
828
100
AcDbEntity
  8
V0-OBRYS
 62
    90
100
AcDbLine
 10
868.635042
 20
46.255303
 30
0.0
 11
868.635042
 21
-83.744697
 31
0.0
  0
LINE
  5
829
100
AcDbEntity
  8
V0-OBRYS
 62
    90
100
AcDbLine
 10
893.635042
 20
-33.744697
 30
0.0
 11
868.635042
 21
-33.744697
 31
0.0
  0
LINE
  5
82A
100
AcDbEntity
  8
V0-OBRYS
 62
    90
100
AcDbLine
 10
888.631621
 20
-36.556229
 30
0.0
 11
886.465732
 21
-36.556229
 31
0.0
  0
LINE
  5
82B
100
AcDbEntity
  8
V0-OBRYS
 62
    90
100
AcDbLine
 10
868.635042
 20
46.255303
 30
0.0
 11
868.635042
 21
176.255303
 31
0.0
  0
LINE
  5
82C
100
AcDbEntity
  8
V0-OBRYS
 62
    90
100
AcDbLine
 10
893.635042
 20
126.255303
 30
0.0
 11
868.635042
 21
126.255303
 31
0.0
  0
LINE
  5
82D
100
AcDbEntity
  8
V0-OBRYS
 62
    90
100
AcDbLine
 10
886.465732
 20
129.066835
 30
0.0
 11
886.465732
 21
46.255303
 31
0.0
  0
LINE
  5
82E
100
AcDbEntity
  8
V0-OBRYS
 62
    90
100
AcDbLine
 10
888.631621
 20
46.255303
 30
0.0
 11
888.631621
 21
129.066835
 31
0.0
  0
LINE
  5
82F
100
AcDbEntity
  8
V0-OBRYS
 62
    90
100
AcDbLine
 10
893.635042
 20
46.255303
 30
0.0
 11
893.635042
 21
126.255303
 31
0.0
  0
LINE
  5
830
100
AcDbEntity
  8
V0-OBRYS
 62
    90
100
AcDbLine
 10
888.631621
 20
129.066835
 30
0.0
 11
886.465732
 21
129.066835
 31
0.0
  0
DIMENSION
  5
831
100
AcDbEntity
  8
V0-VYPLNE
 62
    41
100
AcDbDimension
  2
*D16
 10
893.635042
 20
242.099556
 30
0.0
 11
443.635042
 21
253.099556
 31
0.0
 70
    32
  3
STANDARDA
100
AcDbAlignedDimension
 13
-6.364958
 23
126.255303
 33
0.0
 14
893.635042
 24
126.255303
 34
0.0
100
AcDbRotatedDimension
1001
ACAD
1000
DSTYLE
1002
{
1070
   340
1005
7BB
1002
}
  0
DIMENSION
  5
832
100
AcDbEntity
  8
V0-VYPLNE
 62
    41
100
AcDbDimension
  2
*D17
 10
868.635042
 20
204.312747
 30
0.0
 11
443.635042
 21
215.312747
 31
0.0
 70
    32
  3
STANDARDA
100
AcDbAlignedDimension
 13
18.635042
 23
176.255303
 33
0.0
 14
868.635042
 24
176.255303
 34
0.0
100
AcDbRotatedDimension
1001
ACAD
1000
DSTYLE
1002
{
1070
   340
1005
7BB
1002
}
  0
DIMENSION
  5
833
100
AcDbEntity
  8
V0-VYPLNE
 62
    41
100
AcDbDimension
  2
*D18
 10
18.635042
 20
-126.127676
 30
0.0
 11
84.205301
 21
-126.127676
 31
0.0
 70
   160
  3
STANDARD
100
AcDbAlignedDimension
 13
-6.364958
 23
-33.744697
 33
0.0
 14
18.635042
 24
-83.744697
 34
0.0
100
AcDbRotatedDimension
1001
ACAD
1000
DSTYLE
1002
{
1070
   140
1040
25.0
1070
   173
1070
     1
1070
     7
1000
_OPEN
1070
     6
1000
_OPEN
1070
    41
1040
25.0
1002
}
  0
DIMENSION
  5
834
100
AcDbEntity
  8
V0-VYPLNE
 62
    41
100
AcDbDimension
  2
*D19
 10
927.097842
 20
-33.744697
 30
0.0
 11
916.097842
 21
46.255303
 31
0.0
 70
    32
  1
%%c<>
  3
STANDARDA
100
AcDbAlignedDimension
 13
893.635042
 23
126.255303
 33
0.0
 14
893.635042
 24
-33.744697
 34
0.0
 50
90.0
100
AcDbRotatedDimension
1001
ACAD
1000
DSTYLE
1002
{
1070
   340
1005
7BB
1002
}
  0
DIMENSION
  5
835
100
AcDbEntity
  8
V0-VYPLNE
 62
    41
100
AcDbDimension
  2
*D20
 10
964.922066
 20
-83.744697
 30
0.0
 11
953.920097
 21
46.255303
 31
0.0
 70
    32
  1
%%c<>
  3
STANDARDA
100
AcDbAlignedDimension
 13
868.635042
 23
176.255303
 33
0.0
 14
868.635042
 24
-83.744697
 34
0.0
 50
90.0
100
AcDbRotatedDimension
1001
ACAD
1000
DSTYLE
1002
{
1070
   340
1005
7BB
1002
}
  0
LINE
  5
836
100
AcDbEntity
  8
V0-VYPLNE
  6
DASHDOT
 62
    63
 48
3.0
100
AcDbLine
 10
1060.098548
 20
46.255303
 30
0.0
 11
1294.149449
 21
46.255303
 31
0.0
  0
LINE
  5
838
100
AcDbEntity
  8
V0-VYPLNE
  6
DASHDOT
 62
    63
 48
3.0
100
AcDbLine
 10
1168.635042
 20
165.971578
 30
0.0
 11
1168.635042
 21
-70.454202
 31
0.0
  0
TEXT
  5
839
100
AcDbEntity
  8
V0-ZBYTEK
 62
   130
100
AcDbText
 10
1026.265569
 20
-302.961929
 30
0.0
 40
30.0
  1
TLUMIC HLUKU
 72
     1
 11
1153.840569
 21
-302.961929
 31
0.0
100
AcDbText
  0
TEXT
  5
83A
100
AcDbEntity
  8
V0-ZBYTEK
 62
    51
 48
2.0
100
AcDbText
 10
1011.440433
 20
-362.455601
 30
0.0
 40
20.0
  1
PRO KRUHOVA POTRUBI
 72
     1
 11
1152.490433
 21
-362.455601
 31
0.0
100
AcDbText
  0
TEXT
  5
83B
100
AcDbEntity
  8
V0-NAZVY
 62
   210
 48
2.0
100
AcDbText
 10
991.754935
 20
-240.961929
 30
0.0
 40
40.0
  1
MAA-160-900
 72
     1
 11
1153.840569
 21
-240.961929
 31
0.0
100
AcDbText
  0
POINT
  5
83C
100
AcDbEntity
  8
V0-VYPLNE
 62
    52
100
AcDbPoint
 10
18.635042
 20
46.255303
 30
0.0
  0
POINT
  5
83D
100
AcDbEntity
  8
V0-VYPLNE
 62
    52
100
AcDbPoint
 10
1168.635042
 20
46.255303
 30
0.0
  0
CIRCLE
  5
83E
100
AcDbEntity
  8
V0-OBRYS
 62
    90
100
AcDbCircle
 10
1168.635042
 20
46.255303
 30
0.0
 40
130.0
  0
CIRCLE
  5
83F
100
AcDbEntity
  8
V0-OBRYS
 62
    90
100
AcDbCircle
 10
1168.635042
 20
46.255303
 30
0.0
 40
80.0
  0
CIRCLE
  5
840
100
AcDbEntity
  8
V0-OBRYS
 62
    90
100
AcDbCircle
 10
1168.635042
 20
46.255303
 30
0.0
 40
84.936751
  0
LINE
  5
841
100
AcDbEntity
  8
V0-VYPLNE
  6
DASHDOT
 62
    63
 48
3.0
100
AcDbLine
 10
-22.020678
 20
-318.647704
 30
0.0
 11
904.579195
 21
-318.647704
 31
0.0
  0
LINE
  5
842
100
AcDbEntity
  8
V0-OBRYS
 62
    90
100
AcDbLine
 10
868.635042
 20
-188.647704
 30
0.0
 11
593.635042
 21
-188.647704
 31
0.0
  0
LINE
  5
843
100
AcDbEntity
  8
V0-OBRYS
 62
    90
100
AcDbLine
 10
868.635042
 20
-448.647704
 30
0.0
 11
593.635042
 21
-448.647704
 31
0.0
  0
POINT
  5
844
100
AcDbEntity
  8
V0-VYPLNE
 62
    52
100
AcDbPoint
 10
18.635042
 20
-318.647704
 30
0.0
  0
LINE
  5
845
100
AcDbEntity
  8
V0-OBRYS
 62
    90
100
AcDbLine
 10
18.635042
 20
-188.647704
 30
0.0
 11
593.635042
 21
-188.647704
 31
0.0
  0
LINE
  5
846
100
AcDbEntity
  8
V0-OBRYS
 62
    90
100
AcDbLine
 10
18.635042
 20
-448.647704
 30
0.0
 11
593.635042
 21
-448.647704
 31
0.0
  0
LINE
  5
847
100
AcDbEntity
  8
V0-OBRYS
 62
    90
100
AcDbLine
 10
18.635042
 20
-318.647704
 30
0.0
 11
18.635042
 21
-188.647704
 31
0.0
  0
LINE
  5
848
100
AcDbEntity
  8
V0-OBRYS
 62
    90
100
AcDbLine
 10
-6.364958
 20
-318.647704
 30
0.0
 11
-6.364958
 21
-238.647704
 31
0.0
  0
LINE
  5
849
100
AcDbEntity
  8
V0-OBRYS
 62
    90
100
AcDbLine
 10
-1.361537
 20
-318.647704
 30
0.0
 11
-1.361537
 21
-235.836173
 31
0.0
  0
LINE
  5
84A
100
AcDbEntity
  8
V0-OBRYS
 62
    90
100
AcDbLine
 10
0.804352
 20
-235.836173
 30
0.0
 11
0.804352
 21
-318.647704
 31
0.0
  0
LINE
  5
84B
100
AcDbEntity
  8
V0-OBRYS
 62
    90
100
AcDbLine
 10
18.635042
 20
-318.647704
 30
0.0
 11
18.635042
 21
-448.647704
 31
0.0
  0
LINE
  5
84C
100
AcDbEntity
  8
V0-OBRYS
 62
    90
100
AcDbLine
 10
0.804352
 20
-401.459236
 30
0.0
 11
0.804352
 21
-318.647704
 31
0.0
  0
LINE
  5
84D
100
AcDbEntity
  8
V0-OBRYS
 62
    90
100
AcDbLine
 10
-1.361537
 20
-318.647704
 30
0.0
 11
-1.361537
 21
-401.459236
 31
0.0
  0
LINE
  5
84E
100
AcDbEntity
  8
V0-OBRYS
 62
    90
100
AcDbLine
 10
-6.364958
 20
-318.647704
 30
0.0
 11
-6.364958
 21
-398.647704
 31
0.0
  0
LINE
  5
84F
100
AcDbEntity
  8
V0-OBRYS
 62
    90
100
AcDbLine
 10
-6.364958
 20
-398.647704
 30
0.0
 11
18.635042
 21
-398.647704
 31
0.0
  0
LINE
  5
850
100
AcDbEntity
  8
V0-OBRYS
 62
    90
100
AcDbLine
 10
-1.361537
 20
-401.459236
 30
0.0
 11
0.804352
 21
-401.459236
 31
0.0
  0
LINE
  5
851
100
AcDbEntity
  8
V0-OBRYS
 62
    90
100
AcDbLine
 10
-6.364958
 20
-238.647704
 30
0.0
 11
18.635042
 21
-238.647704
 31
0.0
  0
LINE
  5
852
100
AcDbEntity
  8
V0-OBRYS
 62
    90
100
AcDbLine
 10
-1.361537
 20
-235.836173
 30
0.0
 11
0.804352
 21
-235.836173
 31
0.0
  0
LINE
  5
853
100
AcDbEntity
  8
V0-OBRYS
 62
    90
100
AcDbLine
 10
893.635042
 20
-318.647704
 30
0.0
 11
893.635042
 21
-238.647704
 31
0.0
  0
LINE
  5
854
100
AcDbEntity
  8
V0-OBRYS
 62
    90
100
AcDbLine
 10
888.631621
 20
-318.647704
 30
0.0
 11
888.631621
 21
-235.836173
 31
0.0
  0
LINE
  5
855
100
AcDbEntity
  8
V0-OBRYS
 62
    90
100
AcDbLine
 10
886.465732
 20
-235.836173
 30
0.0
 11
886.465732
 21
-318.647704
 31
0.0
  0
LINE
  5
856
100
AcDbEntity
  8
V0-OBRYS
 62
    90
100
AcDbLine
 10
868.635042
 20
-318.647704
 30
0.0
 11
868.635042
 21
-188.647704
 31
0.0
  0
LINE
  5
857
100
AcDbEntity
  8
V0-OBRYS
 62
    90
100
AcDbLine
 10
868.635042
 20
-318.647704
 30
0.0
 11
868.635042
 21
-448.647704
 31
0.0
  0
LINE
  5
858
100
AcDbEntity
  8
V0-OBRYS
 62
    90
100
AcDbLine
 10
886.465732
 20
-401.459236
 30
0.0
 11
886.465732
 21
-318.647704
 31
0.0
  0
LINE
  5
859
100
AcDbEntity
  8
V0-OBRYS
 62
    90
100
AcDbLine
 10
888.631621
 20
-318.647704
 30
0.0
 11
888.631621
 21
-401.459236
 31
0.0
  0
LINE
  5
85A
100
AcDbEntity
  8
V0-OBRYS
 62
    90
100
AcDbLine
 10
893.635042
 20
-318.647704
 30
0.0
 11
893.635042
 21
-398.647704
 31
0.0
  0
LINE
  5
85B
100
AcDbEntity
  8
V0-OBRYS
 62
    90
100
AcDbLine
 10
888.631621
 20
-401.459236
 30
0.0
 11
886.465732
 21
-401.459236
 31
0.0
  0
LINE
  5
85C
100
AcDbEntity
  8
V0-OBRYS
 62
    90
100
AcDbLine
 10
893.635042
 20
-398.647704
 30
0.0
 11
868.635042
 21
-398.647704
 31
0.0
  0
LINE
  5
85D
100
AcDbEntity
  8
V0-OBRYS
 62
    90
100
AcDbLine
 10
888.631621
 20
-235.836173
 30
0.0
 11
886.465732
 21
-235.836173
 31
0.0
  0
LINE
  5
85E
100
AcDbEntity
  8
V0-OBRYS
 62
    90
100
AcDbLine
 10
893.635042
 20
-238.647704
 30
0.0
 11
868.635042
 21
-238.647704
 31
0.0
  0
TEXT
  5
85F
100
AcDbEntity
  8
V0-NAZVY
 62
   210
 48
2.0
100
AcDbText
 10
1028.09522
 20
189.30506
 30
0.0
 40
30.0
  1
MAA-160-900
 72
     1
 11
1149.659446
 21
189.30506
 31
0.0
100
AcDbText
  0
TEXT
  5
860
100
AcDbEntity
  8
V0-NAZVY
 62
   210
 48
2.0
100
AcDbText
 10
320.919975
 20
76.399615
 30
0.0
 40
30.0
  1
MAA-160-900
 72
     1
 11
442.484201
 21
76.399615
 31
0.0
100
AcDbText
  0
TEXT
  5
861
100
AcDbEntity
  8
V0-NAZVY
 62
   210
 48
2.0
100
AcDbText
 10
318.8006
 20
-296.986335
 30
0.0
 40
30.0
  1
MAA-160-900
 72
     1
 11
440.364826
 21
-296.986335
 31
0.0
100
AcDbText
  0
LINE
  5
862
100
AcDbEntity
  8
V0-VYPLNE
  6
DASHED
 62
    56
 48
3.0
100
AcDbLine
 10
19.286162
 20
141.669424
 30
0.0
 11
868.045461
 21
141.669424
 31
0.0
  0
LINE
  5
863
100
AcDbEntity
  8
V0-VYPLNE
  6
DASHED
 62
    56
 48
3.0
100
AcDbLine
 10
19.286162
 20
-49.158818
 30
0.0
 11
868.045461
 21
-49.158818
 31
0.0
  0
LINE
  5
864
100
AcDbEntity
  8
V0-VYPLNE
  6
DASHED
 62
    56
 48
3.0
100
AcDbLine
 10
19.286162
 20
-223.233584
 30
0.0
 11
868.045461
 21
-223.233584
 31
0.0
  0
LINE
  5
865
100
AcDbEntity
  8
V0-VYPLNE
  6
DASHED
 62
    56
 48
3.0
100
AcDbLine
 10
19.286162
 20
-414.061825
 30
0.0
 11
868.045461
 21
-414.061825
 31
0.0
  0
VIEWPORT
  5
22
100
AcDbEntity
 67
     1
  8
0
100
AcDbViewport
 10
261.517699
 20
148.5
 30
0.0
 40
523.035398
 41
297.0
 68
    -1
 69
     1
1001
ACAD
1000
MVIEW
1002
{
1070
    16
1010
0.0
1020
0.0
1030
0.0
1010
0.0
1020
0.0
1030
1.0
1040
0.0
1040
297.0
1040
261.517699
1040
148.5
1040
50.0
1040
0.0
1040
0.0
1070
     0
1070
   100
1070
     1
1070
     1
1070
     0
1070
     0
1070
     0
1070
     0
1040
0.0
1040
0.0
1040
0.0
1040
1.0
1040
1.0
1040
10.0
1040
10.0
1070
     0
1002
{
1002
}
1002
}
  0
ENDSEC
  0
SECTION
  2
OBJECTS
  0
DICTIONARY
  5
C
100
AcDbDictionary
  3
ACAD_GROUP
350
D
  3
ACAD_MLINESTYLE
350
E
  3
ACDBVARIABLEDICTIONARY
350
5D
  0
DICTIONARY
  5
D
102
{ACAD_REACTORS
330
C
102
}
100
AcDbDictionary
  0
DICTIONARY
  5
E
102
{ACAD_REACTORS
330
C
102
}
100
AcDbDictionary
  3
STANDARD
350
13
  0
DICTIONARY
  5
5D
102
{ACAD_REACTORS
330
C
102
}
100
AcDbDictionary
  3
DIMADEC
350
5E
  3
SORTENTS
350
3D8
  0
MLINESTYLE
  5
13
102
{ACAD_REACTORS
330
E
102
}
100
AcDbMlineStyle
  2
STANDARD
 70
     0
  3

 62
     0
 51
90.0
 52
90.0
 71
     2
 49
0.5
 62
   256
  6
BYLAYER
 49
-0.5
 62
   256
  6
BYLAYER
  0
DICTIONARYVAR
  5
5E
102
{ACAD_REACTORS
330
5D
102
}
100
DictionaryVariables
280
     0
  1
0
  0
DICTIONARYVAR
  5
3D8
102
{ACAD_REACTORS
330
5D
102
}
100
DictionaryVariables
280
     0
  1
96
  0
ENDSEC
  0
EOF
