  0
SECTION
  2
HEADER
  9
$ACADVER
  1
AC1015
  9
$ACADMAINTVER
 70
    13
  9
$DWGCODEPAGE
  3
ANSI_1252
  9
$INSBASE
 10
0.0
 20
0.0
 30
0.0
  9
$EXTMIN
 10
1501.365342943513
 20
455.6359237575061
 30
0.0
  9
$EXTMAX
 10
3929.494289821841
 20
2056.457059872468
 30
0.0
  9
$LIMMIN
 10
0.0
 20
0.0
  9
$LIMMAX
 10
420.0
 20
297.0
  9
$ORTHOMODE
 70
     0
  9
$REGENMODE
 70
     1
  9
$FILLMODE
 70
     1
  9
$QTEXTMODE
 70
     0
  9
$MIRRTEXT
 70
     1
  9
$LTSCALE
 40
1.0
  9
$ATTMODE
 70
     1
  9
$TEXTSIZE
 40
25.0
  9
$TRACEWID
 40
1.0
  9
$TEXTSTYLE
  7
Standard
  9
$CLAYER
  8
popis
  9
$CELTYPE
  6
ByLayer
  9
$CECOLOR
 62
   256
  9
$CELTSCALE
 40
1.0
  9
$DISPSILH
 70
     0
  9
$DIMSCALE
 40
10.0
  9
$DIMASZ
 40
2.0
  9
$DIMEXO
 40
0.625
  9
$DIMDLI
 40
3.75
  9
$DIMRND
 40
0.0
  9
$DIMDLE
 40
0.0
  9
$DIMEXE
 40
1.25
  9
$DIMTP
 40
0.0
  9
$DIMTM
 40
0.0
  9
$DIMTXT
 40
2.0
  9
$DIMCEN
 40
2.5
  9
$DIMTSZ
 40
0.0
  9
$DIMTOL
 70
     0
  9
$DIMLIM
 70
     0
  9
$DIMTIH
 70
     0
  9
$DIMTOH
 70
     0
  9
$DIMSE1
 70
     0
  9
$DIMSE2
 70
     0
  9
$DIMTAD
 70
     1
  9
$DIMZIN
 70
     8
  9
$DIMBLK
  1

  9
$DIMASO
 70
     1
  9
$DIMSHO
 70
     1
  9
$DIMPOST
  1

  9
$DIMAPOST
  1

  9
$DIMALT
 70
     0
  9
$DIMALTD
 70
     3
  9
$DIMALTF
 40
0.03937007874016
  9
$DIMLFAC
 40
1.0
  9
$DIMTOFL
 70
     1
  9
$DIMTVP
 40
0.0
  9
$DIMTIX
 70
     0
  9
$DIMSOXD
 70
     0
  9
$DIMSAH
 70
     0
  9
$DIMBLK1
  1

  9
$DIMBLK2
  1

  9
$DIMSTYLE
  2
ISO-25
  9
$DIMCLRD
 70
     0
  9
$DIMCLRE
 70
     0
  9
$DIMCLRT
 70
     0
  9
$DIMTFAC
 40
1.0
  9
$DIMGAP
 40
0.625
  9
$DIMJUST
 70
     0
  9
$DIMSD1
 70
     0
  9
$DIMSD2
 70
     0
  9
$DIMTOLJ
 70
     0
  9
$DIMTZIN
 70
     8
  9
$DIMALTZ
 70
     0
  9
$DIMALTTZ
 70
     0
  9
$DIMUPT
 70
     0
  9
$DIMDEC
 70
     2
  9
$DIMTDEC
 70
     2
  9
$DIMALTU
 70
     2
  9
$DIMALTTD
 70
     3
  9
$DIMTXSTY
  7
Standard
  9
$DIMAUNIT
 70
     0
  9
$DIMADEC
 70
     0
  9
$DIMALTRND
 40
0.0
  9
$DIMAZIN
 70
     0
  9
$DIMDSEP
 70
    44
  9
$DIMATFIT
 70
     3
  9
$DIMFRAC
 70
     0
  9
$DIMLDRBLK
  1

  9
$DIMLUNIT
 70
     2
  9
$DIMLWD
 70
    -2
  9
$DIMLWE
 70
    -2
  9
$DIMTMOVE
 70
     0
  9
$LUNITS
 70
     2
  9
$LUPREC
 70
     4
  9
$SKETCHINC
 40
1.0
  9
$FILLETRAD
 40
2.5
  9
$AUNITS
 70
     0
  9
$AUPREC
 70
     0
  9
$MENU
  1
.
  9
$ELEVATION
 40
0.0
  9
$PELEVATION
 40
0.0
  9
$THICKNESS
 40
0.0
  9
$LIMCHECK
 70
     0
  9
$CHAMFERA
 40
10.0
  9
$CHAMFERB
 40
10.0
  9
$CHAMFERC
 40
20.0
  9
$CHAMFERD
 40
0.0
  9
$SKPOLY
 70
     0
  9
$TDCREATE
 40
2453639.692351574
  9
$TDUCREATE
 40
2453639.650684907
  9
$TDUPDATE
 40
2453685.461951851
  9
$TDUUPDATE
 40
2453685.420285185
  9
$TDINDWG
 40
0.1156135185
  9
$TDUSRTIMER
 40
0.1156129398
  9
$USRTIMER
 70
     1
  9
$ANGBASE
 50
0.0
  9
$ANGDIR
 70
     0
  9
$PDMODE
 70
     0
  9
$PDSIZE
 40
0.0
  9
$PLINEWID
 40
0.0
  9
$SPLFRAME
 70
     0
  9
$SPLINETYPE
 70
     6
  9
$SPLINESEGS
 70
     8
  9
$HANDSEED
  5
2F0
  9
$SURFTAB1
 70
     6
  9
$SURFTAB2
 70
     6
  9
$SURFTYPE
 70
     6
  9
$SURFU
 70
     6
  9
$SURFV
 70
     6
  9
$UCSBASE
  2

  9
$UCSNAME
  2

  9
$UCSORG
 10
0.0
 20
0.0
 30
0.0
  9
$UCSXDIR
 10
1.0
 20
0.0
 30
0.0
  9
$UCSYDIR
 10
0.0
 20
1.0
 30
0.0
  9
$UCSORTHOREF
  2

  9
$UCSORTHOVIEW
 70
     1
  9
$UCSORGTOP
 10
0.0
 20
0.0
 30
0.0
  9
$UCSORGBOTTOM
 10
0.0
 20
0.0
 30
0.0
  9
$UCSORGLEFT
 10
0.0
 20
0.0
 30
0.0
  9
$UCSORGRIGHT
 10
0.0
 20
0.0
 30
0.0
  9
$UCSORGFRONT
 10
0.0
 20
0.0
 30
0.0
  9
$UCSORGBACK
 10
0.0
 20
0.0
 30
0.0
  9
$PUCSBASE
  2

  9
$PUCSNAME
  2

  9
$PUCSORG
 10
0.0
 20
0.0
 30
0.0
  9
$PUCSXDIR
 10
1.0
 20
0.0
 30
0.0
  9
$PUCSYDIR
 10
0.0
 20
1.0
 30
0.0
  9
$PUCSORTHOREF
  2

  9
$PUCSORTHOVIEW
 70
     0
  9
$PUCSORGTOP
 10
0.0
 20
0.0
 30
0.0
  9
$PUCSORGBOTTOM
 10
0.0
 20
0.0
 30
0.0
  9
$PUCSORGLEFT
 10
0.0
 20
0.0
 30
0.0
  9
$PUCSORGRIGHT
 10
0.0
 20
0.0
 30
0.0
  9
$PUCSORGFRONT
 10
0.0
 20
0.0
 30
0.0
  9
$PUCSORGBACK
 10
0.0
 20
0.0
 30
0.0
  9
$USERI1
 70
     0
  9
$USERI2
 70
     0
  9
$USERI3
 70
     0
  9
$USERI4
 70
     0
  9
$USERI5
 70
     0
  9
$USERR1
 40
0.0
  9
$USERR2
 40
0.0
  9
$USERR3
 40
0.0
  9
$USERR4
 40
0.0
  9
$USERR5
 40
0.0
  9
$WORLDVIEW
 70
     1
  9
$SHADEDGE
 70
     3
  9
$SHADEDIF
 70
    70
  9
$TILEMODE
 70
     1
  9
$MAXACTVP
 70
    64
  9
$PINSBASE
 10
0.0
 20
0.0
 30
0.0
  9
$PLIMCHECK
 70
     0
  9
$PEXTMIN
 10
1.000000000000000E+20
 20
1.000000000000000E+20
 30
1.000000000000000E+20
  9
$PEXTMAX
 10
-1.000000000000000E+20
 20
-1.000000000000000E+20
 30
-1.000000000000000E+20
  9
$PLIMMIN
 10
0.0
 20
0.0
  9
$PLIMMAX
 10
420.0
 20
297.0
  9
$UNITMODE
 70
     0
  9
$VISRETAIN
 70
     1
  9
$PLINEGEN
 70
     0
  9
$PSLTSCALE
 70
     1
  9
$TREEDEPTH
 70
  3020
  9
$CMLSTYLE
  2
Standard
  9
$CMLJUST
 70
     0
  9
$CMLSCALE
 40
20.0
  9
$PROXYGRAPHICS
 70
     1
  9
$MEASUREMENT
 70
     1
  9
$CELWEIGHT
370
    -1
  9
$ENDCAPS
280
     0
  9
$JOINSTYLE
280
     0
  9
$LWDISPLAY
290
     0
  9
$INSUNITS
 70
     4
  9
$HYPERLINKBASE
  1

  9
$STYLESHEET
  1

  9
$XEDIT
290
     1
  9
$CEPSNTYPE
380
     0
  9
$PSTYLEMODE
290
     1
  9
$FINGERPRINTGUID
  2
{9B47308E-04D6-42FB-BD32-F27AC533D1CD}
  9
$VERSIONGUID
  2
{2593BDB3-11A5-489B-96E8-F6FA78A61349}
  9
$EXTNAMES
290
     1
  9
$PSVPSCALE
 40
0.0
  9
$OLESTARTUP
290
     0
  0
ENDSEC
  0
SECTION
  2
CLASSES
  0
CLASS
  1
ACDBDICTIONARYWDFLT
  2
AcDbDictionaryWithDefault
  3
AutoCAD 2000
 90
        0
280
     0
281
     0
  0
CLASS
  1
ACDBPLACEHOLDER
  2
AcDbPlaceHolder
  3
AutoCAD 2000
 90
        0
280
     0
281
     0
  0
CLASS
  1
LAYOUT
  2
AcDbLayout
  3
AutoCAD 2000
 90
        0
280
     0
281
     0
  0
CLASS
  1
DICTIONARYVAR
  2
AcDbDictionaryVar
  3
AutoCAD 2000
 90
        0
280
     0
281
     0
  0
CLASS
  1
DIMASSOC
  2
AcDbDimAssoc
  3
"AcDbDimAssoc|Product Desc:     AcDim ARX App For Dimension|Company:          Autodesk, Inc.|WEB Address:      www.autodesk.com"
 90
        0
280
     0
281
     0
  0
ENDSEC
  0
SECTION
  2
TABLES
  0
TABLE
  2
VPORT
  5
8
330
0
100
AcDbSymbolTable
 70
     6
  0
VPORT
  5
2EF
330
8
100
AcDbSymbolTableRecord
100
AcDbViewportTableRecord
  2
*Active
 70
     0
 10
0.0
 20
0.0
 11
1.0
 21
1.0
 12
2715.429816382677
 22
1256.046491814987
 13
0.0
 23
0.0
 14
10.0
 24
10.0
 15
10.0
 25
10.0
 16
0.0
 26
0.0
 36
1.0
 17
0.0
 27
0.0
 37
0.0
 40
1619.654325951609
 41
1.862475442043221
 42
50.0
 43
0.0
 44
0.0
 50
0.0
 51
0.0
 71
     0
 72
   100
 73
     1
 74
     3
 75
     0
 76
     0
 77
     0
 78
     0
281
     0
 65
     1
110
0.0
120
0.0
130
0.0
111
1.0
121
0.0
131
0.0
112
0.0
122
1.0
132
0.0
 79
     1
146
0.0
  0
ENDTAB
  0
TABLE
  2
LTYPE
  5
5
330
0
100
AcDbSymbolTable
 70
     3
  0
LTYPE
  5
14
330
5
100
AcDbSymbolTableRecord
100
AcDbLinetypeTableRecord
  2
ByBlock
 70
     0
  3

 72
    65
 73
     0
 40
0.0
  0
LTYPE
  5
15
330
5
100
AcDbSymbolTableRecord
100
AcDbLinetypeTableRecord
  2
ByLayer
 70
     0
  3

 72
    65
 73
     0
 40
0.0
  0
LTYPE
  5
16
330
5
100
AcDbSymbolTableRecord
100
AcDbLinetypeTableRecord
  2
Continuous
 70
     0
  3
Solid line
 72
    65
 73
     0
 40
0.0
  0
LTYPE
  5
121
330
5
100
AcDbSymbolTableRecord
100
AcDbLinetypeTableRecord
  2
ACAD_ISO02W100
 70
     0
  3
ISO èárkovaná __ __ __ __ __ __ __ __ __ __ __ 
 72
    65
 73
     2
 40
15.0
 49
12.0
 74
     0
 49
-3.0
 74
     0
  0
LTYPE
  5
122
330
5
100
AcDbSymbolTableRecord
100
AcDbLinetypeTableRecord
  2
ACAD_ISO03W100
 70
     0
  3
ISO pøerušovaná __    __    __    __    __    _
 72
    65
 73
     2
 40
30.0
 49
12.0
 74
     0
 49
-18.0
 74
     0
  0
ENDTAB
  0
TABLE
  2
LAYER
  5
2
330
0
100
AcDbSymbolTable
 70
     5
  0
LAYER
  5
10
330
2
100
AcDbSymbolTableRecord
100
AcDbLayerTableRecord
  2
0
 70
     0
 62
    90
  6
Continuous
370
    -3
390
F
  0
LAYER
  5
2B
330
2
100
AcDbSymbolTableRecord
100
AcDbLayerTableRecord
  2
koty
 70
     0
 62
    41
  6
Continuous
370
    -3
390
F
  0
LAYER
  5
2C
330
2
100
AcDbSymbolTableRecord
100
AcDbLayerTableRecord
  2
popis
 70
     0
 62
   210
  6
Continuous
370
    -3
390
F
  0
LAYER
  5
4E
330
2
100
AcDbSymbolTableRecord
100
AcDbLayerTableRecord
  2
Defpoints
 70
     0
 62
     7
  6
Continuous
290
     0
370
    -3
390
F
  0
LAYER
  5
C4
330
2
100
AcDbSymbolTableRecord
100
AcDbLayerTableRecord
  2
srafy
 70
     0
 62
    90
  6
Continuous
370
    -3
390
F
  0
ENDTAB
  0
TABLE
  2
STYLE
  5
3
330
0
100
AcDbSymbolTable
 70
     2
  0
STYLE
  5
11
330
3
100
AcDbSymbolTableRecord
100
AcDbTextStyleTableRecord
  2
Standard
 70
     0
 40
0.0
 41
1.0
 50
0.0
 71
     0
 42
25.0
  3
txt
  4

  0
STYLE
  5
120
330
3
100
AcDbSymbolTableRecord
100
AcDbTextStyleTableRecord
  2

 70
     1
 40
0.0
 41
1.0
 50
0.0
 71
     0
 42
2.5
  3
ltypeshp.shx
  4

  0
ENDTAB
  0
TABLE
  2
VIEW
  5
6
330
0
100
AcDbSymbolTable
 70
     0
  0
ENDTAB
  0
TABLE
  2
UCS
  5
7
330
0
100
AcDbSymbolTable
 70
     0
  0
ENDTAB
  0
TABLE
  2
APPID
  5
9
330
0
100
AcDbSymbolTable
 70
     1
  0
APPID
  5
12
330
9
100
AcDbSymbolTableRecord
100
AcDbRegAppTableRecord
  2
ACAD
 70
     0
  0
ENDTAB
  0
TABLE
  2
DIMSTYLE
  5
A
330
0
100
AcDbSymbolTable
 70
     2
100
AcDbDimStyleTable
 71
     1
340
27
  0
DIMSTYLE
105
27
102
{ACAD_REACTORS
330
25C
330
274
330
28C
330
2A4
330
2BC
330
2D4
102
}
330
A
100
AcDbSymbolTableRecord
100
AcDbDimStyleTableRecord
  2
ISO-25
 70
     0
 40
10.0
 41
2.0
 42
0.625
 43
3.75
 44
1.25
 73
     0
 74
     0
 77
     1
 78
     8
140
2.0
141
2.5
143
0.03937007874016
147
0.625
171
     3
172
     1
271
     2
272
     2
274
     3
278
    44
283
     0
284
     8
340
11
  0
DIMSTYLE
105
16C
330
A
100
AcDbSymbolTableRecord
100
AcDbDimStyleTableRecord
  2
Standard
 70
     0
340
11
  0
ENDTAB
  0
TABLE
  2
BLOCK_RECORD
  5
1
330
0
100
AcDbSymbolTable
 70
     8
  0
BLOCK_RECORD
  5
1F
330
1
100
AcDbSymbolTableRecord
100
AcDbBlockTableRecord
  2
*Model_Space
340
22
  0
BLOCK_RECORD
  5
1B
330
1
100
AcDbSymbolTableRecord
100
AcDbBlockTableRecord
  2
*Paper_Space
340
1E
  0
BLOCK_RECORD
  5
23
330
1
100
AcDbSymbolTableRecord
100
AcDbBlockTableRecord
  2
*Paper_Space0
340
26
  0
BLOCK_RECORD
  5
25D
330
1
100
AcDbSymbolTableRecord
100
AcDbBlockTableRecord
  2
*D2
340
0
  0
BLOCK_RECORD
  5
275
330
1
100
AcDbSymbolTableRecord
100
AcDbBlockTableRecord
  2
*D3
340
0
  0
BLOCK_RECORD
  5
28D
330
1
100
AcDbSymbolTableRecord
100
AcDbBlockTableRecord
  2
*D4
340
0
  0
BLOCK_RECORD
  5
2A5
330
1
100
AcDbSymbolTableRecord
100
AcDbBlockTableRecord
  2
*D5
340
0
  0
BLOCK_RECORD
  5
2BD
330
1
100
AcDbSymbolTableRecord
100
AcDbBlockTableRecord
  2
*D6
340
0
  0
BLOCK_RECORD
  5
2D5
330
1
100
AcDbSymbolTableRecord
100
AcDbBlockTableRecord
  2
*D7
340
0
  0
ENDTAB
  0
ENDSEC
  0
SECTION
  2
BLOCKS
  0
BLOCK
  5
20
330
1F
100
AcDbEntity
  8
0
100
AcDbBlockBegin
  2
*Model_Space
 70
     0
 10
0.0
 20
0.0
 30
0.0
  3
*Model_Space
  1

  0
ENDBLK
  5
21
330
1F
100
AcDbEntity
  8
0
100
AcDbBlockEnd
  0
BLOCK
  5
1C
330
1B
100
AcDbEntity
 67
     1
  8
0
100
AcDbBlockBegin
  2
*Paper_Space
 70
     0
 10
0.0
 20
0.0
 30
0.0
  3
*Paper_Space
  1

  0
ENDBLK
  5
1D
330
1B
100
AcDbEntity
 67
     1
  8
0
100
AcDbBlockEnd
  0
BLOCK
  5
24
330
23
100
AcDbEntity
  8
0
100
AcDbBlockBegin
  2
*Paper_Space0
 70
     0
 10
0.0
 20
0.0
 30
0.0
  3
*Paper_Space0
  1

  0
ENDBLK
  5
25
330
23
100
AcDbEntity
  8
0
100
AcDbBlockEnd
  0
BLOCK
  5
267
330
25D
100
AcDbEntity
  8
0
100
AcDbBlockBegin
  2
*D2
 70
     1
 10
0.0
 20
0.0
 30
0.0
  3
*D2
  1

  0
LINE
  5
26A
330
25D
100
AcDbEntity
  8
koty
 62
     0
370
    -2
100
AcDbLine
 10
2974.304100473903
 20
641.2606835650161
 30
0.0
 11
2974.304100473903
 21
455.6359237575061
 31
0.0
  0
LINE
  5
26B
330
25D
100
AcDbEntity
  8
koty
 62
     0
370
    -2
100
AcDbLine
 10
3814.304100473903
 20
641.2606835650157
 30
0.0
 11
3814.304100473903
 21
455.6359237575061
 31
0.0
  0
LINE
  5
26C
330
25D
100
AcDbEntity
  8
koty
 62
     0
370
    -2
100
AcDbLine
 10
2994.304100473902
 20
468.1359237575061
 30
0.0
 11
3794.304100473903
 21
468.1359237575061
 31
0.0
  0
SOLID
  5
26D
330
25D
100
AcDbEntity
  8
koty
 62
     0
100
AcDbTrace
 10
2994.304100473902
 20
471.4692570908394
 30
0.0
 11
2994.304100473902
 21
464.8025904241728
 31
0.0
 12
2974.304100473903
 22
468.1359237575061
 32
0.0
 13
2974.304100473903
 23
468.1359237575061
 33
0.0
  0
SOLID
  5
26E
330
25D
100
AcDbEntity
  8
koty
 62
     0
100
AcDbTrace
 10
3794.304100473903
 20
471.4692570908394
 30
0.0
 11
3794.304100473903
 21
464.8025904241728
 31
0.0
 12
3814.304100473903
 22
468.1359237575061
 32
0.0
 13
3814.304100473903
 23
468.1359237575061
 33
0.0
  0
MTEXT
  5
26F
330
25D
100
AcDbEntity
  8
koty
 62
     0
100
AcDbMText
 10
3394.304100473902
 20
484.3859237575061
 30
0.0
 40
20.0
 41
0.0
 71
     5
 72
     1
  1
840
 73
     1
 44
1.0
  0
POINT
  5
270
330
25D
100
AcDbEntity
  8
Defpoints
 62
     0
100
AcDbPoint
 10
2974.304100473903
 20
647.5106835650161
 30
0.0
  0
POINT
  5
271
330
25D
100
AcDbEntity
  8
Defpoints
 62
     0
100
AcDbPoint
 10
3814.304100473903
 20
647.5106835650157
 30
0.0
  0
POINT
  5
272
330
25D
100
AcDbEntity
  8
Defpoints
 62
     0
100
AcDbPoint
 10
3814.304100473903
 20
468.1359237575061
 30
0.0
  0
ENDBLK
  5
268
330
25D
100
AcDbEntity
  8
0
100
AcDbBlockEnd
  0
BLOCK
  5
27F
330
275
100
AcDbEntity
  8
0
100
AcDbBlockBegin
  2
*D3
 70
     1
 10
0.0
 20
0.0
 30
0.0
  3
*D3
  1

  0
LINE
  5
282
330
275
100
AcDbEntity
  8
koty
 62
     0
370
    -2
100
AcDbLine
 10
3820.554100473903
 20
647.5106835650157
 30
0.0
 11
3929.494289821841
 21
647.5106835650156
 31
0.0
  0
LINE
  5
283
330
275
100
AcDbEntity
  8
koty
 62
     0
370
    -2
100
AcDbLine
 10
3356.364333127637
 20
1796.510683565015
 30
0.0
 11
3929.494289821841
 21
1796.510683565015
 31
0.0
  0
LINE
  5
284
330
275
100
AcDbEntity
  8
koty
 62
     0
370
    -2
100
AcDbLine
 10
3916.994289821841
 20
667.5106835650155
 30
0.0
 11
3916.994289821841
 21
1776.510683565015
 31
0.0
  0
SOLID
  5
285
330
275
100
AcDbEntity
  8
koty
 62
     0
100
AcDbTrace
 10
3913.660956488508
 20
667.5106835650155
 30
0.0
 11
3920.327623155174
 21
667.5106835650155
 31
0.0
 12
3916.994289821841
 22
647.5106835650156
 32
0.0
 13
3916.994289821841
 23
647.5106835650156
 33
0.0
  0
SOLID
  5
286
330
275
100
AcDbEntity
  8
koty
 62
     0
100
AcDbTrace
 10
3913.660956488508
 20
1776.510683565015
 30
0.0
 11
3920.327623155174
 21
1776.510683565015
 31
0.0
 12
3916.994289821841
 22
1796.510683565015
 32
0.0
 13
3916.994289821841
 23
1796.510683565015
 33
0.0
  0
MTEXT
  5
287
330
275
100
AcDbEntity
  8
koty
 62
     0
100
AcDbMText
 10
3900.74428982184
 20
1222.010683565016
 30
0.0
 40
20.0
 41
0.0
 71
     5
 72
     1
  1
1149
 11
0.0000000000000001
 21
1.0
 31
0.0
 73
     1
 44
1.0
  0
POINT
  5
288
330
275
100
AcDbEntity
  8
Defpoints
 62
     0
100
AcDbPoint
 10
3814.304100473903
 20
647.5106835650157
 30
0.0
  0
POINT
  5
289
330
275
100
AcDbEntity
  8
Defpoints
 62
     0
100
AcDbPoint
 10
3350.114333127637
 20
1796.510683565015
 30
0.0
  0
POINT
  5
28A
330
275
100
AcDbEntity
  8
Defpoints
 62
     0
100
AcDbPoint
 10
3916.994289821841
 20
1796.510683565015
 30
0.0
  0
ENDBLK
  5
280
330
275
100
AcDbEntity
  8
0
100
AcDbBlockEnd
  0
BLOCK
  5
297
330
28D
100
AcDbEntity
  8
0
100
AcDbBlockBegin
  2
*D4
 70
     1
 10
0.0
 20
0.0
 30
0.0
  3
*D4
  1

  0
LINE
  5
29A
330
28D
100
AcDbEntity
  8
koty
 62
     0
370
    -2
100
AcDbLine
 10
3240.804100473901
 20
1723.760683565015
 30
0.0
 11
3240.804100473901
 21
1898.643725461685
 31
0.0
  0
LINE
  5
29B
330
28D
100
AcDbEntity
  8
koty
 62
     0
370
    -2
100
AcDbLine
 10
3547.804100473902
 20
1828.760683565015
 30
0.0
 11
3547.804100473902
 21
1898.643725461685
 31
0.0
  0
LINE
  5
29C
330
28D
100
AcDbEntity
  8
koty
 62
     0
370
    -2
100
AcDbLine
 10
3260.804100473902
 20
1886.143725461685
 30
0.0
 11
3527.804100473902
 21
1886.143725461685
 31
0.0
  0
SOLID
  5
29D
330
28D
100
AcDbEntity
  8
koty
 62
     0
100
AcDbTrace
 10
3260.804100473902
 20
1889.477058795018
 30
0.0
 11
3260.804100473902
 21
1882.810392128351
 31
0.0
 12
3240.804100473901
 22
1886.143725461685
 32
0.0
 13
3240.804100473901
 23
1886.143725461685
 33
0.0
  0
SOLID
  5
29E
330
28D
100
AcDbEntity
  8
koty
 62
     0
100
AcDbTrace
 10
3527.804100473902
 20
1889.477058795018
 30
0.0
 11
3527.804100473902
 21
1882.810392128351
 31
0.0
 12
3547.804100473902
 22
1886.143725461685
 32
0.0
 13
3547.804100473902
 23
1886.143725461685
 33
0.0
  0
MTEXT
  5
29F
330
28D
100
AcDbEntity
  8
koty
 62
     0
100
AcDbMText
 10
3394.304100473902
 20
1902.393725461685
 30
0.0
 40
20.0
 41
0.0
 71
     5
 72
     1
  1
307
 73
     1
 44
1.0
  0
POINT
  5
2A0
330
28D
100
AcDbEntity
  8
Defpoints
 62
     0
100
AcDbPoint
 10
3240.804100473901
 20
1717.510683565016
 30
0.0
  0
POINT
  5
2A1
330
28D
100
AcDbEntity
  8
Defpoints
 62
     0
100
AcDbPoint
 10
3547.804100473902
 20
1822.510683565015
 30
0.0
  0
POINT
  5
2A2
330
28D
100
AcDbEntity
  8
Defpoints
 62
     0
100
AcDbPoint
 10
3547.804100473902
 20
1886.143725461685
 30
0.0
  0
ENDBLK
  5
298
330
28D
100
AcDbEntity
  8
0
100
AcDbBlockEnd
  0
BLOCK
  5
2AF
330
2A5
100
AcDbEntity
  8
0
100
AcDbBlockBegin
  2
*D5
 70
     1
 10
0.0
 20
0.0
 30
0.0
  3
*D5
  1

  0
LINE
  5
2B2
330
2A5
100
AcDbEntity
  8
koty
 62
     0
370
    -2
100
AcDbLine
 10
1501.365342943513
 20
651.2606835650158
 30
0.0
 11
1501.365342943513
 21
455.6359237575062
 31
0.0
  0
LINE
  5
2B3
330
2A5
100
AcDbEntity
  8
koty
 62
     0
370
    -2
100
AcDbLine
 10
2391.365342943513
 20
651.2606835650158
 30
0.0
 11
2391.365342943513
 21
455.6359237575062
 31
0.0
  0
LINE
  5
2B4
330
2A5
100
AcDbEntity
  8
koty
 62
     0
370
    -2
100
AcDbLine
 10
1521.365342943513
 20
468.1359237575062
 30
0.0
 11
2371.365342943513
 21
468.1359237575062
 31
0.0
  0
SOLID
  5
2B5
330
2A5
100
AcDbEntity
  8
koty
 62
     0
100
AcDbTrace
 10
1521.365342943513
 20
471.4692570908395
 30
0.0
 11
1521.365342943513
 21
464.8025904241729
 31
0.0
 12
1501.365342943513
 22
468.1359237575062
 32
0.0
 13
1501.365342943513
 23
468.1359237575062
 33
0.0
  0
SOLID
  5
2B6
330
2A5
100
AcDbEntity
  8
koty
 62
     0
100
AcDbTrace
 10
2371.365342943513
 20
471.4692570908395
 30
0.0
 11
2371.365342943513
 21
464.8025904241729
 31
0.0
 12
2391.365342943513
 22
468.1359237575062
 32
0.0
 13
2391.365342943513
 23
468.1359237575062
 33
0.0
  0
MTEXT
  5
2B7
330
2A5
100
AcDbEntity
  8
koty
 62
     0
100
AcDbMText
 10
1946.365342943513
 20
484.3859237575061
 30
0.0
 40
20.0
 41
0.0
 71
     5
 72
     1
  1
890
 73
     1
 44
1.0
  0
POINT
  5
2B8
330
2A5
100
AcDbEntity
  8
Defpoints
 62
     0
100
AcDbPoint
 10
1501.365342943513
 20
657.5106835650158
 30
0.0
  0
POINT
  5
2B9
330
2A5
100
AcDbEntity
  8
Defpoints
 62
     0
100
AcDbPoint
 10
2391.365342943513
 20
657.5106835650158
 30
0.0
  0
POINT
  5
2BA
330
2A5
100
AcDbEntity
  8
Defpoints
 62
     0
100
AcDbPoint
 10
2391.365342943513
 20
468.1359237575062
 30
0.0
  0
ENDBLK
  5
2B0
330
2A5
100
AcDbEntity
  8
0
100
AcDbBlockEnd
  0
BLOCK
  5
2C7
330
2BD
100
AcDbEntity
  8
0
100
AcDbBlockBegin
  2
*D6
 70
     1
 10
0.0
 20
0.0
 30
0.0
  3
*D6
  1

  0
LINE
  5
2CA
330
2BD
100
AcDbEntity
  8
koty
 62
     0
370
    -2
100
AcDbLine
 10
1631.365756908394
 20
1403.25
 30
0.0
 11
1631.365756908394
 21
1898.643725461685
 31
0.0
  0
LINE
  5
2CB
330
2BD
100
AcDbEntity
  8
koty
 62
     0
370
    -2
100
AcDbLine
 10
2261.365342943513
 20
1403.760683565016
 30
0.0
 11
2261.365342943513
 21
1898.643725461685
 31
0.0
  0
LINE
  5
2CC
330
2BD
100
AcDbEntity
  8
koty
 62
     0
370
    -2
100
AcDbLine
 10
1651.365756908394
 20
1886.143725461685
 30
0.0
 11
2241.365342943513
 21
1886.143725461685
 31
0.0
  0
SOLID
  5
2CD
330
2BD
100
AcDbEntity
  8
koty
 62
     0
100
AcDbTrace
 10
1651.365756908394
 20
1889.477058795018
 30
0.0
 11
1651.365756908394
 21
1882.810392128351
 31
0.0
 12
1631.365756908394
 22
1886.143725461685
 32
0.0
 13
1631.365756908394
 23
1886.143725461685
 33
0.0
  0
SOLID
  5
2CE
330
2BD
100
AcDbEntity
  8
koty
 62
     0
100
AcDbTrace
 10
2241.365342943513
 20
1889.477058795018
 30
0.0
 11
2241.365342943513
 21
1882.810392128351
 31
0.0
 12
2261.365342943513
 22
1886.143725461685
 32
0.0
 13
2261.365342943513
 23
1886.143725461685
 33
0.0
  0
MTEXT
  5
2CF
330
2BD
100
AcDbEntity
  8
koty
 62
     0
100
AcDbMText
 10
1946.365549925954
 20
1902.393725461685
 30
0.0
 40
20.0
 41
0.0
 71
     5
 72
     1
  1
630
 73
     1
 44
1.0
  0
POINT
  5
2D0
330
2BD
100
AcDbEntity
  8
Defpoints
 62
     0
100
AcDbPoint
 10
1631.365756908394
 20
1397.0
 30
0.0
  0
POINT
  5
2D1
330
2BD
100
AcDbEntity
  8
Defpoints
 62
     0
100
AcDbPoint
 10
2261.365342943513
 20
1397.510683565015
 30
0.0
  0
POINT
  5
2D2
330
2BD
100
AcDbEntity
  8
Defpoints
 62
     0
100
AcDbPoint
 10
2261.365342943513
 20
1886.143725461685
 30
0.0
  0
ENDBLK
  5
2C8
330
2BD
100
AcDbEntity
  8
0
100
AcDbBlockEnd
  0
BLOCK
  5
2DF
330
2D5
100
AcDbEntity
  8
0
100
AcDbBlockBegin
  2
*D7
 70
     1
 10
0.0
 20
0.0
 30
0.0
  3
*D7
  1

  0
LINE
  5
2E2
330
2D5
100
AcDbEntity
  8
koty
 62
     0
370
    -2
100
AcDbLine
 10
2387.615342943513
 20
647.5106835650158
 30
0.0
 11
2572.230414499109
 21
647.5106835650158
 31
0.0
  0
LINE
  5
2E3
330
2D5
100
AcDbEntity
  8
koty
 62
     0
370
    -2
100
AcDbLine
 10
2267.615342943513
 20
1397.510683565015
 30
0.0
 11
2572.23041449911
 21
1397.510683565015
 31
0.0
  0
LINE
  5
2E4
330
2D5
100
AcDbEntity
  8
koty
 62
     0
370
    -2
100
AcDbLine
 10
2559.73041449911
 20
667.5106835650158
 30
0.0
 11
2559.73041449911
 21
1377.510683565015
 31
0.0
  0
SOLID
  5
2E5
330
2D5
100
AcDbEntity
  8
koty
 62
     0
100
AcDbTrace
 10
2556.397081165776
 20
667.5106835650158
 30
0.0
 11
2563.063747832443
 21
667.5106835650158
 31
0.0
 12
2559.73041449911
 22
647.5106835650158
 32
0.0
 13
2559.73041449911
 23
647.5106835650158
 33
0.0
  0
SOLID
  5
2E6
330
2D5
100
AcDbEntity
  8
koty
 62
     0
100
AcDbTrace
 10
2556.397081165776
 20
1377.510683565015
 30
0.0
 11
2563.063747832444
 21
1377.510683565015
 31
0.0
 12
2559.73041449911
 22
1397.510683565015
 32
0.0
 13
2559.73041449911
 23
1397.510683565015
 33
0.0
  0
MTEXT
  5
2E7
330
2D5
100
AcDbEntity
  8
koty
 62
     0
100
AcDbMText
 10
2543.480414499109
 20
1022.510683565016
 30
0.0
 40
20.0
 41
0.0
 71
     5
 72
     1
  1
750
 11
0.0000000000000001
 21
1.0
 31
0.0
 73
     1
 44
1.0
  0
POINT
  5
2E8
330
2D5
100
AcDbEntity
  8
Defpoints
 62
     0
100
AcDbPoint
 10
2381.365342943513
 20
647.5106835650158
 30
0.0
  0
POINT
  5
2E9
330
2D5
100
AcDbEntity
  8
Defpoints
 62
     0
100
AcDbPoint
 10
2261.365342943513
 20
1397.510683565015
 30
0.0
  0
POINT
  5
2EA
330
2D5
100
AcDbEntity
  8
Defpoints
 62
     0
100
AcDbPoint
 10
2559.73041449911
 20
1397.510683565015
 30
0.0
  0
ENDBLK
  5
2E0
330
2D5
100
AcDbEntity
  8
0
100
AcDbBlockEnd
  0
ENDSEC
  0
SECTION
  2
ENTITIES
  0
LINE
  5
1BF
102
{ACAD_REACTORS
330
2BB
102
}
330
1F
100
AcDbEntity
  8
0
100
AcDbLine
 10
2391.365342943513
 20
657.5106835650158
 30
0.0
 11
2391.365342943511
 21
1397.510683565015
 31
0.0
  0
LINE
  5
1C0
330
1F
100
AcDbEntity
  8
0
100
AcDbLine
 10
2371.365342943513
 20
677.5106835650158
 30
0.0
 11
2371.365342943511
 21
1397.510683565015
 31
0.0
  0
LINE
  5
1C1
102
{ACAD_REACTORS
330
2BB
102
}
330
1F
100
AcDbEntity
  8
0
100
AcDbLine
 10
1501.365342943513
 20
1397.510683565015
 30
0.0
 11
1501.365342943513
 21
657.5106835650158
 31
0.0
  0
LINE
  5
1C2
330
1F
100
AcDbEntity
  8
0
100
AcDbLine
 10
1521.365342943513
 20
1397.510683565015
 30
0.0
 11
1521.365342943513
 21
677.5106835650158
 31
0.0
  0
ARC
  5
1C3
330
1F
100
AcDbEntity
  8
0
100
AcDbCircle
 10
1946.365342943513
 20
1397.510683565015
 30
0.0
 40
300.3879043618153
100
AcDbArc
 50
287.1128747939556
 51
304.3156966346183
  0
LINE
  5
1C4
330
1F
100
AcDbEntity
  8
0
100
AcDbLine
 10
2034.756013289723
 20
1110.421877648396
 30
0.0
 11
1973.533676860487
 21
1174.344514814475
 31
0.0
  0
LINE
  5
1C5
330
1F
100
AcDbEntity
  8
0
100
AcDbLine
 10
1857.974672597303
 20
1110.421877648396
 30
0.0
 11
1919.19700902654
 21
1174.344514814475
 31
0.0
  0
ARC
  5
1C6
330
1F
100
AcDbEntity
  8
0
100
AcDbCircle
 10
1946.365342943513
 20
1397.510683565015
 30
0.0
 40
300.3879043618153
100
AcDbArc
 50
235.6843033653816
 51
252.8871252060443
  0
CIRCLE
  5
1C7
330
1F
100
AcDbEntity
  8
0
100
AcDbCircle
 10
1946.365342943513
 20
1397.510683565015
 30
0.0
 40
425.0
  0
CIRCLE
  5
1C8
330
1F
100
AcDbEntity
  8
0
100
AcDbCircle
 10
1946.365342943513
 20
1397.510683565015
 30
0.0
 40
315.0
  0
LINE
  5
1C9
330
1F
100
AcDbEntity
  8
0
100
AcDbLine
 10
2197.444297207547
 20
670.4364047895605
 30
0.0
 11
2137.120034590403
 21
730.7058934809888
 31
0.0
  0
LINE
  5
1CA
330
1F
100
AcDbEntity
  8
0
100
AcDbLine
 10
2189.165346766984
 20
650.4364047895606
 30
0.0
 11
2128.841084149839
 21
710.7058934809887
 31
0.0
  0
LINE
  5
1CB
330
1F
100
AcDbEntity
  8
0
100
AcDbLine
 10
1703.565339120043
 20
650.4364047895606
 30
0.0
 11
1763.889601737187
 21
710.7058934809888
 31
0.0
  0
LINE
  5
1CC
330
1F
100
AcDbEntity
  8
0
100
AcDbLine
 10
1695.286388679479
 20
670.4364047895605
 30
0.0
 11
1755.610651296623
 21
730.7058934809887
 31
0.0
  0
LINE
  5
1CD
330
1F
100
AcDbEntity
  8
0
100
AcDbLine
 10
1531.365342943513
 20
667.5106835650158
 30
0.0
 11
1688.21853328996
 21
667.5106835650158
 31
0.0
  0
LINE
  5
1CE
330
1F
100
AcDbEntity
  8
0
100
AcDbLine
 10
1511.365342943513
 20
647.5106835650158
 30
0.0
 11
1696.497483730524
 21
647.5106835650158
 31
0.0
  0
ARC
  5
1CF
330
1F
100
AcDbEntity
  8
0
100
AcDbCircle
 10
1511.365342943513
 20
657.5106835650158
 30
0.0
 40
10.0
100
AcDbArc
 50
180.0
 51
270.0
  0
ARC
  5
1D0
330
1F
100
AcDbEntity
  8
0
100
AcDbCircle
 10
1531.365342943513
 20
677.5106835650158
 30
0.0
 40
10.0
100
AcDbArc
 50
180.0
 51
270.0
  0
ARC
  5
1D1
330
1F
100
AcDbEntity
  8
0
100
AcDbCircle
 10
1688.21853328996
 20
677.5106835650158
 30
0.0
 40
10.0
100
AcDbArc
 50
270.0
 51
314.973976142869
  0
ARC
  5
1D2
330
1F
100
AcDbEntity
  8
0
100
AcDbCircle
 10
1696.497483730524
 20
657.5106835650158
 30
0.0
 40
10.0
100
AcDbArc
 50
270.0
 51
314.973976142869
  0
LINE
  5
1D3
330
1F
100
AcDbEntity
  8
0
100
AcDbLine
 10
1770.957457126706
 20
713.6316147055335
 30
0.0
 11
1946.365342943513
 21
713.6316147055335
 31
0.0
  0
LINE
  5
1D4
330
1F
100
AcDbEntity
  8
0
100
AcDbLine
 10
1762.678506686142
 20
733.6316147055335
 30
0.0
 11
1946.365342943513
 21
733.6316147055335
 31
0.0
  0
ARC
  5
1D5
330
1F
100
AcDbEntity
  8
0
100
AcDbCircle
 10
1770.957457126706
 20
703.6316147055336
 30
0.0
 40
10.0
100
AcDbArc
 50
90.0
 51
134.9739761428689
  0
ARC
  5
1D6
330
1F
100
AcDbEntity
  8
0
100
AcDbCircle
 10
1762.678506686142
 20
723.6316147055334
 30
0.0
 40
10.0
100
AcDbArc
 50
90.0
 51
134.9739761428689
  0
LINE
  5
1D7
330
1F
100
AcDbEntity
  8
0
100
AcDbLine
 10
2130.052179200884
 20
733.6316147055335
 30
0.0
 11
1946.365342943513
 21
733.6316147055335
 31
0.0
  0
LINE
  5
1D8
330
1F
100
AcDbEntity
  8
0
100
AcDbLine
 10
2121.773228760321
 20
713.6316147055335
 30
0.0
 11
1946.365342943513
 21
713.6316147055335
 31
0.0
  0
ARC
  5
1D9
330
1F
100
AcDbEntity
  8
0
100
AcDbCircle
 10
2121.773228760321
 20
703.6316147055336
 30
0.0
 40
10.0
100
AcDbArc
 50
45.02602385713101
 51
90.0
  0
ARC
  5
1DA
330
1F
100
AcDbEntity
  8
0
100
AcDbCircle
 10
2130.052179200884
 20
723.6316147055336
 30
0.0
 40
10.0
100
AcDbArc
 50
45.02602385713101
 51
90.0
  0
LINE
  5
1DB
102
{ACAD_REACTORS
330
2EB
102
}
330
1F
100
AcDbEntity
  8
0
100
AcDbLine
 10
2381.365342943513
 20
647.5106835650158
 30
0.0
 11
2196.233202156502
 21
647.5106835650158
 31
0.0
  0
LINE
  5
1DC
330
1F
100
AcDbEntity
  8
0
100
AcDbLine
 10
2361.365342943513
 20
667.5106835650158
 30
0.0
 11
2204.512152597066
 21
667.5106835650158
 31
0.0
  0
ARC
  5
1DD
330
1F
100
AcDbEntity
  8
0
100
AcDbCircle
 10
2196.233202156502
 20
657.5106835650158
 30
0.0
 40
10.0
100
AcDbArc
 50
225.026023857131
 51
270.0
  0
ARC
  5
1DE
330
1F
100
AcDbEntity
  8
0
100
AcDbCircle
 10
2204.512152597066
 20
677.5106835650158
 30
0.0
 40
10.0
100
AcDbArc
 50
225.026023857131
 51
270.0
  0
ARC
  5
1DF
330
1F
100
AcDbEntity
  8
0
100
AcDbCircle
 10
2381.365342943513
 20
657.5106835650158
 30
0.0
 40
10.0
100
AcDbArc
 50
270.0
 51
0.0
  0
ARC
  5
1E0
330
1F
100
AcDbEntity
  8
0
100
AcDbCircle
 10
2361.365342943513
 20
677.5106835650158
 30
0.0
 40
10.0
100
AcDbArc
 50
270.0
 51
0.0
  0
LINE
  5
1E1
330
1F
100
AcDbEntity
  8
0
100
AcDbLine
 10
2150.565749708372
 20
1617.817485466249
 30
0.0
 11
2067.671337737508
 21
1586.788555672819
 31
0.0
  0
LINE
  5
1E2
330
1F
100
AcDbEntity
  8
0
100
AcDbLine
 10
2157.890746875852
 20
1473.656994925971
 30
0.0
 11
2071.084167711057
 21
1438.154912211914
 31
0.0
  0
LINE
  5
1E3
330
1F
100
AcDbEntity
  8
0
100
AcDbLine
 10
2169.981792950336
 20
1420.682660799704
 30
0.0
 11
2076.367991199313
 21
1415.004968922741
 31
0.0
  0
LINE
  5
1E4
330
1F
100
AcDbEntity
  8
0
100
AcDbLine
 10
2225.9310912136
 20
1287.620349681322
 30
0.0
 11
2137.782858625184
 21
1279.609912011662
 31
0.0
  0
LINE
  5
1E6
330
1F
100
AcDbEntity
  8
0
100
AcDbLine
 10
1666.799594673427
 20
1287.620349681322
 30
0.0
 11
1754.947827261842
 21
1279.609912011662
 31
0.0
  0
LINE
  5
1E7
330
1F
100
AcDbEntity
  8
0
100
AcDbLine
 10
1722.74889293669
 20
1420.682660799705
 30
0.0
 11
1816.362694687714
 21
1415.004968922741
 31
0.0
  0
LINE
  5
1E8
330
1F
100
AcDbEntity
  8
0
100
AcDbLine
 10
1734.839939011174
 20
1473.656994925971
 30
0.0
 11
1821.64651817597
 21
1438.154912211914
 31
0.0
  0
ARC
  5
1E9
330
1F
100
AcDbEntity
  8
0
100
AcDbCircle
 10
1946.365342943513
 20
1397.510683565015
 30
0.0
 40
300.3879043618153
100
AcDbArc
 50
132.8271605082392
 51
150.0299823489035
  0
LINE
  5
1EB
330
1F
100
AcDbEntity
  8
0
100
AcDbLine
 10
1686.143227298913
 20
1547.568484482967
 30
0.0
 11
1734.839939011174
 21
1473.656994925971
 31
0.0
  0
LINE
  5
1EC
330
1F
100
AcDbEntity
  8
0
100
AcDbLine
 10
1521.365342943513
 20
1397.510683565015
 30
0.0
 11
1521.365342943513
 21
1518.685142106679
 31
0.0
  0
LINE
  5
1ED
330
1F
100
AcDbEntity
  8
0
100
AcDbLine
 10
1501.365342943513
 20
1397.510683565015
 30
0.0
 11
1501.365342943513
 21
1518.685142106679
 31
0.0
  0
ARC
  5
1EE
330
1F
100
AcDbEntity
  8
0
100
AcDbCircle
 10
1511.365342943513
 20
1518.685142106679
 30
0.0
 40
10.0
100
AcDbArc
 50
0.0
 51
90.0
  0
ARC
  5
1EF
330
1F
100
AcDbEntity
  8
0
100
AcDbCircle
 10
1511.365342943513
 20
1518.685142106679
 30
0.0
 40
10.0
100
AcDbArc
 50
90.0
 51
180.0
  0
LINE
  5
1F0
330
1F
100
AcDbEntity
  8
0
100
AcDbLine
 10
1511.365342943513
 20
1528.68514210668
 30
0.0
 11
1511.365342943513
 21
1528.68514210668
 31
0.0
  0
ARC
  5
1F1
330
1F
100
AcDbEntity
  8
0
100
AcDbCircle
 10
1946.365342943513
 20
1397.510683565015
 30
0.0
 40
300.3879043618153
100
AcDbArc
 50
184.2557319368124
 51
201.4585537774737
  0
LINE
  5
1F2
330
1F
100
AcDbEntity
  8
0
100
AcDbLine
 10
1646.805678261986
 20
1375.219421089003
 30
0.0
 11
1722.74889293669
 21
1420.682660799705
 31
0.0
  0
LINE
  5
1F3
330
1F
100
AcDbEntity
  8
0
100
AcDbLine
 10
2067.671337737508
 20
1586.788555672819
 30
0.0
 11
2013.743085289683
 21
1510.058355286965
 31
0.0
  0
LINE
  5
1F4
330
1F
100
AcDbEntity
  8
0
100
AcDbLine
 10
1825.059348149519
 20
1586.788555672819
 30
0.0
 11
1878.987600597344
 21
1510.058355286966
 31
0.0
  0
LINE
  5
1F5
330
1F
100
AcDbEntity
  8
0
100
AcDbLine
 10
1874.014994253459
 20
1610.364352283801
 30
0.0
 11
1900.381365137918
 21
1520.361049290451
 31
0.0
  0
LINE
  5
1F6
330
1F
100
AcDbEntity
  8
0
100
AcDbLine
 10
2018.715691633568
 20
1610.364352283801
 30
0.0
 11
1992.349320749109
 21
1520.361049290451
 31
0.0
  0
CIRCLE
  5
1F7
330
1F
100
AcDbEntity
  8
0
100
AcDbCircle
 10
1946.365342943513
 20
1397.510683565015
 30
0.0
 40
131.1744585416638
  0
LINE
  5
1F8
330
1F
100
AcDbEntity
  8
0
100
AcDbLine
 10
1788.826185523293
 20
1237.127794446675
 30
0.0
 11
1851.632434485444
 21
1306.778028865763
 31
0.0
  0
LINE
  5
1F9
330
1F
100
AcDbEntity
  8
0
100
AcDbLine
 10
1777.020957754065
 20
1149.407132015081
 30
0.0
 11
1788.826185523293
 21
1237.127794446675
 31
0.0
  0
LINE
  5
1FA
330
1F
100
AcDbEntity
  8
0
100
AcDbLine
 10
1754.947827261842
 20
1279.609912011662
 30
0.0
 11
1836.827490064369
 21
1325.342841971092
 31
0.0
  0
LINE
  5
1FB
330
1F
100
AcDbEntity
  8
0
100
AcDbLine
 10
1919.19700902654
 20
1174.344514814475
 30
0.0
 11
1934.492699335759
 21
1266.874628406181
 31
0.0
  0
LINE
  5
1FC
330
1F
100
AcDbEntity
  8
0
100
AcDbLine
 10
1973.533676860487
 20
1174.344514814475
 30
0.0
 11
1958.237986551267
 21
1266.874628406181
 31
0.0
  0
LINE
  5
1FD
330
1F
100
AcDbEntity
  8
0
100
AcDbLine
 10
2103.904500363733
 20
1237.127794446674
 30
0.0
 11
2041.098251401582
 21
1306.778028865762
 31
0.0
  0
LINE
  5
1FE
330
1F
100
AcDbEntity
  8
0
100
AcDbLine
 10
2115.709728132962
 20
1149.407132015081
 30
0.0
 11
2103.904500363733
 21
1237.127794446674
 31
0.0
  0
LINE
  5
1FF
330
1F
100
AcDbEntity
  8
0
100
AcDbLine
 10
2137.782858625184
 20
1279.609912011662
 30
0.0
 11
2055.903195822657
 21
1325.342841971092
 31
0.0
  0
ARC
  5
200
330
1F
100
AcDbEntity
  8
0
100
AcDbCircle
 10
1946.365342943513
 20
1397.510683565015
 30
0.0
 40
300.3879043618153
100
AcDbArc
 50
81.39858907967045
 51
98.60141092032954
  0
LINE
  5
201
330
1F
100
AcDbEntity
  8
0
100
AcDbLine
 10
1742.164936178655
 20
1617.817485466249
 30
0.0
 11
1825.059348149519
 21
1586.788555672819
 31
0.0
  0
LINE
  5
202
330
1F
100
AcDbEntity
  8
0
100
AcDbLine
 10
1901.439420568576
 20
1694.520034572091
 30
0.0
 11
1874.014994253459
 21
1610.364352283801
 31
0.0
  0
LINE
  5
203
330
1F
100
AcDbEntity
  8
0
100
AcDbLine
 10
1991.291265318451
 20
1694.520034572091
 30
0.0
 11
2018.715691633568
 21
1610.364352283801
 31
0.0
  0
LINE
  5
204
330
1F
100
AcDbEntity
  8
0
100
AcDbLine
 10
2206.587458588113
 20
1547.568484482967
 30
0.0
 11
2157.890746875852
 21
1473.656994925971
 31
0.0
  0
ARC
  5
205
330
1F
100
AcDbEntity
  8
0
100
AcDbCircle
 10
1946.365342943513
 20
1397.510683565015
 30
0.0
 40
300.3879043618153
100
AcDbArc
 50
338.5414462225263
 51
355.7442680631875
  0
LINE
  5
206
330
1F
100
AcDbEntity
  8
0
100
AcDbLine
 10
2245.92500762504
 20
1375.219421089002
 30
0.0
 11
2169.981792950336
 21
1420.682660799704
 31
0.0
  0
LINE
  5
207
330
1F
100
AcDbEntity
  8
0
100
AcDbLine
 10
2391.365342943513
 20
1397.510683565015
 30
0.0
 11
2391.365342943513
 21
1518.685142106679
 31
0.0
  0
LINE
  5
208
330
1F
100
AcDbEntity
  8
0
100
AcDbLine
 10
2371.365342943513
 20
1397.510683565015
 30
0.0
 11
2371.365342943513
 21
1518.685142106679
 31
0.0
  0
ARC
  5
209
330
1F
100
AcDbEntity
  8
0
100
AcDbCircle
 10
2381.365342943513
 20
1518.685142106679
 30
0.0
 40
10.0
100
AcDbArc
 50
0.0
 51
90.0
  0
ARC
  5
20A
330
1F
100
AcDbEntity
  8
0
100
AcDbCircle
 10
2381.365342943513
 20
1518.685142106679
 30
0.0
 40
10.0
100
AcDbArc
 50
90.0
 51
180.0
  0
LINE
  5
20B
330
1F
100
AcDbEntity
  8
0
100
AcDbLine
 10
2381.365342943513
 20
1528.68514210668
 30
0.0
 11
2381.365342943513
 21
1528.68514210668
 31
0.0
  0
ARC
  5
20C
330
1F
100
AcDbEntity
  8
0
100
AcDbCircle
 10
1946.365342943513
 20
1397.510683565015
 30
0.0
 40
300.3879043618153
100
AcDbArc
 50
29.97001765109645
 51
47.17283949176076
  0
LWPOLYLINE
  5
20F
102
{ACAD_REACTORS
330
210
330
2D3
330
2EB
102
}
330
1F
100
AcDbEntity
  8
0
100
AcDbPolyline
 90
        3
 70
     0
 43
0.0
 10
1631.365342943513
 20
1397.510683565015
 42
0.9999999999999998
 10
2261.365342943513
 20
1397.510683565015
 10
1631.365342943513
 20
1397.510683565015
  0
HATCH
  5
210
330
1F
100
AcDbEntity
  8
srafy
100
AcDbHatch
 10
0.0
 20
0.0
 30
0.0
210
0.0
220
0.0
230
1.0
  2
NET
 70
     0
 71
     1
 91
        1
 92
        1
 93
        2
 72
     2
 10
1946.365342943513
 20
1397.510683565015
 40
315.0
 50
180.0
 51
360.0
 73
     1
 72
     1
 10
2261.365342943513
 20
1397.510683565015
 11
1631.365342943513
 21
1397.510683565015
 97
        1
330
20F
 75
     0
 76
     1
 52
0.0
 41
5.0
 77
     0
 78
     2
 53
0.0
 43
0.0
 44
0.0
 45
0.0
 46
15.875
 79
     0
 53
90.0
 43
0.0
 44
0.0
 45
-15.875
 46
0.000000000000001
 79
     0
 98
        1
 10
0.0
 20
0.0
  0
LINE
  5
211
330
1F
100
AcDbEntity
  8
0
100
AcDbLine
 10
1745.702531505051
 20
647.5106835650157
 30
0.0
 11
1946.365342943514
 21
647.5106835650158
 31
0.0
  0
ARC
  5
213
330
1F
100
AcDbEntity
  8
0
100
AcDbCircle
 10
2805.841135764634
 20
1400.330805102388
 30
0.0
 40
1284.478888666113
100
AcDbArc
 50
180.125795132209
 51
212.9047325778895
  0
ARC
  5
214
330
1F
100
AcDbEntity
  8
0
100
AcDbCircle
 10
2805.841135764634
 20
1400.330805102388
 30
0.0
 40
1304.478888666112
100
AcDbArc
 50
190.0467186282246
 51
213.0924966860645
  0
LINE
  5
217
330
1F
100
AcDbEntity
  8
0
100
AcDbLine
 10
1756.161418157255
 20
667.5106835650157
 30
0.0
 11
1946.365342943514
 21
667.5106835650158
 31
0.0
  0
ARC
  5
218
330
1F
100
AcDbEntity
  8
0
100
AcDbCircle
 10
2805.841135764634
 20
1400.330805102388
 30
0.0
 40
1284.478888666113
100
AcDbArc
 50
213.8155136444553
 51
214.5516930748959
  0
ARC
  5
219
330
1F
100
AcDbEntity
  8
0
100
AcDbCircle
 10
2805.841135764634
 20
1400.330805102388
 30
0.0
 40
1304.478888666112
100
AcDbArc
 50
213.9887377324228
 51
215.0182401591976
  0
ARC
  5
21B
330
1F
100
AcDbEntity
  8
0
100
AcDbCircle
 10
1086.889550122393
 20
1400.330805102388
 30
0.0
 40
1284.478888666113
100
AcDbArc
 50
327.0952674221104
 51
359.8742048677909
  0
ARC
  5
21C
330
1F
100
AcDbEntity
  8
0
100
AcDbCircle
 10
1086.889550122393
 20
1400.330805102388
 30
0.0
 40
1304.478888666112
100
AcDbArc
 50
326.9075033139354
 51
349.9532813717753
  0
ARC
  5
21D
330
1F
100
AcDbEntity
  8
0
100
AcDbCircle
 10
1086.889550122393
 20
1400.330805102388
 30
0.0
 40
1284.478888666113
100
AcDbArc
 50
325.448306925104
 51
326.1844863555446
  0
ARC
  5
21E
330
1F
100
AcDbEntity
  8
0
100
AcDbCircle
 10
1086.889550122393
 20
1400.330805102388
 30
0.0
 40
1304.478888666112
100
AcDbArc
 50
324.9817598408024
 51
326.0112622675772
  0
LINE
  5
21F
330
1F
100
AcDbEntity
  8
0
100
AcDbLine
 10
2136.569267729773
 20
667.5106835650157
 30
0.0
 11
1946.365342943514
 21
667.5106835650158
 31
0.0
  0
LINE
  5
220
330
1F
100
AcDbEntity
  8
0
100
AcDbLine
 10
2147.028154381977
 20
647.5106835650157
 30
0.0
 11
1946.365342943514
 21
647.5106835650158
 31
0.0
  0
ARC
  5
221
330
1F
100
AcDbEntity
  8
0
100
AcDbCircle
 10
1745.702531505051
 20
657.5106835650155
 30
0.0
 40
10.0
100
AcDbArc
 50
215.0182401591949
 51
270.0
  0
ARC
  5
222
330
1F
100
AcDbEntity
  8
0
100
AcDbCircle
 10
1756.161418157255
 20
677.5106835650156
 30
0.0
 40
10.0
100
AcDbArc
 50
214.5516930748944
 51
270.0
  0
ARC
  5
223
330
1F
100
AcDbEntity
  8
0
100
AcDbCircle
 10
2147.028154381977
 20
657.5106835650158
 30
0.0
 40
10.0
100
AcDbArc
 50
270.0
 51
324.9817598408019
  0
ARC
  5
224
330
1F
100
AcDbEntity
  8
0
100
AcDbCircle
 10
2136.569267729773
 20
677.5106835650157
 30
0.0
 40
10.0
100
AcDbArc
 50
270.0
 51
325.4483069251055
  0
LINE
  5
228
330
1F
100
AcDbEntity
  8
0
100
AcDbLine
 10
3250.804100473901
 20
1082.510683565015
 30
0.0
 11
3535.304100473902
 21
1082.510683565015
 31
0.0
  0
LINE
  5
229
330
1F
100
AcDbEntity
  8
0
100
AcDbLine
 10
3250.804100473902
 20
1712.510683565015
 30
0.0
 11
3535.304100473902
 21
1712.510683565015
 31
0.0
  0
LINE
  5
22A
330
1F
100
AcDbEntity
  8
0
100
AcDbLine
 10
3540.304100473902
 20
1822.510683565015
 30
0.0
 11
3547.804100473902
 21
1822.510683565015
 31
0.0
  0
LINE
  5
230
102
{ACAD_REACTORS
330
2A3
102
}
330
1F
100
AcDbEntity
  8
0
100
AcDbLine
 10
3240.804100473901
 20
1397.510683565015
 30
0.0
 11
3240.804100473901
 21
1717.510683565016
 31
0.0
  0
LINE
  5
231
102
{ACAD_REACTORS
330
2A3
102
}
330
1F
100
AcDbEntity
  8
0
100
AcDbLine
 10
3547.804100473902
 20
1397.510683565015
 30
0.0
 11
3547.804100473902
 21
1822.510683565015
 31
0.0
  0
LINE
  5
232
330
1F
100
AcDbEntity
  8
0
100
AcDbLine
 10
3240.804100473901
 20
1397.510683565015
 30
0.0
 11
3240.804100473901
 21
1077.510683565015
 31
0.0
  0
LINE
  5
233
330
1F
100
AcDbEntity
  8
0
100
AcDbLine
 10
3547.804100473902
 20
1397.510683565015
 30
0.0
 11
3547.804100473902
 21
972.510683565016
 31
0.0
  0
LINE
  5
234
330
1F
100
AcDbEntity
  8
0
100
AcDbLine
 10
3250.804100473902
 20
1397.510683565015
 30
0.0
 11
3250.804100473902
 21
1717.510683565015
 31
0.0
  0
LINE
  5
235
330
1F
100
AcDbEntity
  8
0
100
AcDbLine
 10
3250.804100473902
 20
1397.510683565015
 30
0.0
 11
3250.804100473901
 21
1077.510683565015
 31
0.0
  0
LINE
  5
237
330
1F
100
AcDbEntity
  8
0
100
AcDbLine
 10
3537.804100473902
 20
1715.010683565016
 30
0.0
 11
3537.804100473902
 21
1820.010683565015
 31
0.0
  0
LINE
  5
238
330
1F
100
AcDbEntity
  8
0
100
AcDbLine
 10
3537.804100473902
 20
1080.010683565015
 30
0.0
 11
3537.804100473902
 21
975.0106835650159
 31
0.0
  0
LINE
  5
239
330
1F
100
AcDbEntity
  8
0
100
AcDbLine
 10
3240.804100473901
 20
1077.510683565015
 30
0.0
 11
3250.804100473901
 21
1077.510683565015
 31
0.0
  0
LINE
  5
23A
330
1F
100
AcDbEntity
  8
0
100
AcDbLine
 10
3240.804100473901
 20
1717.510683565016
 30
0.0
 11
3250.804100473902
 21
1717.510683565015
 31
0.0
  0
LINE
  5
23C
330
1F
100
AcDbEntity
  8
0
100
AcDbLine
 10
2971.411010571797
 20
652.2939910837044
 30
0.0
 11
3240.804100473901
 21
1078.957080063095
 31
0.0
  0
LINE
  5
23D
330
1F
100
AcDbEntity
  8
0
100
AcDbLine
 10
2979.866600430117
 20
646.955170975487
 30
0.0
 11
3254.87432523955
 21
1082.510683565015
 31
0.0
  0
LINE
  5
23E
102
{ACAD_REACTORS
330
273
102
}
330
1F
100
AcDbEntity
  8
0
100
AcDbLine
 10
2972.190203009322
 20
648.8453885920705
 30
0.0
 11
2976.417997938483
 21
646.1759785379618
 31
0.0
  0
ARC
  5
23F
330
1F
100
AcDbEntity
  8
0
100
AcDbCircle
 10
2973.524908036377
 20
650.9592860566502
 30
0.0
 40
2.5
100
AcDbArc
 50
147.7318761324626
 51
237.7318761324629
  0
ARC
  5
240
330
1F
100
AcDbEntity
  8
0
100
AcDbCircle
 10
2977.752702965537
 20
648.2898760025412
 30
0.0
 40
2.5
100
AcDbArc
 50
237.7318761324604
 51
327.7318761324626
  0
LINE
  5
241
330
1F
100
AcDbEntity
  8
0
100
AcDbLine
 10
3540.304100473902
 20
972.5106835650159
 30
0.0
 11
3547.804100473902
 21
972.510683565016
 31
0.0
  0
LINE
  5
24B
330
1F
100
AcDbEntity
  8
0
100
AcDbLine
 10
3547.804100473902
 20
1083.94298693624
 30
0.0
 11
3817.222052216428
 21
652.2788653598188
 31
0.0
  0
LINE
  5
24C
330
1F
100
AcDbEntity
  8
0
100
AcDbLine
 10
3547.804100473902
 20
1065.056280746277
 30
0.0
 11
3808.738783992545
 21
646.9841358821541
 31
0.0
  0
LINE
  5
24D
102
{ACAD_REACTORS
330
273
330
28B
102
}
330
1F
100
AcDbEntity
  8
0
100
AcDbLine
 10
3812.183283417933
 20
646.1870011955995
 30
0.0
 11
3816.424917529873
 21
648.8343659344318
 31
0.0
  0
ARC
  5
24E
330
1F
100
AcDbEntity
  8
0
100
AcDbCircle
 10
3810.859601048516
 20
648.3078182515703
 30
0.0
 40
2.5
100
AcDbArc
 50
211.9698509462739
 51
301.9698509462743
  0
ARC
  5
24F
330
1F
100
AcDbEntity
  8
0
100
AcDbCircle
 10
3815.101235160457
 20
650.9551829904026
 30
0.0
 40
2.5
100
AcDbArc
 50
301.969850946278
 51
31.96985094627398
  0
LINE
  5
251
330
1F
100
AcDbEntity
  8
0
100
AcDbLine
 10
3350.114333127637
 20
1796.510683565015
 30
0.0
 11
3338.79151816135
 21
1796.510683565015
 31
0.0
  0
ARC
  5
252
330
1F
100
AcDbEntity
  8
0
100
AcDbCircle
 10
3535.304100473902
 20
1715.010683565016
 30
0.0
 40
2.5
100
AcDbArc
 50
269.9999999999999
 51
0.0
  0
ARC
  5
253
330
1F
100
AcDbEntity
  8
0
100
AcDbCircle
 10
3540.304100473902
 20
1820.010683565015
 30
0.0
 40
2.5
100
AcDbArc
 50
90.0
 51
180.0
  0
ARC
  5
254
330
1F
100
AcDbEntity
  8
0
100
AcDbCircle
 10
3535.304100473902
 20
1080.010683565015
 30
0.0
 40
2.5
100
AcDbArc
 50
0.0
 51
90.00000000000005
  0
ARC
  5
255
330
1F
100
AcDbEntity
  8
0
100
AcDbCircle
 10
3540.304100473902
 20
975.0106835650159
 30
0.0
 40
2.5
100
AcDbArc
 50
180.0
 51
270.0
  0
LINE
  5
256
330
1F
100
AcDbEntity
  8
0
100
AcDbLine
 10
3537.804100473902
 20
1080.010683565015
 30
0.0
 11
3537.804100473902
 21
1715.010683565016
 31
0.0
  0
ARC
  5
257
330
1F
100
AcDbEntity
  8
0
100
AcDbCircle
 10
3715.759271846168
 20
1723.381793807221
 30
0.0
 40
391.6447814837035
100
AcDbArc
 50
172.5629719721492
 51
181.5905963201043
  0
ARC
  5
258
330
1F
100
AcDbEntity
  8
0
100
AcDbCircle
 10
3072.848929101636
 20
1723.381793807221
 30
0.0
 40
391.6447814837035
100
AcDbArc
 50
358.4094036798955
 51
7.437028027850739
  0
LINE
  5
259
330
1F
100
AcDbEntity
  8
0
100
AcDbLine
 10
3327.409116030471
 20
1774.074903214142
 30
0.0
 11
3461.199084917332
 21
1774.074903214142
 31
0.0
  0
LINE
  5
25A
330
1F
100
AcDbEntity
  8
0
100
AcDbLine
 10
3338.79151816135
 20
1796.510683565015
 30
0.0
 11
3350.707038124535
 21
1774.074903214142
 31
0.0
  0
LINE
  5
25B
102
{ACAD_REACTORS
330
28B
102
}
330
1F
100
AcDbEntity
  8
0
100
AcDbLine
 10
3350.114333127637
 20
1796.510683565015
 30
0.0
 11
3362.029853090822
 21
1774.074903214142
 31
0.0
  0
DIMENSION
  5
25C
102
{ACAD_XDICTIONARY
360
269
102
}
102
{ACAD_REACTORS
330
273
102
}
330
1F
100
AcDbEntity
  8
koty
100
AcDbDimension
  2
*D2
 10
3814.304100473903
 20
468.1359237575061
 30
0.0
 11
3394.304100473902
 21
484.3859237575061
 31
0.0
 70
    32
 71
     5
 42
840.0000000000009
  3
ISO-25
100
AcDbAlignedDimension
 13
2974.304100473903
 23
647.5106835650161
 33
0.0
 14
3814.304100473903
 24
647.5106835650157
 34
0.0
100
AcDbRotatedDimension
  0
DIMENSION
  5
274
102
{ACAD_XDICTIONARY
360
281
102
}
102
{ACAD_REACTORS
330
28B
102
}
330
1F
100
AcDbEntity
  8
koty
100
AcDbDimension
  2
*D3
 10
3916.994289821841
 20
1796.510683565015
 30
0.0
 11
3900.74428982184
 21
1222.010683565016
 31
0.0
 70
    32
 71
     5
 42
1148.999999999999
  3
ISO-25
100
AcDbAlignedDimension
 13
3814.304100473903
 23
647.5106835650157
 33
0.0
 14
3350.114333127637
 24
1796.510683565015
 34
0.0
 50
90.0
100
AcDbRotatedDimension
  0
DIMENSION
  5
28C
102
{ACAD_XDICTIONARY
360
299
102
}
102
{ACAD_REACTORS
330
2A3
102
}
330
1F
100
AcDbEntity
  8
koty
100
AcDbDimension
  2
*D4
 10
3547.804100473902
 20
1886.143725461685
 30
0.0
 11
3394.304100473902
 21
1902.393725461685
 31
0.0
 70
    32
 71
     5
 42
307.0
  3
ISO-25
100
AcDbAlignedDimension
 13
3240.804100473901
 23
1717.510683565016
 33
0.0
 14
3547.804100473902
 24
1822.510683565015
 34
0.0
100
AcDbRotatedDimension
  0
DIMENSION
  5
2A4
102
{ACAD_XDICTIONARY
360
2B1
102
}
102
{ACAD_REACTORS
330
2BB
102
}
330
1F
100
AcDbEntity
  8
koty
100
AcDbDimension
  2
*D5
 10
2391.365342943513
 20
468.1359237575062
 30
0.0
 11
1946.365342943513
 21
484.3859237575061
 31
0.0
 70
    32
 71
     5
 42
890.0000000000003
  3
ISO-25
100
AcDbAlignedDimension
 13
1501.365342943513
 23
657.5106835650158
 33
0.0
 14
2391.365342943513
 24
657.5106835650158
 34
0.0
100
AcDbRotatedDimension
  0
DIMENSION
  5
2BC
102
{ACAD_XDICTIONARY
360
2C9
102
}
102
{ACAD_REACTORS
330
2D3
102
}
330
1F
100
AcDbEntity
  8
koty
100
AcDbDimension
  2
*D6
 10
2261.365342943513
 20
1886.143725461685
 30
0.0
 11
1946.365549925954
 21
1902.393725461685
 31
0.0
 70
    32
 71
     5
 42
629.9995860351191
  3
ISO-25
100
AcDbAlignedDimension
 13
1631.365756908394
 23
1397.0
 33
0.0
 14
2261.365342943513
 24
1397.510683565015
 34
0.0
100
AcDbRotatedDimension
  0
DIMENSION
  5
2D4
102
{ACAD_XDICTIONARY
360
2E1
102
}
102
{ACAD_REACTORS
330
2EB
102
}
330
1F
100
AcDbEntity
  8
koty
100
AcDbDimension
  2
*D7
 10
2559.73041449911
 20
1397.510683565015
 30
0.0
 11
2543.480414499109
 21
1022.510683565016
 31
0.0
 70
    32
 71
     5
 42
749.9999999999999
  3
ISO-25
100
AcDbAlignedDimension
 13
2381.365342943513
 23
647.5106835650158
 33
0.0
 14
2261.365342943513
 24
1397.510683565015
 34
0.0
 50
90.0
100
AcDbRotatedDimension
  0
TEXT
  5
2EC
330
1F
100
AcDbEntity
  8
popis
100
AcDbText
 10
2270.080667156274
 20
2031.457059872468
 30
0.0
 40
25.0
  1
PBT/4 630 - mobilní axiální ventilátor
100
AcDbText
  0
ENDSEC
  0
SECTION
  2
OBJECTS
  0
DICTIONARY
  5
C
330
0
100
AcDbDictionary
281
     1
  3
ACAD_GROUP
350
D
  3
ACAD_LAYOUT
350
1A
  3
ACAD_MLINESTYLE
350
17
  3
ACAD_PLOTSETTINGS
350
19
  3
ACAD_PLOTSTYLENAME
350
E
  3
AcDbVariableDictionary
350
2E
  0
DICTIONARY
  5
269
330
25C
100
AcDbDictionary
280
     1
281
     1
  3
ACAD_DIMASSOC
360
273
  0
DICTIONARY
  5
281
330
274
100
AcDbDictionary
280
     1
281
     1
  3
ACAD_DIMASSOC
360
28B
  0
DICTIONARY
  5
299
330
28C
100
AcDbDictionary
280
     1
281
     1
  3
ACAD_DIMASSOC
360
2A3
  0
DICTIONARY
  5
2B1
330
2A4
100
AcDbDictionary
280
     1
281
     1
  3
ACAD_DIMASSOC
360
2BB
  0
DICTIONARY
  5
2C9
330
2BC
100
AcDbDictionary
280
     1
281
     1
  3
ACAD_DIMASSOC
360
2D3
  0
DICTIONARY
  5
2E1
330
2D4
100
AcDbDictionary
280
     1
281
     1
  3
ACAD_DIMASSOC
360
2EB
  0
DICTIONARY
  5
D
102
{ACAD_REACTORS
330
C
102
}
330
C
100
AcDbDictionary
281
     1
  0
DICTIONARY
  5
1A
102
{ACAD_REACTORS
330
C
102
}
330
C
100
AcDbDictionary
281
     1
  3
Model
350
22
  3
Rozvržení1
350
1E
  3
Rozvržení2
350
26
  0
DICTIONARY
  5
17
102
{ACAD_REACTORS
330
C
102
}
330
C
100
AcDbDictionary
281
     1
  3
Standard
350
18
  0
DICTIONARY
  5
19
102
{ACAD_REACTORS
330
C
102
}
330
C
100
AcDbDictionary
281
     1
  0
ACDBDICTIONARYWDFLT
  5
E
102
{ACAD_REACTORS
330
C
102
}
330
C
100
AcDbDictionary
281
     1
  3
Normal
350
F
100
AcDbDictionaryWithDefault
340
F
  0
DICTIONARY
  5
2E
102
{ACAD_REACTORS
330
C
102
}
330
C
100
AcDbDictionary
281
     1
  3
DIMASSOC
350
30
  3
HIDETEXT
350
2F
  0
DIMASSOC
  5
273
102
{ACAD_REACTORS
330
269
102
}
330
269
100
AcDbDimAssoc
330
25C
 90
        3
 70
     0
 71
     0
  1
AcDbOsnapPointRef
 72
     2
331
23E
 73
     2
 91
        0
 40
0.4999999999999616
 10
2974.304100473903
 20
647.5106835650161
 30
0.0
 75
     0
  1
AcDbOsnapPointRef
 72
     2
331
24D
 73
     2
 91
        0
 40
0.5000000000000386
 10
3814.304100473903
 20
647.5106835650157
 30
0.0
 75
     0
  0
DIMASSOC
  5
28B
102
{ACAD_REACTORS
330
281
102
}
330
281
100
AcDbDimAssoc
330
274
 90
        3
 70
     0
 71
     0
  1
AcDbOsnapPointRef
 72
     2
331
24D
 73
     2
 91
        0
 40
0.5000000000000386
 10
3814.304100473903
 20
647.5106835650157
 30
0.0
 75
     0
  1
AcDbOsnapPointRef
 72
    13
331
25B
 73
     2
 91
        0
 40
0.0
 10
3350.114333127637
 20
1796.510683565015
 30
0.0
 75
     0
  0
DIMASSOC
  5
2A3
102
{ACAD_REACTORS
330
299
102
}
330
299
100
AcDbDimAssoc
330
28C
 90
        3
 70
     0
 71
     0
  1
AcDbOsnapPointRef
 72
     1
331
230
 73
     2
 91
        0
 40
1.0
 10
3240.804100473901
 20
1717.510683565016
 30
0.0
 75
     0
  1
AcDbOsnapPointRef
 72
     1
331
231
 73
     2
 91
        0
 40
1.0
 10
3547.804100473902
 20
1822.510683565015
 30
0.0
 75
     0
  0
DIMASSOC
  5
2BB
102
{ACAD_REACTORS
330
2B1
102
}
330
2B1
100
AcDbDimAssoc
330
2A4
 90
        3
 70
     0
 71
     0
  1
AcDbOsnapPointRef
 72
     1
331
1C1
 73
     2
 91
        0
 40
1.0
 10
1501.365342943513
 20
657.5106835650158
 30
0.0
 75
     0
  1
AcDbOsnapPointRef
 72
    13
331
1BF
 73
     2
 91
        0
 40
0.0
 10
2391.365342943513
 20
657.5106835650158
 30
0.0
 75
     0
  0
DIMASSOC
  5
2D3
102
{ACAD_REACTORS
330
2C9
102
}
330
2C9
100
AcDbDimAssoc
330
2BC
 90
        2
 70
     0
 71
     0
  1
AcDbOsnapPointRef
 72
     1
331
20F
 73
     2
 91
        1
 40
6.283185307179586
 10
2261.365342943513
 20
1397.510683565015
 30
0.0
 75
     0
  0
DIMASSOC
  5
2EB
102
{ACAD_REACTORS
330
2E1
102
}
330
2E1
100
AcDbDimAssoc
330
2D4
 90
        3
 70
     0
 71
     0
  1
AcDbOsnapPointRef
 72
    13
331
1DB
 73
     2
 91
        0
 40
0.0
 10
2381.365342943513
 20
647.5106835650158
 30
0.0
 75
     0
  1
AcDbOsnapPointRef
 72
     1
331
20F
 73
     2
 91
        1
 40
6.283185307179586
 10
2261.365342943513
 20
1397.510683565015
 30
0.0
 75
     0
  0
LAYOUT
  5
22
102
{ACAD_REACTORS
330
1A
102
}
330
1A
100
AcDbPlotSettings
  1

  2
D:\AutoCAD 2002Cz\plotters\PublishToWeb DWF.pc3
  4

  6

 40
0.0
 41
0.0
 42
0.0
 43
0.0
 44
0.0
 45
0.0
 46
0.0
 47
0.0
 48
0.0
 49
0.0
140
0.0
141
0.0
142
1.0
143
1.0
 70
  1712
 72
     0
 73
     0
 74
     0
  7

 75
     0
147
1.0
148
0.0
149
0.0
100
AcDbLayout
  1
Model
 70
     1
 71
     0
 10
0.0
 20
0.0
 11
12.0
 21
9.0
 12
0.0
 22
0.0
 32
0.0
 14
0.0
 24
0.0
 34
0.0
 15
0.0
 25
0.0
 35
0.0
146
0.0
 13
0.0
 23
0.0
 33
0.0
 16
1.0
 26
0.0
 36
0.0
 17
0.0
 27
1.0
 37
0.0
 76
     0
330
1F
  0
LAYOUT
  5
1E
102
{ACAD_REACTORS
330
1A
102
}
330
1A
100
AcDbPlotSettings
  1

  2
D:\AutoCAD 2002Cz\plotters\PublishToWeb DWF.pc3
  4

  6

 40
0.0
 41
0.0
 42
0.0
 43
0.0
 44
0.0
 45
0.0
 46
0.0
 47
0.0
 48
0.0
 49
0.0
140
0.0
141
0.0
142
1.0
143
1.0
 70
   688
 72
     0
 73
     0
 74
     5
  7

 75
    16
147
1.0
148
0.0
149
0.0
100
AcDbLayout
  1
Rozvržení1
 70
     1
 71
     1
 10
0.0
 20
0.0
 11
420.0
 21
297.0
 12
0.0
 22
0.0
 32
0.0
 14
1.000000000000000E+20
 24
1.000000000000000E+20
 34
1.000000000000000E+20
 15
-1.000000000000000E+20
 25
-1.000000000000000E+20
 35
-1.000000000000000E+20
146
0.0
 13
0.0
 23
0.0
 33
0.0
 16
1.0
 26
0.0
 36
0.0
 17
0.0
 27
1.0
 37
0.0
 76
     0
330
1B
  0
LAYOUT
  5
26
102
{ACAD_REACTORS
330
1A
102
}
330
1A
100
AcDbPlotSettings
  1

  2
D:\AutoCAD 2002Cz\plotters\PublishToWeb DWF.pc3
  4

  6

 40
0.0
 41
0.0
 42
0.0
 43
0.0
 44
0.0
 45
0.0
 46
0.0
 47
0.0
 48
0.0
 49
0.0
140
0.0
141
0.0
142
1.0
143
1.0
 70
   688
 72
     0
 73
     0
 74
     5
  7

 75
    16
147
1.0
148
0.0
149
0.0
100
AcDbLayout
  1
Rozvržení2
 70
     1
 71
     2
 10
0.0
 20
0.0
 11
12.0
 21
9.0
 12
0.0
 22
0.0
 32
0.0
 14
0.0
 24
0.0
 34
0.0
 15
0.0
 25
0.0
 35
0.0
146
0.0
 13
0.0
 23
0.0
 33
0.0
 16
1.0
 26
0.0
 36
0.0
 17
0.0
 27
1.0
 37
0.0
 76
     0
330
23
  0
MLINESTYLE
  5
18
102
{ACAD_REACTORS
330
17
102
}
330
17
100
AcDbMlineStyle
  2
STANDARD
 70
     0
  3

 62
   256
 51
90.0
 52
90.0
 71
     2
 49
0.5
 62
   256
  6
BYLAYER
 49
-0.5
 62
   256
  6
BYLAYER
  0
ACDBPLACEHOLDER
  5
F
102
{ACAD_REACTORS
330
E
102
}
330
E
  0
DICTIONARYVAR
  5
30
102
{ACAD_REACTORS
330
2E
102
}
330
2E
100
DictionaryVariables
280
     0
  1
2
  0
DICTIONARYVAR
  5
2F
102
{ACAD_REACTORS
330
2E
102
}
330
2E
100
DictionaryVariables
280
     0
  1
1
  0
ENDSEC
  0
EOF
