  0
SECTION
  2
HEADER
  9
$ACADVER
  1
AC1014
  9
$ACADMAINTVER
 70
     0
  9
$DWGCODEPAGE
  3
ANSI_1250
  9
$INSBASE
 10
0.0
 20
0.0
 30
0.0
  9
$EXTMIN
 10
625.529939
 20
-497.674933
 30
0.0
  9
$EXTMAX
 10
1350.235358
 20
222.123177
 30
0.0
  9
$LIMMIN
 10
0.0
 20
0.0
  9
$LIMMAX
 10
420.0
 20
297.0
  9
$ORTHOMODE
 70
     1
  9
$REGENMODE
 70
     1
  9
$FILLMODE
 70
     1
  9
$QTEXTMODE
 70
     0
  9
$MIRRTEXT
 70
     1
  9
$DRAGMODE
 70
     2
  9
$LTSCALE
 40
1.0
  9
$OSMODE
 70
    15
  9
$ATTMODE
 70
     1
  9
$TEXTSIZE
 40
10.0
  9
$TRACEWID
 40
1.0
  9
$TEXTSTYLE
  7
ED30
  9
$CLAYER
  8
V0-VYPLNE
  9
$CELTYPE
  6
DASHED
  9
$CECOLOR
 62
    52
  9
$CELTSCALE
 40
1.0
  9
$DELOBJ
 70
     1
  9
$DISPSILH
 70
     0
  9
$DIMSCALE
 40
0.0
  9
$DIMASZ
 40
20.0
  9
$DIMEXO
 40
1.0
  9
$DIMDLI
 40
3.75
  9
$DIMRND
 40
0.0
  9
$DIMDLE
 40
0.0
  9
$DIMEXE
 40
1.25
  9
$DIMTP
 40
0.0
  9
$DIMTM
 40
0.0
  9
$DIMTXT
 40
20.0
  9
$DIMCEN
 40
3.0
  9
$DIMTSZ
 40
0.0
  9
$DIMTOL
 70
     0
  9
$DIMLIM
 70
     0
  9
$DIMTIH
 70
     0
  9
$DIMTOH
 70
     0
  9
$DIMSE1
 70
     0
  9
$DIMSE2
 70
     0
  9
$DIMTAD
 70
     1
  9
$DIMZIN
 70
     8
  9
$DIMBLK
  1

  9
$DIMASO
 70
     1
  9
$DIMSHO
 70
     1
  9
$DIMPOST
  1

  9
$DIMAPOST
  1

  9
$DIMALT
 70
     0
  9
$DIMALTD
 70
     4
  9
$DIMALTF
 40
0.0394
  9
$DIMLFAC
 40
1.0
  9
$DIMTOFL
 70
     1
  9
$DIMTVP
 40
0.0
  9
$DIMTIX
 70
     0
  9
$DIMSOXD
 70
     0
  9
$DIMSAH
 70
     1
  9
$DIMBLK1
  1
_OPEN
  9
$DIMBLK2
  1
_OPEN
  9
$DIMSTYLE
  2
ED20
  9
$DIMCLRD
 70
     0
  9
$DIMCLRE
 70
     0
  9
$DIMCLRT
 70
     0
  9
$DIMTFAC
 40
1.0
  9
$DIMGAP
 40
1.5
  9
$DIMJUST
 70
     0
  9
$DIMSD1
 70
     0
  9
$DIMSD2
 70
     0
  9
$DIMTOLJ
 70
     1
  9
$DIMTZIN
 70
     8
  9
$DIMALTZ
 70
     0
  9
$DIMALTTZ
 70
     0
  9
$DIMFIT
 70
     3
  9
$DIMUPT
 70
     0
  9
$DIMUNIT
 70
     2
  9
$DIMDEC
 70
     0
  9
$DIMTDEC
 70
     1
  9
$DIMALTU
 70
     8
  9
$DIMALTTD
 70
     4
  9
$DIMTXSTY
  7
ED20
  9
$DIMAUNIT
 70
     0
  9
$LUNITS
 70
     2
  9
$LUPREC
 70
     4
  9
$SKETCHINC
 40
1.0
  9
$FILLETRAD
 40
5.0
  9
$AUNITS
 70
     0
  9
$AUPREC
 70
     0
  9
$MENU
  1
.
  9
$ELEVATION
 40
0.0
  9
$PELEVATION
 40
0.0
  9
$THICKNESS
 40
0.0
  9
$LIMCHECK
 70
     0
  9
$BLIPMODE
 70
     0
  9
$CHAMFERA
 40
10.0
  9
$CHAMFERB
 40
10.0
  9
$CHAMFERC
 40
20.0
  9
$CHAMFERD
 40
0.0
  9
$SKPOLY
 70
     1
  9
$TDCREATE
 40
2451196.643769328
  9
$TDUPDATE
 40
2453320.499872164
  9
$TDINDWG
 40
0.2785244560
  9
$TDUSRTIMER
 40
0.2785244560
  9
$USRTIMER
 70
     1
  9
$ANGBASE
 50
0.0
  9
$ANGDIR
 70
     0
  9
$PDMODE
 70
     3
  9
$PDSIZE
 40
15.0
  9
$PLINEWID
 40
0.0
  9
$COORDS
 70
     1
  9
$SPLFRAME
 70
     0
  9
$SPLINETYPE
 70
     6
  9
$SPLINESEGS
 70
     8
  9
$ATTDIA
 70
     0
  9
$ATTREQ
 70
     1
  9
$HANDLING
 70
     1
  9
$HANDSEED
  5
11C1
  9
$SURFTAB1
 70
     6
  9
$SURFTAB2
 70
     6
  9
$SURFTYPE
 70
     6
  9
$SURFU
 70
     6
  9
$SURFV
 70
     6
  9
$UCSNAME
  2

  9
$UCSORG
 10
727.5522535047794
 20
0.0
 30
0.0
  9
$UCSXDIR
 10
1.0
 20
0.0
 30
0.0
  9
$UCSYDIR
 10
0.0
 20
1.0
 30
0.0
  9
$PUCSNAME
  2

  9
$PUCSORG
 10
0.0
 20
0.0
 30
0.0
  9
$PUCSXDIR
 10
1.0
 20
0.0
 30
0.0
  9
$PUCSYDIR
 10
0.0
 20
1.0
 30
0.0
  9
$USERI1
 70
     0
  9
$USERI2
 70
     0
  9
$USERI3
 70
     2
  9
$USERI4
 70
     2
  9
$USERI5
 70
     6
  9
$USERR1
 40
281.0
  9
$USERR2
 40
321.0
  9
$USERR3
 40
0.0
  9
$USERR4
 40
0.0
  9
$USERR5
 40
0.0
  9
$WORLDVIEW
 70
     1
  9
$SHADEDGE
 70
     3
  9
$SHADEDIF
 70
    70
  9
$TILEMODE
 70
     1
  9
$MAXACTVP
 70
    48
  9
$PINSBASE
 10
0.0
 20
0.0
 30
0.0
  9
$PLIMCHECK
 70
     0
  9
$PEXTMIN
 10
1.000000E+20
 20
1.000000E+20
 30
1.000000E+20
  9
$PEXTMAX
 10
-1.000000E+20
 20
-1.000000E+20
 30
-1.000000E+20
  9
$PLIMMIN
 10
0.0
 20
0.0
  9
$PLIMMAX
 10
420.0
 20
297.0
  9
$UNITMODE
 70
     0
  9
$VISRETAIN
 70
     1
  9
$PLINEGEN
 70
     0
  9
$PSLTSCALE
 70
     0
  9
$TREEDEPTH
 70
  3020
  9
$PICKSTYLE
 70
     1
  9
$CMLSTYLE
  2
STANDARD
  9
$CMLJUST
 70
     0
  9
$CMLSCALE
 40
1.0
  9
$PROXYGRAPHICS
 70
     1
  9
$MEASUREMENT
 70
     1
  0
ENDSEC
  0
SECTION
  2
CLASSES
  0
CLASS
  1
DICTIONARYVAR
  2
AcDbDictionaryVar
  3
"AutoCAD"
 90
        0
280
     0
281
     0
  0
CLASS
  1
LWPOLYLINE
  2
AcDbPolyline
  3
"AutoCAD"
 90
        0
280
     0
281
     1
  0
CLASS
  1
HATCH
  2
AcDbHatch
  3
"ACAD_SEDONA"
 90
        0
280
     0
281
     1
  0
ENDSEC
  0
SECTION
  2
TABLES
  0
TABLE
  2
VPORT
  5
8
100
AcDbSymbolTable
 70
     3
  0
VPORT
  5
11C0
100
AcDbSymbolTableRecord
100
AcDbViewportTableRecord
  2
*ACTIVE
 70
     0
 10
0.0
 20
0.0
 11
1.0
 21
1.0
 12
984.353097
 22
-213.55466
 13
0.0
 23
0.0
 14
10.0
 24
10.0
 15
10.0
 25
10.0
 16
0.0
 26
0.0
 36
1.0
 17
0.0
 27
0.0
 37
0.0
 40
981.696312
 41
1.585567
 42
50.0
 43
0.0
 44
0.0
 50
0.0
 51
0.0
 71
     0
 72
   100
 73
     1
 74
     1
 75
     0
 76
     0
 77
     0
 78
     0
  0
ENDTAB
  0
TABLE
  2
LTYPE
  5
5
100
AcDbSymbolTable
 70
     3
  0
LTYPE
  5
14
100
AcDbSymbolTableRecord
100
AcDbLinetypeTableRecord
  2
BYBLOCK
 70
     0
  3

 72
    65
 73
     0
 40
0.0
  0
LTYPE
  5
15
100
AcDbSymbolTableRecord
100
AcDbLinetypeTableRecord
  2
BYLAYER
 70
     0
  3

 72
    65
 73
     0
 40
0.0
  0
LTYPE
  5
16
100
AcDbSymbolTableRecord
100
AcDbLinetypeTableRecord
  2
CONTINUOUS
 70
     0
  3
Solid line
 72
    65
 73
     0
 40
0.0
  0
LTYPE
  5
7F
100
AcDbSymbolTableRecord
100
AcDbLinetypeTableRecord
  2
DASHDOT
 70
     0
  3
Dash dot __ . __ . __ . __ . __ . __ . __ . __
 72
    65
 73
     4
 40
25.4
 49
12.7
 74
     0
 49
-6.35
 74
     0
 49
0.0
 74
     0
 49
-6.35
 74
     0
  0
LTYPE
  5
80
100
AcDbSymbolTableRecord
100
AcDbLinetypeTableRecord
  2
DASHED
 70
     0
  3
Dashed __ __ __ __ __ __ __ __ __ __ __ __ __ _
 72
    65
 73
     2
 40
19.05
 49
12.7
 74
     0
 49
-6.35
 74
     0
  0
ENDTAB
  0
TABLE
  2
LAYER
  5
2
100
AcDbSymbolTable
 70
     6
  0
LAYER
  5
F
100
AcDbSymbolTableRecord
100
AcDbLayerTableRecord
  2
0
 70
     0
 62
     7
  6
CONTINUOUS
  0
LAYER
  5
9E
100
AcDbSymbolTableRecord
100
AcDbLayerTableRecord
  2
DEFPOINTS
 70
     0
 62
     7
  6
CONTINUOUS
  0
LAYER
  5
377
100
AcDbSymbolTableRecord
100
AcDbLayerTableRecord
  2
V0-OBRYS
 70
     0
 62
    90
  6
CONTINUOUS
  0
LAYER
  5
378
100
AcDbSymbolTableRecord
100
AcDbLayerTableRecord
  2
V0-VYPLNE
 70
     0
 62
    63
  6
DASHDOT
  0
LAYER
  5
37A
100
AcDbSymbolTableRecord
100
AcDbLayerTableRecord
  2
V0-NAZVY
 70
     0
 62
   210
  6
CONTINUOUS
  0
LAYER
  5
559
100
AcDbSymbolTableRecord
100
AcDbLayerTableRecord
  2
V0-ZBYTEK
 70
     0
 62
    51
  6
CONTINUOUS
  0
ENDTAB
  0
TABLE
  2
STYLE
  5
3
100
AcDbSymbolTable
 70
     6
  0
STYLE
  5
10
100
AcDbSymbolTableRecord
100
AcDbTextStyleTableRecord
  2
STANDARD
 70
     0
 40
7.0
 41
1.0
 50
0.0
 71
     0
 42
20.0
  3
ISOCP.shx
  4

  0
STYLE
  5
331
100
AcDbSymbolTableRecord
100
AcDbTextStyleTableRecord
  2
ED30
 70
     0
 40
30.0
 41
1.0
 50
0.0
 71
     0
 42
2.5
  3
ISOCP.shx
  4

  0
STYLE
  5
5D2
100
AcDbSymbolTableRecord
100
AcDbTextStyleTableRecord
  2
ED20
 70
     0
 40
20.0
 41
1.0
 50
0.0
 71
     0
 42
20.0
  3
isocp.shx
  4

  0
STYLE
  5
64F
100
AcDbSymbolTableRecord
100
AcDbTextStyleTableRecord
  2
ED40
 70
     0
 40
40.0
 41
1.0
 50
0.0
 71
     0
 42
20.0
  3
isocp.shx
  4

  0
STYLE
  5
650
100
AcDbSymbolTableRecord
100
AcDbTextStyleTableRecord
  2
ED10
 70
     0
 40
10.0
 41
1.0
 50
0.0
 71
     0
 42
10.0
  3
isocp.shx
  4

  0
STYLE
  5
CB8
100
AcDbSymbolTableRecord
100
AcDbTextStyleTableRecord
  2
ED15
 70
     0
 40
15.0
 41
1.0
 50
0.0
 71
     0
 42
30.0
  3
isocp.shx
  4

  0
ENDTAB
  0
TABLE
  2
VIEW
  5
6
100
AcDbSymbolTable
 70
     0
  0
ENDTAB
  0
TABLE
  2
UCS
  5
7
100
AcDbSymbolTable
 70
     0
  0
ENDTAB
  0
TABLE
  2
APPID
  5
9
100
AcDbSymbolTable
 70
     3
  0
APPID
  5
11
100
AcDbSymbolTableRecord
100
AcDbRegAppTableRecord
  2
ACAD
 70
     0
  0
APPID
  5
FA7
100
AcDbSymbolTableRecord
100
AcDbRegAppTableRecord
  2
CONTENTBLOCKICON
 70
     0
  0
APPID
  5
FA8
100
AcDbSymbolTableRecord
100
AcDbRegAppTableRecord
  2
CONTENTBLOCKDESCRIPTION
 70
     0
  0
ENDTAB
  0
TABLE
  2
DIMSTYLE
  5
A
100
AcDbSymbolTable
 70
     6
  0
DIMSTYLE
105
1D
100
AcDbSymbolTableRecord
100
AcDbDimStyleTableRecord
  2
STANDARD
 70
     0
  3

  4

  5

  6
_OPEN
  7
_OPEN
 40
0.0
 41
15.0
 42
0.625
 43
3.75
 44
1.25
 45
0.0
 46
0.0
 47
0.0
 48
0.0
140
15.0
141
2.5
142
0.0
143
0.0394
144
1.0
145
0.0
146
1.0
147
3.0
 71
     0
 72
     0
 73
     0
 74
     0
 75
     0
 76
     0
 77
     1
 78
     8
170
     0
171
     4
172
     1
173
     1
174
     0
175
     0
176
     0
177
     0
178
     0
270
     2
271
     0
272
     1
273
     8
274
     4
340
331
275
     0
280
     0
281
     0
282
     0
283
     1
284
     8
285
     0
286
     0
287
     3
288
     0
  0
DIMSTYLE
105
397
100
AcDbSymbolTableRecord
100
AcDbDimStyleTableRecord
  2
ED40
 70
     0
  3

  4

  5

  6
_OPEN
  7
_OPEN
 40
0.0
 41
35.0
 42
1.0
 43
3.75
 44
1.25
 45
0.0
 46
0.0
 47
0.0
 48
0.0
140
40.0
141
3.0
142
0.0
143
0.0394
144
1.0
145
0.0
146
1.0
147
3.0
 71
     0
 72
     0
 73
     0
 74
     0
 75
     0
 76
     0
 77
     1
 78
     8
170
     0
171
     4
172
     1
173
     1
174
     0
175
     0
176
     0
177
     0
178
     0
270
     2
271
     0
272
     1
273
     8
274
     4
340
64F
275
     0
280
     0
281
     0
282
     0
283
     1
284
     8
285
     0
286
     0
287
     3
288
     0
  0
DIMSTYLE
105
656
102
{ACAD_REACTORS
330
A42
330
A3E
102
}
100
AcDbSymbolTableRecord
100
AcDbDimStyleTableRecord
  2
ED30
 70
     0
  3

  4

  5

  6
_OPEN
  7
_OPEN
 40
0.0
 41
25.0
 42
1.0
 43
3.75
 44
1.25
 45
0.0
 46
0.0
 47
0.0
 48
0.0
140
30.0
141
3.0
142
0.0
143
0.0394
144
1.0
145
0.0
146
1.0
147
2.0
 71
     0
 72
     0
 73
     0
 74
     0
 75
     0
 76
     0
 77
     1
 78
     8
170
     0
171
     4
172
     1
173
     1
174
     0
175
     0
176
     0
177
     0
178
     0
270
     2
271
     0
272
     1
273
     8
274
     4
340
331
275
     0
280
     0
281
     0
282
     0
283
     1
284
     8
285
     0
286
     0
287
     3
288
     0
  0
DIMSTYLE
105
657
100
AcDbSymbolTableRecord
100
AcDbDimStyleTableRecord
  2
ED20
 70
     0
  3

  4

  5

  6
_OPEN
  7
_OPEN
 40
0.0
 41
20.0
 42
1.0
 43
3.75
 44
1.25
 45
0.0
 46
0.0
 47
0.0
 48
0.0
140
20.0
141
3.0
142
0.0
143
0.0394
144
1.0
145
0.0
146
1.0
147
1.5
 71
     0
 72
     0
 73
     0
 74
     0
 75
     0
 76
     0
 77
     1
 78
     8
170
     0
171
     4
172
     1
173
     1
174
     0
175
     0
176
     0
177
     0
178
     0
270
     2
271
     0
272
     1
273
     8
274
     4
340
5D2
275
     0
280
     0
281
     0
282
     0
283
     1
284
     8
285
     0
286
     0
287
     3
288
     0
  0
DIMSTYLE
105
658
102
{ACAD_REACTORS
330
BA3
330
C16
102
}
100
AcDbSymbolTableRecord
100
AcDbDimStyleTableRecord
  2
ED10
 70
     0
  3

  4

  5

  6
_OPEN
  7
_OPEN
 40
0.0
 41
15.0
 42
1.0
 43
3.75
 44
1.25
 45
0.0
 46
0.0
 47
0.0
 48
0.0
140
10.0
141
3.0
142
0.0
143
0.0394
144
1.0
145
0.0
146
1.0
147
1.5
 71
     0
 72
     0
 73
     0
 74
     0
 75
     0
 76
     0
 77
     1
 78
     8
170
     0
171
     4
172
     1
173
     1
174
     0
175
     0
176
    41
177
    41
178
    41
270
     2
271
     0
272
     1
273
     8
274
     4
340
5D2
275
     0
280
     0
281
     0
282
     0
283
     1
284
     8
285
     0
286
     0
287
     3
288
     0
  0
DIMSTYLE
105
CB9
100
AcDbSymbolTableRecord
100
AcDbDimStyleTableRecord
  2
ED15
 70
     0
  3

  4

  5

  6
_OPEN
  7
_OPEN
 40
0.0
 41
15.0
 42
1.0
 43
3.75
 44
1.25
 45
0.0
 46
0.0
 47
0.0
 48
0.0
140
15.0
141
3.0
142
0.0
143
0.0394
144
1.0
145
0.0
146
1.0
147
1.5
 71
     0
 72
     0
 73
     0
 74
     0
 75
     0
 76
     0
 77
     1
 78
     8
170
     0
171
     4
172
     1
173
     1
174
     0
175
     0
176
     0
177
     0
178
     0
270
     2
271
     0
272
     1
273
     8
274
     4
340
CB8
275
     0
280
     0
281
     0
282
     0
283
     1
284
     8
285
     0
286
     0
287
     3
288
     0
  0
ENDTAB
  0
TABLE
  2
BLOCK_RECORD
  5
1
100
AcDbSymbolTable
 70
     8
  0
BLOCK_RECORD
  5
1A
100
AcDbSymbolTableRecord
100
AcDbBlockTableRecord
  2
*MODEL_SPACE
  0
BLOCK_RECORD
  5
17
100
AcDbSymbolTableRecord
100
AcDbBlockTableRecord
  2
*PAPER_SPACE
  0
BLOCK_RECORD
  5
90
100
AcDbSymbolTableRecord
100
AcDbBlockTableRecord
  2
_OPEN
  0
BLOCK_RECORD
  5
A52
100
AcDbSymbolTableRecord
100
AcDbBlockTableRecord
  2
*D1
  0
BLOCK_RECORD
  5
A5E
100
AcDbSymbolTableRecord
100
AcDbBlockTableRecord
  2
*D2
  0
BLOCK_RECORD
  5
B97
100
AcDbSymbolTableRecord
100
AcDbBlockTableRecord
  2
*D3
  0
BLOCK_RECORD
  5
C0A
100
AcDbSymbolTableRecord
100
AcDbBlockTableRecord
  2
*D4
  0
BLOCK_RECORD
  5
DC4
100
AcDbSymbolTableRecord
100
AcDbBlockTableRecord
  2
*D5
  0
BLOCK_RECORD
  5
DD0
100
AcDbSymbolTableRecord
100
AcDbBlockTableRecord
  2
*D6
  0
BLOCK_RECORD
  5
DDC
100
AcDbSymbolTableRecord
100
AcDbBlockTableRecord
  2
*D7
  0
ENDTAB
  0
ENDSEC
  0
SECTION
  2
BLOCKS
  0
BLOCK
  5
1B
100
AcDbEntity
  8
0
100
AcDbBlockBegin
  2
*MODEL_SPACE
 70
     0
 10
0.0
 20
0.0
 30
0.0
  3
*MODEL_SPACE
  1

  0
ENDBLK
  5
1C
100
AcDbEntity
  8
0
100
AcDbBlockEnd
  0
BLOCK
  5
18
100
AcDbEntity
 67
     1
  8
0
100
AcDbBlockBegin
  2
*PAPER_SPACE
 70
     0
 10
0.0
 20
0.0
 30
0.0
  3
*PAPER_SPACE
  1

  0
ENDBLK
  5
19
100
AcDbEntity
 67
     1
  8
0
100
AcDbBlockEnd
  0
BLOCK
  5
91
100
AcDbEntity
  8
0
100
AcDbBlockBegin
  2
_OPEN
 70
     0
 10
0.0
 20
0.0
 30
0.0
  3
_OPEN
  1

  0
LINE
  5
92
100
AcDbEntity
  8
0
  6
BYBLOCK
 62
     0
100
AcDbLine
 10
-1.0
 20
0.166667
 30
0.0
 11
0.0
 21
0.0
 31
0.0
  0
LINE
  5
93
100
AcDbEntity
  8
0
  6
BYBLOCK
 62
     0
100
AcDbLine
 10
0.0
 20
0.0
 30
0.0
 11
-1.0
 21
-0.166667
 31
0.0
  0
LINE
  5
94
100
AcDbEntity
  8
0
  6
BYBLOCK
 62
     0
100
AcDbLine
 10
0.0
 20
0.0
 30
0.0
 11
-1.0
 21
0.0
 31
0.0
  0
ENDBLK
  5
95
100
AcDbEntity
  8
0
100
AcDbBlockEnd
  0
BLOCK
  5
EE1
100
AcDbEntity
  8
0
100
AcDbBlockBegin
  2
*D1
 70
     1
 10
0.0
 20
0.0
 30
0.0
  3
*D1
  1

  0
LINE
  5
EE2
100
AcDbEntity
  8
0
  6
BYBLOCK
 62
     0
100
AcDbLine
 10
676.552254
 20
125.0
 30
0.0
 11
644.789782
 21
125.0
 31
0.0
  0
LINE
  5
EE3
100
AcDbEntity
  8
0
  6
BYBLOCK
 62
     0
100
AcDbLine
 10
676.552254
 20
-125.0
 30
0.0
 11
644.789782
 21
-125.0
 31
0.0
  0
LINE
  5
EE4
100
AcDbEntity
  8
0
  6
BYBLOCK
 62
     0
100
AcDbLine
 10
646.039782
 20
105.0
 30
0.0
 11
646.039782
 21
-105.0
 31
0.0
  0
INSERT
  5
EE5
100
AcDbEntity
  8
0
  6
BYBLOCK
 62
     0
100
AcDbBlockReference
  2
_OPEN
 10
646.039782
 20
125.0
 30
0.0
 41
20.0
 42
20.0
 43
20.0
 50
90.0
  0
INSERT
  5
EE6
100
AcDbEntity
  8
0
  6
BYBLOCK
 62
     0
100
AcDbBlockReference
  2
_OPEN
 10
646.039782
 20
-125.0
 30
0.0
 41
20.0
 42
20.0
 43
20.0
 50
270.0
  0
MTEXT
  5
EE7
100
AcDbEntity
  8
0
  6
BYBLOCK
 62
     0
100
AcDbMText
 10
634.537813
 20
-1.802349
 30
0.0
 40
20.0
 41
0.0
 71
     5
 72
     1
  1
\A1;\U+2205250
  7
ED20
 11
0.0
 21
1.0
 31
0.0
  0
POINT
  5
EE8
100
AcDbEntity
  8
DEFPOINTS
  6
BYBLOCK
 62
     0
100
AcDbPoint
 10
677.552254
 20
125.0
 30
0.0
  0
POINT
  5
EE9
100
AcDbEntity
  8
DEFPOINTS
  6
BYBLOCK
 62
     0
100
AcDbPoint
 10
677.552254
 20
-125.0
 30
0.0
  0
POINT
  5
EEA
100
AcDbEntity
  8
DEFPOINTS
  6
BYBLOCK
 62
     0
100
AcDbPoint
 10
646.039782
 20
-125.0
 30
0.0
  0
ENDBLK
  5
EEB
100
AcDbEntity
  8
0
100
AcDbBlockEnd
  0
BLOCK
  5
EF0
100
AcDbEntity
  8
0
100
AcDbBlockBegin
  2
*D2
 70
     1
 10
0.0
 20
0.0
 30
0.0
  3
*D2
  1

  0
LINE
  5
EF1
100
AcDbEntity
  8
0
  6
BYBLOCK
 62
     0
100
AcDbLine
 10
677.552254
 20
-126.0
 30
0.0
 11
677.552254
 21
-162.577395
 31
0.0
  0
LINE
  5
EF2
100
AcDbEntity
  8
0
  6
BYBLOCK
 62
     0
100
AcDbLine
 10
737.552254
 20
-126.0
 30
0.0
 11
737.552254
 21
-162.577395
 31
0.0
  0
LINE
  5
EF3
100
AcDbEntity
  8
0
  6
BYBLOCK
 62
     0
100
AcDbLine
 10
697.552254
 20
-161.327395
 30
0.0
 11
717.552254
 21
-161.327395
 31
0.0
  0
INSERT
  5
EF4
100
AcDbEntity
  8
0
  6
BYBLOCK
 62
     0
100
AcDbBlockReference
  2
_OPEN
 10
677.552254
 20
-161.327395
 30
0.0
 41
20.0
 42
20.0
 43
20.0
 50
180.0
  0
INSERT
  5
EF5
100
AcDbEntity
  8
0
  6
BYBLOCK
 62
     0
100
AcDbBlockReference
  2
_OPEN
 10
737.552254
 20
-161.327395
 30
0.0
 41
20.0
 42
20.0
 43
20.0
  0
MTEXT
  5
EF6
100
AcDbEntity
  8
0
  6
BYBLOCK
 62
     0
100
AcDbMText
 10
711.18717
 20
-149.827395
 30
0.0
 40
20.0
 41
0.0
 71
     5
 72
     1
  1
\A1;60
  7
ED20
  0
POINT
  5
EF7
100
AcDbEntity
  8
DEFPOINTS
  6
BYBLOCK
 62
     0
100
AcDbPoint
 10
677.552254
 20
-125.0
 30
0.0
  0
POINT
  5
EF8
100
AcDbEntity
  8
DEFPOINTS
  6
BYBLOCK
 62
     0
100
AcDbPoint
 10
737.552254
 20
-125.0
 30
0.0
  0
POINT
  5
EF9
100
AcDbEntity
  8
DEFPOINTS
  6
BYBLOCK
 62
     0
100
AcDbPoint
 10
737.552254
 20
-161.327395
 30
0.0
  0
ENDBLK
  5
EFA
100
AcDbEntity
  8
0
100
AcDbBlockEnd
  0
BLOCK
  5
1188
100
AcDbEntity
  8
0
100
AcDbBlockBegin
  2
*D3
 70
     1
 10
0.0
 20
0.0
 30
0.0
  3
*D3
  1

  0
LINE
  5
1189
100
AcDbEntity
  8
0
  6
BYBLOCK
 62
     0
100
AcDbLine
 10
727.552254
 20
-127.0
 30
0.0
 11
727.552254
 21
-199.709906
 31
0.0
  0
LINE
  5
118A
100
AcDbEntity
  8
0
  6
BYBLOCK
 62
     0
100
AcDbLine
 10
977.547962
 20
-127.0
 30
0.0
 11
977.547962
 21
-199.709906
 31
0.0
  0
LINE
  5
118B
100
AcDbEntity
  8
0
  6
BYBLOCK
 62
     0
100
AcDbLine
 10
747.552254
 20
-198.459906
 30
0.0
 11
957.547962
 21
-198.459906
 31
0.0
  0
INSERT
  5
118C
100
AcDbEntity
  8
0
  6
BYBLOCK
 62
     0
100
AcDbBlockReference
  2
_OPEN
 10
727.552254
 20
-198.459906
 30
0.0
 41
20.0
 42
20.0
 43
20.0
 50
180.0
  0
INSERT
  5
118D
100
AcDbEntity
  8
0
  6
BYBLOCK
 62
     0
100
AcDbBlockReference
  2
_OPEN
 10
977.547962
 20
-198.459906
 30
0.0
 41
20.0
 42
20.0
 43
20.0
  0
MTEXT
  5
118E
100
AcDbEntity
  8
0
  6
BYBLOCK
 62
     0
100
AcDbMText
 10
852.550108
 20
-186.957938
 30
0.0
 40
20.0
 41
0.0
 71
     5
 72
     1
  1
\A1;250
  7
ED20
  0
POINT
  5
118F
100
AcDbEntity
  8
DEFPOINTS
  6
BYBLOCK
 62
     0
100
AcDbPoint
 10
727.552254
 20
-126.0
 30
0.0
  0
POINT
  5
1190
100
AcDbEntity
  8
DEFPOINTS
  6
BYBLOCK
 62
     0
100
AcDbPoint
 10
977.547962
 20
-126.0
 30
0.0
  0
POINT
  5
1191
100
AcDbEntity
  8
DEFPOINTS
  6
BYBLOCK
 62
     0
100
AcDbPoint
 10
977.547962
 20
-198.459906
 30
0.0
  0
ENDBLK
  5
1192
100
AcDbEntity
  8
0
100
AcDbBlockEnd
  0
BLOCK
  5
1193
100
AcDbEntity
  8
0
100
AcDbBlockBegin
  2
*D4
 70
     1
 10
0.0
 20
0.0
 30
0.0
  3
*D4
  1

  0
LINE
  5
1194
100
AcDbEntity
  8
0
  6
BYBLOCK
 62
     0
100
AcDbLine
 10
787.552254
 20
-126.0
 30
0.0
 11
787.552254
 21
-162.577395
 31
0.0
  0
LINE
  5
1195
100
AcDbEntity
  8
0
  6
BYBLOCK
 62
     0
100
AcDbLine
 10
917.552254
 20
-126.0
 30
0.0
 11
917.552254
 21
-162.577395
 31
0.0
  0
LINE
  5
1196
100
AcDbEntity
  8
0
  6
BYBLOCK
 62
     0
100
AcDbLine
 10
807.552254
 20
-161.327395
 30
0.0
 11
897.552254
 21
-161.327395
 31
0.0
  0
INSERT
  5
1197
100
AcDbEntity
  8
0
  6
BYBLOCK
 62
     0
100
AcDbBlockReference
  2
_OPEN
 10
787.552254
 20
-161.327395
 30
0.0
 41
20.0
 42
20.0
 43
20.0
 50
180.0
  0
INSERT
  5
1198
100
AcDbEntity
  8
0
  6
BYBLOCK
 62
     0
100
AcDbBlockReference
  2
_OPEN
 10
917.552254
 20
-161.327395
 30
0.0
 41
20.0
 42
20.0
 43
20.0
  0
MTEXT
  5
1199
100
AcDbEntity
  8
0
  6
BYBLOCK
 62
     0
100
AcDbMText
 10
852.552254
 20
-149.827395
 30
0.0
 40
20.0
 41
0.0
 71
     5
 72
     1
  1
\A1;130
  7
ED20
  0
POINT
  5
119A
100
AcDbEntity
  8
DEFPOINTS
  6
BYBLOCK
 62
     0
100
AcDbPoint
 10
787.552254
 20
-125.0
 30
0.0
  0
POINT
  5
119B
100
AcDbEntity
  8
DEFPOINTS
  6
BYBLOCK
 62
     0
100
AcDbPoint
 10
917.552254
 20
-125.0
 30
0.0
  0
POINT
  5
119C
100
AcDbEntity
  8
DEFPOINTS
  6
BYBLOCK
 62
     0
100
AcDbPoint
 10
917.552254
 20
-161.327395
 30
0.0
  0
ENDBLK
  5
119D
100
AcDbEntity
  8
0
100
AcDbBlockEnd
  0
BLOCK
  5
11B4
100
AcDbEntity
  8
0
100
AcDbBlockBegin
  2
*D5
 70
     1
 10
0.0
 20
0.0
 30
0.0
  3
*D5
  1

  0
LINE
  5
11B5
100
AcDbEntity
  8
0
  6
BYBLOCK
 62
     0
100
AcDbLine
 10
852.552254
 20
168.0
 30
0.0
 11
852.552254
 21
202.873177
 31
0.0
  0
LINE
  5
11B6
100
AcDbEntity
  8
0
  6
BYBLOCK
 62
     0
100
AcDbLine
 10
987.552254
 20
171.0
 30
0.0
 11
987.552254
 21
202.873177
 31
0.0
  0
LINE
  5
11B7
100
AcDbEntity
  8
0
  6
BYBLOCK
 62
     0
100
AcDbLine
 10
872.552254
 20
201.623177
 30
0.0
 11
967.552254
 21
201.623177
 31
0.0
  0
INSERT
  5
11B8
100
AcDbEntity
  8
0
  6
BYBLOCK
 62
     0
100
AcDbBlockReference
  2
_OPEN
 10
852.552254
 20
201.623177
 30
0.0
 41
20.0
 42
20.0
 43
20.0
 50
180.0
  0
INSERT
  5
11B9
100
AcDbEntity
  8
0
  6
BYBLOCK
 62
     0
100
AcDbBlockReference
  2
_OPEN
 10
987.552254
 20
201.623177
 30
0.0
 41
20.0
 42
20.0
 43
20.0
  0
MTEXT
  5
11BA
100
AcDbEntity
  8
0
  6
BYBLOCK
 62
     0
100
AcDbMText
 10
949.63804
 20
213.123177
 30
0.0
 40
20.0
 41
0.0
 71
     5
 72
     1
  1
\A1;135
  7
ED20
  0
POINT
  5
11BB
100
AcDbEntity
  8
DEFPOINTS
  6
BYBLOCK
 62
     0
100
AcDbPoint
 10
852.552254
 20
167.0
 30
0.0
  0
POINT
  5
11BC
100
AcDbEntity
  8
DEFPOINTS
  6
BYBLOCK
 62
     0
100
AcDbPoint
 10
987.552254
 20
170.0
 30
0.0
  0
POINT
  5
11BD
100
AcDbEntity
  8
DEFPOINTS
  6
BYBLOCK
 62
     0
100
AcDbPoint
 10
987.552254
 20
201.623177
 30
0.0
  0
ENDBLK
  5
11BE
100
AcDbEntity
  8
0
100
AcDbBlockEnd
  0
BLOCK
  5
11A9
100
AcDbEntity
  8
0
100
AcDbBlockBegin
  2
*D6
 70
     1
 10
0.0
 20
0.0
 30
0.0
  3
*D6
  1

  0
LINE
  5
11AA
100
AcDbEntity
  8
0
  6
BYBLOCK
 62
     0
100
AcDbLine
 10
988.552254
 20
170.0
 30
0.0
 11
1055.133946
 21
170.0
 31
0.0
  0
LINE
  5
11AB
100
AcDbEntity
  8
0
  6
BYBLOCK
 62
     0
100
AcDbLine
 10
933.552254
 20
125.0
 30
0.0
 11
1055.133946
 21
125.0
 31
0.0
  0
LINE
  5
11AC
100
AcDbEntity
  8
0
  6
BYBLOCK
 62
     0
100
AcDbLine
 10
1053.883946
 20
150.0
 30
0.0
 11
1053.883946
 21
145.0
 31
0.0
  0
INSERT
  5
11AD
100
AcDbEntity
  8
0
  6
BYBLOCK
 62
     0
100
AcDbBlockReference
  2
_OPEN
 10
1053.883946
 20
170.0
 30
0.0
 41
20.0
 42
20.0
 43
20.0
 50
90.0
  0
INSERT
  5
11AE
100
AcDbEntity
  8
0
  6
BYBLOCK
 62
     0
100
AcDbBlockReference
  2
_OPEN
 10
1053.883946
 20
125.0
 30
0.0
 41
20.0
 42
20.0
 43
20.0
 50
270.0
  0
MTEXT
  5
11AF
100
AcDbEntity
  8
0
  6
BYBLOCK
 62
     0
100
AcDbMText
 10
1042.383946
 20
147.5
 30
0.0
 40
20.0
 41
0.0
 71
     5
 72
     1
  1
\A1;45
  7
ED20
 11
0.0
 21
1.0
 31
0.0
  0
POINT
  5
11B0
100
AcDbEntity
  8
DEFPOINTS
  6
BYBLOCK
 62
     0
100
AcDbPoint
 10
987.552254
 20
170.0
 30
0.0
  0
POINT
  5
11B1
100
AcDbEntity
  8
DEFPOINTS
  6
BYBLOCK
 62
     0
100
AcDbPoint
 10
932.552254
 20
125.0
 30
0.0
  0
POINT
  5
11B2
100
AcDbEntity
  8
DEFPOINTS
  6
BYBLOCK
 62
     0
100
AcDbPoint
 10
1053.883946
 20
125.0
 30
0.0
  0
ENDBLK
  5
11B3
100
AcDbEntity
  8
0
100
AcDbBlockEnd
  0
BLOCK
  5
EB5
100
AcDbEntity
  8
0
100
AcDbBlockBegin
  2
*D7
 70
     1
 10
0.0
 20
0.0
 30
0.0
  3
*D7
  1

  0
LINE
  5
EB6
100
AcDbEntity
  8
0
  6
BYBLOCK
 62
     0
100
AcDbLine
 10
1168.235358
 20
156.0
 30
0.0
 11
1168.235358
 21
186.701469
 31
0.0
  0
LINE
  5
EB7
100
AcDbEntity
  8
0
  6
BYBLOCK
 62
     0
100
AcDbLine
 10
1268.235358
 20
156.0
 30
0.0
 11
1268.235358
 21
186.701469
 31
0.0
  0
LINE
  5
EB8
100
AcDbEntity
  8
0
  6
BYBLOCK
 62
     0
100
AcDbLine
 10
1188.235358
 20
185.451469
 30
0.0
 11
1248.235358
 21
185.451469
 31
0.0
  0
INSERT
  5
EB9
100
AcDbEntity
  8
0
  6
BYBLOCK
 62
     0
100
AcDbBlockReference
  2
_OPEN
 10
1168.235358
 20
185.451469
 30
0.0
 41
20.0
 42
20.0
 43
20.0
 50
180.0
  0
INSERT
  5
EBA
100
AcDbEntity
  8
0
  6
BYBLOCK
 62
     0
100
AcDbBlockReference
  2
_OPEN
 10
1268.235358
 20
185.451469
 30
0.0
 41
20.0
 42
20.0
 43
20.0
  0
MTEXT
  5
EBB
100
AcDbEntity
  8
0
  6
BYBLOCK
 62
     0
100
AcDbMText
 10
1218.741639
 20
196.951469
 30
0.0
 40
20.0
 41
0.0
 71
     5
 72
     1
  1
\A1;100
  7
ED20
  0
POINT
  5
EBC
100
AcDbEntity
  8
DEFPOINTS
  6
BYBLOCK
 62
     0
100
AcDbPoint
 10
1168.235358
 20
155.0
 30
0.0
  0
POINT
  5
EBD
100
AcDbEntity
  8
DEFPOINTS
  6
BYBLOCK
 62
     0
100
AcDbPoint
 10
1268.235358
 20
155.0
 30
0.0
  0
POINT
  5
EBE
100
AcDbEntity
  8
DEFPOINTS
  6
BYBLOCK
 62
     0
100
AcDbPoint
 10
1268.235358
 20
185.451469
 30
0.0
  0
ENDBLK
  5
EBF
100
AcDbEntity
  8
0
100
AcDbBlockEnd
  0
ENDSEC
  0
SECTION
  2
ENTITIES
  0
DIMENSION
  5
A3E
100
AcDbEntity
  8
V0-VYPLNE
  6
CONTINUOUS
 62
    41
100
AcDbDimension
  2
*D2
 10
787.552254
 20
-161.327395
 30
0.0
 11
761.18717
 21
-161.327395
 31
0.0
 12
50.0
 22
0.0
 32
0.0
 70
   160
  3
ED20
100
AcDbAlignedDimension
 13
727.552254
 23
-125.0
 33
0.0
 14
787.552254
 24
-125.0
 34
0.0
100
AcDbRotatedDimension
1001
ACAD
1000
DSTYLE
1002
{
1070
    40
1040
1.0
1002
}
  0
LINE
  5
A3F
100
AcDbEntity
  8
V0-OBRYS
  6
CONTINUOUS
 62
    90
100
AcDbLine
 10
727.552254
 20
-125.0
 30
0.0
 11
787.552254
 21
-125.0
 31
0.0
  0
LINE
  5
A40
100
AcDbEntity
  8
V0-OBRYS
  6
CONTINUOUS
 62
    90
100
AcDbLine
 10
727.552254
 20
125.0
 30
0.0
 11
787.552254
 21
125.0
 31
0.0
  0
LINE
  5
A41
100
AcDbEntity
  8
V0-VYPLNE
  6
DASHDOT
 62
    63
100
AcDbLine
 10
722.552254
 20
0.0
 30
0.0
 11
989.151171
 21
0.0
 31
0.0
  0
DIMENSION
  5
A42
100
AcDbEntity
  8
V0-VYPLNE
  6
CONTINUOUS
 62
    41
100
AcDbDimension
  2
*D1
 10
696.039782
 20
-125.0
 30
0.0
 11
696.039782
 21
-1.802349
 31
0.0
 12
50.0
 22
0.0
 32
0.0
 70
   160
  1
%%c<>
  3
ED20
100
AcDbAlignedDimension
 13
727.552254
 23
125.0
 33
0.0
 14
727.552254
 24
-125.0
 34
0.0
 50
90.0
100
AcDbRotatedDimension
1001
ACAD
1000
DSTYLE
1002
{
1070
    40
1040
1.0
1002
}
  0
LINE
  5
A43
100
AcDbEntity
  8
V0-OBRYS
  6
CONTINUOUS
 62
    90
100
AcDbLine
 10
727.552254
 20
0.0
 30
0.0
 11
727.552254
 21
125.0
 31
0.0
  0
LINE
  5
A44
100
AcDbEntity
  8
V0-OBRYS
  6
CONTINUOUS
 62
    90
100
AcDbLine
 10
727.552254
 20
0.0
 30
0.0
 11
727.552254
 21
-125.0
 31
0.0
  0
POINT
  5
A45
100
AcDbEntity
  8
V0-VYPLNE
  6
CONTINUOUS
 62
     7
100
AcDbPoint
 10
788.79957
 20
0.0
 30
0.0
  0
LINE
  5
A46
100
AcDbEntity
  8
V0-OBRYS
  6
CONTINUOUS
 62
    90
100
AcDbLine
 10
787.552254
 20
0.0
 30
0.0
 11
787.552254
 21
125.0
 31
0.0
  0
LINE
  5
A47
100
AcDbEntity
  8
V0-OBRYS
  6
CONTINUOUS
 62
    90
100
AcDbLine
 10
802.552254
 20
125.0
 30
0.0
 11
802.552254
 21
0.0
 31
0.0
  0
LINE
  5
A48
100
AcDbEntity
  8
V0-OBRYS
  6
CONTINUOUS
 62
    90
100
AcDbLine
 10
802.552254
 20
-125.0
 30
0.0
 11
802.552254
 21
0.0
 31
0.0
  0
LINE
  5
A49
100
AcDbEntity
  8
V0-OBRYS
  6
CONTINUOUS
 62
    90
100
AcDbLine
 10
787.552254
 20
0.0
 30
0.0
 11
787.552254
 21
-125.0
 31
0.0
  0
ARC
  5
A4B
100
AcDbEntity
  8
V0-OBRYS
  6
CONTINUOUS
 62
    90
100
AcDbCircle
 10
792.552254
 20
-125.0
 30
0.0
 40
5.0
100
AcDbArc
 50
180.0
 51
270.0
  0
ARC
  5
A4C
100
AcDbEntity
  8
V0-OBRYS
  6
CONTINUOUS
 62
    90
100
AcDbCircle
 10
797.552254
 20
-125.0
 30
0.0
 40
5.0
100
AcDbArc
 50
270.0
 51
0.0
  0
LINE
  5
A4D
100
AcDbEntity
  8
V0-OBRYS
  6
CONTINUOUS
 62
    90
100
AcDbLine
 10
792.552254
 20
-130.0
 30
0.0
 11
797.552254
 21
-130.0
 31
0.0
  0
ARC
  5
A4F
100
AcDbEntity
  8
V0-OBRYS
  6
CONTINUOUS
 62
    90
100
AcDbCircle
 10
792.552254
 20
125.0
 30
0.0
 40
5.0
100
AcDbArc
 50
90.0
 51
180.0
  0
ARC
  5
A50
100
AcDbEntity
  8
V0-OBRYS
  6
CONTINUOUS
 62
    90
100
AcDbCircle
 10
797.552254
 20
125.0
 30
0.0
 40
5.0
100
AcDbArc
 50
0.0
 51
90.0
  0
LINE
  5
A51
100
AcDbEntity
  8
V0-OBRYS
  6
CONTINUOUS
 62
    90
100
AcDbLine
 10
792.552254
 20
130.0
 30
0.0
 11
797.552254
 21
130.0
 31
0.0
  0
LINE
  5
B85
100
AcDbEntity
  8
V0-OBRYS
  6
CONTINUOUS
 62
    90
100
AcDbLine
 10
902.552254
 20
-125.0
 30
0.0
 11
802.552254
 21
-125.0
 31
0.0
  0
LINE
  5
B86
100
AcDbEntity
  8
V0-OBRYS
  6
CONTINUOUS
 62
    90
100
AcDbLine
 10
902.552254
 20
125.0
 30
0.0
 11
802.552254
 21
125.0
 31
0.0
  0
LINE
  5
B88
100
AcDbEntity
  8
V0-OBRYS
  6
CONTINUOUS
 62
    90
100
AcDbLine
 10
977.552254
 20
0.0
 30
0.0
 11
977.552254
 21
125.0
 31
0.0
  0
LINE
  5
B89
100
AcDbEntity
  8
V0-OBRYS
  6
CONTINUOUS
 62
    90
100
AcDbLine
 10
917.552254
 20
0.0
 30
0.0
 11
917.552254
 21
125.0
 31
0.0
  0
LINE
  5
B8A
100
AcDbEntity
  8
V0-OBRYS
  6
CONTINUOUS
 62
    90
100
AcDbLine
 10
902.552254
 20
125.0
 30
0.0
 11
902.552254
 21
0.0
 31
0.0
  0
POINT
  5
B8B
100
AcDbEntity
  8
V0-VYPLNE
  6
CONTINUOUS
 62
     7
100
AcDbPoint
 10
917.552254
 20
0.0
 30
0.0
  0
LINE
  5
B8C
100
AcDbEntity
  8
V0-OBRYS
  6
CONTINUOUS
 62
    90
100
AcDbLine
 10
977.552254
 20
-125.0
 30
0.0
 11
917.552254
 21
-125.0
 31
0.0
  0
LINE
  5
B8D
100
AcDbEntity
  8
V0-OBRYS
  6
CONTINUOUS
 62
    90
100
AcDbLine
 10
977.552254
 20
0.0
 30
0.0
 11
977.552254
 21
-125.0
 31
0.0
  0
LINE
  5
B8E
100
AcDbEntity
  8
V0-OBRYS
  6
CONTINUOUS
 62
    90
100
AcDbLine
 10
917.552254
 20
0.0
 30
0.0
 11
917.552254
 21
-125.0
 31
0.0
  0
LINE
  5
B8F
100
AcDbEntity
  8
V0-OBRYS
  6
CONTINUOUS
 62
    90
100
AcDbLine
 10
902.552254
 20
-125.0
 30
0.0
 11
902.552254
 21
0.0
 31
0.0
  0
LINE
  5
B90
100
AcDbEntity
  8
V0-OBRYS
  6
CONTINUOUS
 62
    90
100
AcDbLine
 10
912.552254
 20
-130.0
 30
0.0
 11
907.552254
 21
-130.0
 31
0.0
  0
ARC
  5
B91
100
AcDbEntity
  8
V0-OBRYS
  6
CONTINUOUS
 62
    90
100
AcDbCircle
 10
912.552254
 20
-125.0
 30
0.0
 40
5.0
100
AcDbArc
 50
270.0
 51
0.0
  0
ARC
  5
B92
100
AcDbEntity
  8
V0-OBRYS
  6
CONTINUOUS
 62
    90
100
AcDbCircle
 10
907.552254
 20
-125.0
 30
0.0
 40
5.0
100
AcDbArc
 50
180.0
 51
270.0
  0
LINE
  5
B93
100
AcDbEntity
  8
V0-OBRYS
  6
CONTINUOUS
 62
    90
100
AcDbLine
 10
977.552254
 20
125.0
 30
0.0
 11
917.552254
 21
125.0
 31
0.0
  0
LINE
  5
B94
100
AcDbEntity
  8
V0-OBRYS
  6
CONTINUOUS
 62
    90
100
AcDbLine
 10
912.552254
 20
130.0
 30
0.0
 11
907.552254
 21
130.0
 31
0.0
  0
ARC
  5
B95
100
AcDbEntity
  8
V0-OBRYS
  6
CONTINUOUS
 62
    90
100
AcDbCircle
 10
912.552254
 20
125.0
 30
0.0
 40
5.0
100
AcDbArc
 50
0.0
 51
90.0
  0
ARC
  5
B96
100
AcDbEntity
  8
V0-OBRYS
  6
CONTINUOUS
 62
    90
100
AcDbCircle
 10
907.552254
 20
125.0
 30
0.0
 40
5.0
100
AcDbArc
 50
90.0
 51
180.0
  0
DIMENSION
  5
BA3
100
AcDbEntity
  8
V0-VYPLNE
  6
CONTINUOUS
 62
    41
100
AcDbDimension
  2
*D3
 10
977.547962
 20
-198.459906
 30
0.0
 11
852.550108
 21
-198.459906
 31
0.0
 70
   160
  3
ED20
100
AcDbAlignedDimension
 13
727.552254
 23
-126.0
 33
0.0
 14
977.547962
 24
-126.0
 34
0.0
100
AcDbRotatedDimension
1001
ACAD
1000
DSTYLE
1002
{
1070
    40
1040
1.0
1002
}
  0
DIMENSION
  5
C16
100
AcDbEntity
  8
V0-VYPLNE
  6
CONTINUOUS
 62
    41
100
AcDbDimension
  2
*D4
 10
917.552254
 20
-161.327395
 30
0.0
 11
852.552254
 21
-161.327395
 31
0.0
 70
   160
  3
ED20
100
AcDbAlignedDimension
 13
787.552254
 23
-125.0
 33
0.0
 14
917.552254
 24
-125.0
 34
0.0
100
AcDbRotatedDimension
1001
ACAD
1000
DSTYLE
1002
{
1070
    40
1040
1.0
1002
}
  0
LINE
  5
C6C
100
AcDbEntity
  8
V0-OBRYS
  6
CONTINUOUS
 62
    90
100
AcDbLine
 10
902.552254
 20
-241.639399
 30
0.0
 11
902.552254
 21
-356.639399
 31
0.0
  0
LINE
  5
C6D
100
AcDbEntity
  8
V0-OBRYS
  6
CONTINUOUS
 62
    90
100
AcDbLine
 10
917.552254
 20
-356.639399
 30
0.0
 11
917.552254
 21
-241.639399
 31
0.0
  0
LINE
  5
C6F
100
AcDbEntity
  8
V0-OBRYS
  6
CONTINUOUS
 62
    90
100
AcDbLine
 10
802.552254
 20
-241.639399
 30
0.0
 11
802.552254
 21
-366.639399
 31
0.0
  0
LINE
  5
C70
100
AcDbEntity
  8
V0-OBRYS
  6
CONTINUOUS
 62
    90
100
AcDbLine
 10
787.552254
 20
-366.639399
 30
0.0
 11
787.552254
 21
-241.639399
 31
0.0
  0
LINE
  5
C71
100
AcDbEntity
  8
V0-OBRYS
  6
CONTINUOUS
 62
    90
100
AcDbLine
 10
727.552254
 20
-366.639399
 30
0.0
 11
727.552254
 21
-241.639399
 31
0.0
  0
LINE
  5
C72
100
AcDbEntity
  8
V0-OBRYS
  6
CONTINUOUS
 62
    90
100
AcDbLine
 10
902.552254
 20
-491.639399
 30
0.0
 11
802.552254
 21
-491.639399
 31
0.0
  0
LINE
  5
C73
100
AcDbEntity
  8
V0-VYPLNE
  6
DASHDOT
 62
    63
100
AcDbLine
 10
727.552254
 20
-366.639399
 30
0.0
 11
977.552254
 21
-366.639399
 31
0.0
  0
ARC
  5
C74
100
AcDbEntity
  8
V0-OBRYS
  6
CONTINUOUS
 62
    90
100
AcDbCircle
 10
797.552254
 20
-491.639399
 30
0.0
 40
5.0
100
AcDbArc
 50
270.0
 51
0.0
  0
ARC
  5
C75
100
AcDbEntity
  8
V0-OBRYS
  6
CONTINUOUS
 62
    90
100
AcDbCircle
 10
792.552254
 20
-491.639399
 30
0.0
 40
5.0
100
AcDbArc
 50
180.0
 51
270.0
  0
LINE
  5
C76
100
AcDbEntity
  8
V0-OBRYS
  6
CONTINUOUS
 62
    90
100
AcDbLine
 10
792.552254
 20
-496.639399
 30
0.0
 11
797.552254
 21
-496.639399
 31
0.0
  0
LINE
  5
C77
100
AcDbEntity
  8
V0-OBRYS
  6
CONTINUOUS
 62
    90
100
AcDbLine
 10
787.552254
 20
-366.639399
 30
0.0
 11
787.552254
 21
-491.639399
 31
0.0
  0
LINE
  5
C78
100
AcDbEntity
  8
V0-OBRYS
  6
CONTINUOUS
 62
    90
100
AcDbLine
 10
802.552254
 20
-491.639399
 30
0.0
 11
802.552254
 21
-366.639399
 31
0.0
  0
LINE
  5
C79
100
AcDbEntity
  8
V0-OBRYS
  6
CONTINUOUS
 62
    90
100
AcDbLine
 10
727.552254
 20
-366.639399
 30
0.0
 11
727.552254
 21
-491.639399
 31
0.0
  0
LINE
  5
C7A
100
AcDbEntity
  8
V0-OBRYS
  6
CONTINUOUS
 62
    90
100
AcDbLine
 10
727.552254
 20
-491.639399
 30
0.0
 11
787.552254
 21
-491.639399
 31
0.0
  0
POINT
  5
C7B
100
AcDbEntity
  8
V0-VYPLNE
  6
CONTINUOUS
 62
     7
100
AcDbPoint
 10
788.79957
 20
-366.639399
 30
0.0
  0
ARC
  5
C7C
100
AcDbEntity
  8
V0-OBRYS
  6
CONTINUOUS
 62
    90
100
AcDbCircle
 10
907.552254
 20
-491.639399
 30
0.0
 40
5.0
100
AcDbArc
 50
180.0
 51
270.0
  0
ARC
  5
C7D
100
AcDbEntity
  8
V0-OBRYS
  6
CONTINUOUS
 62
    90
100
AcDbCircle
 10
912.552254
 20
-491.639399
 30
0.0
 40
5.0
100
AcDbArc
 50
270.0
 51
0.0
  0
LINE
  5
C7E
100
AcDbEntity
  8
V0-OBRYS
  6
CONTINUOUS
 62
    90
100
AcDbLine
 10
912.552254
 20
-496.639399
 30
0.0
 11
907.552254
 21
-496.639399
 31
0.0
  0
LINE
  5
C7F
100
AcDbEntity
  8
V0-OBRYS
  6
CONTINUOUS
 62
    90
100
AcDbLine
 10
977.552254
 20
-491.639399
 30
0.0
 11
917.552254
 21
-491.639399
 31
0.0
  0
POINT
  5
C80
100
AcDbEntity
  8
V0-VYPLNE
  6
CONTINUOUS
 62
     7
100
AcDbPoint
 10
917.552254
 20
-366.639399
 30
0.0
  0
LINE
  5
C81
100
AcDbEntity
  8
V0-OBRYS
  6
CONTINUOUS
 62
    90
100
AcDbLine
 10
902.552254
 20
-491.639399
 30
0.0
 11
902.552254
 21
-376.639399
 31
0.0
  0
LINE
  5
C82
100
AcDbEntity
  8
V0-OBRYS
  6
CONTINUOUS
 62
    90
100
AcDbLine
 10
917.552254
 20
-376.639399
 30
0.0
 11
917.552254
 21
-491.639399
 31
0.0
  0
LINE
  5
C83
100
AcDbEntity
  8
V0-OBRYS
  6
CONTINUOUS
 62
    90
100
AcDbLine
 10
977.552254
 20
-241.639399
 30
0.0
 11
977.552254
 21
-491.639399
 31
0.0
  0
LINE
  5
C84
100
AcDbEntity
  8
V0-OBRYS
  6
CONTINUOUS
 62
    90
100
AcDbLine
 10
902.552254
 20
-241.639399
 30
0.0
 11
802.552254
 21
-241.639399
 31
0.0
  0
LINE
  5
C85
100
AcDbEntity
  8
V0-OBRYS
  6
CONTINUOUS
 62
    90
100
AcDbLine
 10
727.552254
 20
-241.639399
 30
0.0
 11
787.552254
 21
-241.639399
 31
0.0
  0
LINE
  5
C86
100
AcDbEntity
  8
V0-OBRYS
  6
CONTINUOUS
 62
    90
100
AcDbLine
 10
792.552254
 20
-236.639399
 30
0.0
 11
797.552254
 21
-236.639399
 31
0.0
  0
ARC
  5
C87
100
AcDbEntity
  8
V0-OBRYS
  6
CONTINUOUS
 62
    90
100
AcDbCircle
 10
792.552254
 20
-241.639399
 30
0.0
 40
5.0
100
AcDbArc
 50
90.0
 51
180.0
  0
ARC
  5
C88
100
AcDbEntity
  8
V0-OBRYS
  6
CONTINUOUS
 62
    90
100
AcDbCircle
 10
797.552254
 20
-241.639399
 30
0.0
 40
5.0
100
AcDbArc
 50
0.0
 51
90.0
  0
LINE
  5
C89
100
AcDbEntity
  8
V0-OBRYS
  6
CONTINUOUS
 62
    90
100
AcDbLine
 10
977.552254
 20
-241.639399
 30
0.0
 11
917.552254
 21
-241.639399
 31
0.0
  0
LINE
  5
C8A
100
AcDbEntity
  8
V0-OBRYS
  6
CONTINUOUS
 62
    90
100
AcDbLine
 10
912.552254
 20
-236.639399
 30
0.0
 11
907.552254
 21
-236.639399
 31
0.0
  0
ARC
  5
C8B
100
AcDbEntity
  8
V0-OBRYS
  6
CONTINUOUS
 62
    90
100
AcDbCircle
 10
907.552254
 20
-241.639399
 30
0.0
 40
5.0
100
AcDbArc
 50
90.0
 51
180.0
  0
ARC
  5
C8C
100
AcDbEntity
  8
V0-OBRYS
  6
CONTINUOUS
 62
    90
100
AcDbCircle
 10
912.552254
 20
-241.639399
 30
0.0
 40
5.0
100
AcDbArc
 50
0.0
 51
90.0
  0
DIMENSION
  5
D41
100
AcDbEntity
  8
V0-VYPLNE
  6
CONTINUOUS
 62
    41
100
AcDbDimension
  2
*D5
 10
987.552254
 20
201.623177
 30
0.0
 11
949.63804
 21
201.623177
 31
0.0
 70
   160
  3
ED20
100
AcDbAlignedDimension
 13
852.552254
 23
167.0
 33
0.0
 14
987.552254
 24
170.0
 34
0.0
100
AcDbRotatedDimension
1001
ACAD
1000
DSTYLE
1002
{
1070
    40
1040
1.0
1002
}
  0
LINE
  5
D42
100
AcDbEntity
  8
V0-OBRYS
  6
CONTINUOUS
 62
    90
100
AcDbLine
 10
884.773509
 20
-376.639399
 30
0.0
 11
934.612556
 21
-376.639399
 31
0.0
  0
LINE
  5
D43
100
AcDbEntity
  8
V0-OBRYS
  6
CONTINUOUS
 62
    90
100
AcDbLine
 10
905.036142
 20
-356.639399
 30
0.0
 11
934.612556
 21
-356.639399
 31
0.0
  0
LINE
  5
D44
100
AcDbEntity
  8
V0-OBRYS
  6
CONTINUOUS
 62
    90
100
AcDbLine
 10
983.936312
 20
167.33835
 30
0.0
 11
908.379874
 21
154.049002
 31
0.0
  0
LINE
  5
D45
100
AcDbEntity
  8
V0-OBRYS
  6
CONTINUOUS
 62
    90
100
AcDbLine
 10
982.552254
 20
170.0
 30
0.0
 11
907.552254
 21
157.0
 31
0.0
  0
LINE
  5
D46
100
AcDbEntity
  8
V0-VYPLNE
  6
DASHED
 62
    52
100
AcDbLine
 10
855.552254
 20
154.049002
 30
0.0
 11
855.865235
 21
-129.52964
 31
0.0
  0
LINE
  5
D47
100
AcDbEntity
  8
V0-VYPLNE
  6
DASHED
 62
    52
100
AcDbLine
 10
849.552254
 20
154.049002
 30
0.0
 11
849.865235
 21
-129.52964
 31
0.0
  0
LINE
  5
D48
100
AcDbEntity
  8
V0-VYPLNE
  6
DASHDOT
 62
    63
 48
2.0
100
AcDbLine
 10
852.552254
 20
168.0
 30
0.0
 11
852.865235
 21
-134.516903
 31
0.0
  0
ARC
  5
D49
100
AcDbEntity
  8
V0-VYPLNE
  6
DASHDOT
 62
    63
100
AcDbCircle
 10
852.552254
 20
-366.639399
 30
0.0
 40
40.0
100
AcDbArc
 50
260.720854
 51
98.569564
  0
LINE
  5
D4A
100
AcDbEntity
  8
V0-OBRYS
  6
CONTINUOUS
 62
    90
100
AcDbLine
 10
837.552254
 20
-360.426196
 30
0.0
 11
837.552254
 21
-316.639399
 31
0.0
  0
LINE
  5
D4B
100
AcDbEntity
  8
V0-OBRYS
  6
CONTINUOUS
 62
    90
100
AcDbLine
 10
907.552254
 20
-316.639399
 30
0.0
 11
907.552254
 21
-356.639399
 31
0.0
  0
ARC
  5
D4C
100
AcDbEntity
  8
V0-OBRYS
  6
CONTINUOUS
 62
    90
100
AcDbCircle
 10
852.552254
 20
-366.639399
 30
0.0
 40
43.0
100
AcDbArc
 50
13.447727
 51
90.0
  0
ARC
  5
D4D
100
AcDbEntity
  8
V0-OBRYS
  6
CONTINUOUS
 62
    90
100
AcDbCircle
 10
852.552254
 20
-366.639399
 30
0.0
 40
37.0
100
AcDbArc
 50
15.68035
 51
90.0
  0
LINE
  5
D4E
100
AcDbEntity
  8
V0-OBRYS
  6
CONTINUOUS
 62
    90
100
AcDbLine
 10
907.552254
 20
-416.639399
 30
0.0
 11
837.552254
 21
-416.639399
 31
0.0
  0
LINE
  5
D4F
100
AcDbEntity
  8
V0-OBRYS
  6
CONTINUOUS
 62
    90
100
AcDbLine
 10
837.552254
 20
-356.639399
 30
0.0
 11
900.430933
 21
-356.639399
 31
0.0
  0
ARC
  5
D50
100
AcDbEntity
  8
V0-OBRYS
  6
CONTINUOUS
 62
    90
100
AcDbCircle
 10
852.552254
 20
-366.639399
 30
0.0
 40
43.0
100
AcDbArc
 50
270.0
 51
346.552273
  0
ARC
  5
D51
100
AcDbEntity
  8
V0-OBRYS
  6
CONTINUOUS
 62
    90
100
AcDbCircle
 10
852.552254
 20
-366.639399
 30
0.0
 40
37.0
100
AcDbArc
 50
270.0
 51
344.31965
  0
LINE
  5
D52
100
AcDbEntity
  8
V0-OBRYS
  6
CONTINUOUS
 62
    90
100
AcDbLine
 10
837.552254
 20
-376.639399
 30
0.0
 11
880.430933
 21
-376.639399
 31
0.0
  0
LINE
  5
D53
100
AcDbEntity
  8
V0-OBRYS
  6
CONTINUOUS
 62
    90
100
AcDbLine
 10
837.552254
 20
-416.639399
 30
0.0
 11
837.552254
 21
-370.658981
 31
0.0
  0
ARC
  5
D54
100
AcDbEntity
  8
V0-OBRYS
  6
CONTINUOUS
 62
    90
100
AcDbCircle
 10
852.552254
 20
-406.639399
 30
0.0
 40
3.0
100
AcDbArc
 50
90.0
 51
270.0
  0
LINE
  5
D55
100
AcDbEntity
  8
V0-OBRYS
  6
CONTINUOUS
 62
    90
100
AcDbLine
 10
837.552254
 20
-365.639399
 30
0.0
 11
847.653274
 21
-365.639399
 31
0.0
  0
LINE
  5
D56
100
AcDbEntity
  8
V0-OBRYS
  6
CONTINUOUS
 62
    90
100
AcDbLine
 10
837.552254
 20
-367.639399
 30
0.0
 11
847.653274
 21
-367.639399
 31
0.0
  0
LINE
  5
D57
100
AcDbEntity
  8
V0-OBRYS
  6
CONTINUOUS
 62
    90
100
AcDbLine
 10
838.856343
 20
-379.611236
 30
0.0
 11
847.109577
 21
-379.611236
 31
0.0
  0
LINE
  5
D58
100
AcDbEntity
  8
V0-OBRYS
  6
CONTINUOUS
 62
    90
100
AcDbLine
 10
838.856343
 20
-353.667562
 30
0.0
 11
847.109577
 21
-353.667562
 31
0.0
  0
LINE
  5
D59
100
AcDbEntity
  8
V0-OBRYS
  6
CONTINUOUS
 62
    90
100
AcDbLine
 10
837.552254
 20
-365.639399
 30
0.0
 11
837.552254
 21
-356.639399
 31
0.0
  0
LINE
  5
D5A
100
AcDbEntity
  8
V0-OBRYS
  6
CONTINUOUS
 62
    90
100
AcDbLine
 10
837.552254
 20
-376.639399
 30
0.0
 11
837.552254
 21
-367.639399
 31
0.0
  0
LINE
  5
D5B
100
AcDbEntity
  8
V0-OBRYS
  6
CONTINUOUS
 62
    90
100
AcDbLine
 10
838.856343
 20
-376.516174
 30
0.0
 11
838.856343
 21
-379.611236
 31
0.0
  0
LINE
  5
D5C
100
AcDbEntity
  8
V0-OBRYS
  6
CONTINUOUS
 62
    90
100
AcDbLine
 10
840.746918
 20
-381.244376
 30
0.0
 11
840.746918
 21
-376.639399
 31
0.0
  0
LINE
  5
D5D
100
AcDbEntity
  8
V0-OBRYS
  6
CONTINUOUS
 62
    90
100
AcDbLine
 10
844.787925
 20
-381.244376
 30
0.0
 11
844.787925
 21
-376.639399
 31
0.0
  0
LINE
  5
D5E
100
AcDbEntity
  8
V0-OBRYS
  6
CONTINUOUS
 62
    90
100
AcDbLine
 10
840.746918
 20
-381.244376
 30
0.0
 11
844.787925
 21
-381.244376
 31
0.0
  0
LINE
  5
D5F
100
AcDbEntity
  8
V0-OBRYS
  6
CONTINUOUS
 62
    90
100
AcDbLine
 10
840.746918
 20
-367.639399
 30
0.0
 11
840.746918
 21
-365.639399
 31
0.0
  0
LINE
  5
D60
100
AcDbEntity
  8
V0-OBRYS
  6
CONTINUOUS
 62
    90
100
AcDbLine
 10
844.787925
 20
-367.639399
 30
0.0
 11
844.787925
 21
-365.639399
 31
0.0
  0
LINE
  5
D61
100
AcDbEntity
  8
V0-OBRYS
  6
CONTINUOUS
 62
    90
100
AcDbLine
 10
838.856343
 20
-356.762625
 30
0.0
 11
838.856343
 21
-353.667562
 31
0.0
  0
LINE
  5
D62
100
AcDbEntity
  8
V0-OBRYS
  6
CONTINUOUS
 62
    90
100
AcDbLine
 10
844.787925
 20
-353.755204
 30
0.0
 11
844.787925
 21
-356.678572
 31
0.0
  0
LINE
  5
D63
100
AcDbEntity
  8
V0-OBRYS
  6
CONTINUOUS
 62
    90
100
AcDbLine
 10
840.746918
 20
-353.667985
 30
0.0
 11
840.746918
 21
-356.677305
 31
0.0
  0
LINE
  5
D64
100
AcDbEntity
  8
V0-OBRYS
  6
CONTINUOUS
 62
    90
100
AcDbLine
 10
865.431184
 20
-356.652377
 30
0.0
 11
865.431184
 21
-376.539765
 31
0.0
  0
CIRCLE
  5
D65
100
AcDbEntity
  8
V0-OBRYS
  6
CONTINUOUS
 62
    90
100
AcDbCircle
 10
852.552254
 20
-366.639399
 30
0.0
 40
5.0
  0
LINE
  5
D66
100
AcDbEntity
  8
V0-OBRYS
  6
CONTINUOUS
 62
    90
100
AcDbLine
 10
847.109577
 20
-379.611236
 30
0.0
 11
847.109577
 21
-376.513641
 31
0.0
  0
LINE
  5
D67
100
AcDbEntity
  8
V0-OBRYS
  6
CONTINUOUS
 62
    90
100
AcDbLine
 10
847.109577
 20
-353.667562
 30
0.0
 11
847.109577
 21
-356.765157
 31
0.0
  0
LINE
  5
D68
100
AcDbEntity
  8
V0-OBRYS
100
AcDbLine
 10
907.552254
 20
-376.639399
 30
0.0
 11
907.552254
 21
-407.497264
 31
0.0
  0
LINE
  5
D69
100
AcDbEntity
  8
V0-OBRYS
100
AcDbLine
 10
907.552254
 20
-376.639399
 30
0.0
 11
907.552254
 21
-407.497264
 31
0.0
  0
LINE
  5
D6A
100
AcDbEntity
  8
V0-OBRYS
  6
CONTINUOUS
 62
    90
100
AcDbLine
 10
907.552254
 20
-376.639399
 30
0.0
 11
907.552254
 21
-416.639399
 31
0.0
  0
CIRCLE
  5
D6B
100
AcDbEntity
  8
V0-OBRYS
  6
CONTINUOUS
 62
    90
100
AcDbCircle
 10
892.552254
 20
-366.639399
 30
0.0
 40
6.0
  0
CIRCLE
  5
D6C
100
AcDbEntity
  8
V0-OBRYS
  6
CONTINUOUS
 62
    90
100
AcDbCircle
 10
892.552254
 20
-366.639399
 30
0.0
 40
3.0
  0
LINE
  5
D6D
100
AcDbEntity
  8
V0-OBRYS
  6
CONTINUOUS
 62
    90
100
AcDbLine
 10
877.349458
 20
-379.720875
 30
0.0
 11
887.392627
 21
-369.677706
 31
0.0
  0
LINE
  5
D6E
100
AcDbEntity
  8
V0-OBRYS
  6
CONTINUOUS
 62
    90
100
AcDbLine
 10
879.470778
 20
-381.842195
 30
0.0
 11
889.513947
 21
-371.799026
 31
0.0
  0
LINE
  5
D6F
100
AcDbEntity
  8
V0-OBRYS
  6
CONTINUOUS
 62
    90
100
AcDbLine
 10
877.349458
 20
-379.720875
 30
0.0
 11
879.470778
 21
-381.842195
 31
0.0
  0
LINE
  5
D70
100
AcDbEntity
  8
V0-OBRYS
  6
CONTINUOUS
 62
    90
100
AcDbLine
 10
907.755049
 20
-353.557924
 30
0.0
 11
897.71188
 21
-363.601093
 31
0.0
  0
LINE
  5
D71
100
AcDbEntity
  8
V0-OBRYS
  6
CONTINUOUS
 62
    90
100
AcDbLine
 10
905.633729
 20
-351.436604
 30
0.0
 11
895.59056
 21
-361.479772
 31
0.0
  0
LINE
  5
D72
100
AcDbEntity
  8
V0-OBRYS
  6
CONTINUOUS
 62
    90
100
AcDbLine
 10
905.633729
 20
-351.436604
 30
0.0
 11
907.755049
 21
-353.557924
 31
0.0
  0
LINE
  5
D73
100
AcDbEntity
  8
V0-OBRYS
  6
CONTINUOUS
 62
    90
100
AcDbLine
 10
837.552254
 20
-316.639399
 30
0.0
 11
907.552254
 21
-316.639399
 31
0.0
  0
ARC
  5
D74
100
AcDbEntity
  8
V0-OBRYS
  6
CONTINUOUS
 62
    90
100
AcDbCircle
 10
852.552254
 20
-326.639399
 30
0.0
 40
3.0
100
AcDbArc
 50
90.0
 51
270.0
  0
LINE
  5
D76
100
AcDbEntity
  8
V0-OBRYS
  6
CONTINUOUS
 62
    90
100
AcDbLine
 10
855.865235
 20
-129.54388
 30
0.0
 11
855.865235
 21
-131.753824
 31
0.0
  0
LINE
  5
D77
100
AcDbEntity
  8
V0-OBRYS
  6
CONTINUOUS
 62
    90
100
AcDbLine
 10
849.865235
 20
-129.54388
 30
0.0
 11
849.865235
 21
-131.753824
 31
0.0
  0
LINE
  5
D78
100
AcDbEntity
  8
V0-OBRYS
  6
CONTINUOUS
 62
    90
100
AcDbLine
 10
849.865235
 20
-131.753824
 30
0.0
 11
855.865235
 21
-131.753824
 31
0.0
  0
LINE
  5
D79
100
AcDbEntity
  8
V0-VYPLNE
  6
DASHDOT
 62
    63
100
AcDbLine
 10
887.552254
 20
170.0
 30
0.0
 11
887.552254
 21
151.582585
 31
0.0
  0
ARC
  5
D7A
100
AcDbEntity
  8
V0-OBRYS
  6
CONTINUOUS
 62
    90
100
AcDbCircle
 10
827.552254
 20
159.524501
 30
0.0
 40
5.475499
100
AcDbArc
 50
90.0
 51
270.0
  0
LINE
  5
D7B
100
AcDbEntity
  8
V0-OBRYS
  6
CONTINUOUS
 62
    90
100
AcDbLine
 10
908.379874
 20
154.049002
 30
0.0
 11
852.024427
 21
154.049002
 31
0.0
  0
LINE
  5
D7C
100
AcDbEntity
  8
V0-OBRYS
  6
CONTINUOUS
100
AcDbLine
 10
844.296765
 20
125.0
 30
0.0
 11
852.552254
 21
125.0
 31
0.0
  0
LINE
  5
D7D
100
AcDbEntity
  8
V0-OBRYS
  6
CONTINUOUS
 62
    90
100
AcDbLine
 10
822.552254
 20
154.049002
 30
0.0
 11
853.08008
 21
154.049002
 31
0.0
  0
LINE
  5
D7E
100
AcDbEntity
  8
V0-OBRYS
  6
CONTINUOUS
 62
    90
100
AcDbLine
 10
822.552254
 20
154.049002
 30
0.0
 11
822.552254
 21
124.860781
 31
0.0
  0
LINE
  5
D7F
100
AcDbEntity
  8
V0-OBRYS
  6
CONTINUOUS
 62
    90
100
AcDbLine
 10
902.552254
 20
154.049002
 30
0.0
 11
902.552254
 21
124.860781
 31
0.0
  0
LINE
  5
D80
100
AcDbEntity
  8
V0-OBRYS
  6
CONTINUOUS
 62
    90
100
AcDbLine
 10
907.646488
 20
157.049002
 30
0.0
 11
831.928779
 21
157.049002
 31
0.0
  0
LINE
  5
D81
100
AcDbEntity
  8
V0-OBRYS
  6
CONTINUOUS
 62
    90
100
AcDbLine
 10
865.552254
 20
162.0
 30
0.0
 11
831.928779
 21
162.0
 31
0.0
  0
LINE
  5
D82
100
AcDbEntity
  8
V0-OBRYS
  6
CONTINUOUS
 62
    90
100
AcDbLine
 10
865.552254
 20
165.0
 30
0.0
 11
827.552254
 21
165.0
 31
0.0
  0
LINE
  5
D84
100
AcDbEntity
  8
V0-OBRYS
  6
CONTINUOUS
 62
    90
100
AcDbLine
 10
849.552254
 20
167.0
 30
0.0
 11
852.552254
 21
167.0
 31
0.0
  0
LINE
  5
D85
100
AcDbEntity
  8
V0-OBRYS
  6
CONTINUOUS
 62
    90
100
AcDbLine
 10
849.552254
 20
165.0
 30
0.0
 11
849.552254
 21
167.0
 31
0.0
  0
LINE
  5
D86
100
AcDbEntity
  8
V0-OBRYS
  6
CONTINUOUS
 62
    90
100
AcDbLine
 10
849.552254
 20
157.0
 30
0.0
 11
849.552254
 21
162.072606
 31
0.0
  0
LINE
  5
D87
100
AcDbEntity
  8
V0-OBRYS
  6
CONTINUOUS
 62
    90
100
AcDbLine
 10
855.552254
 20
157.0
 30
0.0
 11
855.552254
 21
162.072606
 31
0.0
  0
LINE
  5
D88
100
AcDbEntity
  8
V0-OBRYS
  6
CONTINUOUS
 62
    90
100
AcDbLine
 10
855.552254
 20
165.0
 30
0.0
 11
855.552254
 21
167.0
 31
0.0
  0
LINE
  5
D89
100
AcDbEntity
  8
V0-OBRYS
  6
CONTINUOUS
 62
    90
100
AcDbLine
 10
855.552254
 20
167.0
 30
0.0
 11
852.552254
 21
167.0
 31
0.0
  0
LINE
  5
D8A
100
AcDbEntity
  8
V0-OBRYS
  6
CONTINUOUS
 62
    90
100
AcDbLine
 10
865.552254
 20
165.0
 30
0.0
 11
865.552254
 21
162.0
 31
0.0
  0
LINE
  5
D8B
100
AcDbEntity
  8
V0-OBRYS
  6
CONTINUOUS
 62
    90
100
AcDbLine
 10
901.043319
 20
164.590211
 30
0.0
 11
891.587815
 21
157.049002
 31
0.0
  0
LINE
  5
D8C
100
AcDbEntity
  8
V0-OBRYS
  6
CONTINUOUS
 62
    90
100
AcDbLine
 10
889.912598
 20
161.023604
 30
0.0
 11
899.573223
 21
167.527417
 31
0.0
  0
LINE
  5
D8D
100
AcDbEntity
  8
V0-OBRYS
  6
CONTINUOUS
 62
    90
100
AcDbLine
 10
874.061188
 20
164.590211
 30
0.0
 11
883.516692
 21
157.049002
 31
0.0
  0
LINE
  5
D8E
100
AcDbEntity
  8
V0-OBRYS
  6
CONTINUOUS
 62
    90
100
AcDbLine
 10
885.191909
 20
161.023604
 30
0.0
 11
875.531284
 21
167.527417
 31
0.0
  0
LINE
  5
D8F
100
AcDbEntity
  8
V0-OBRYS
  6
CONTINUOUS
 62
    90
100
AcDbLine
 10
875.531284
 20
167.527417
 30
0.0
 11
874.061188
 21
164.590211
 31
0.0
  0
LINE
  5
D90
100
AcDbEntity
  8
V0-OBRYS
  6
CONTINUOUS
 62
    90
100
AcDbLine
 10
887.502059
 20
161.023604
 30
0.0
 11
885.191909
 21
161.023604
 31
0.0
  0
LINE
  5
D91
100
AcDbEntity
  8
V0-OBRYS
  6
CONTINUOUS
 62
    90
100
AcDbLine
 10
885.191909
 20
161.023604
 30
0.0
 11
883.511801
 21
157.037396
 31
0.0
  0
LINE
  5
D92
100
AcDbEntity
  8
V0-OBRYS
  6
CONTINUOUS
 62
    90
100
AcDbLine
 10
887.602448
 20
161.023604
 30
0.0
 11
889.912598
 21
161.023604
 31
0.0
  0
LINE
  5
D93
100
AcDbEntity
  8
V0-OBRYS
  6
CONTINUOUS
 62
    90
100
AcDbLine
 10
889.912598
 20
161.023604
 30
0.0
 11
891.592706
 21
157.037396
 31
0.0
  0
LINE
  5
D94
100
AcDbEntity
  8
V0-OBRYS
  6
CONTINUOUS
 62
    90
100
AcDbLine
 10
899.573223
 20
167.527417
 30
0.0
 11
901.043319
 21
164.590211
 31
0.0
  0
LINE
  5
D95
100
AcDbEntity
  8
V0-VYPLNE
  6
DASHDOT
 62
    63
100
AcDbLine
 10
1218.235358
 20
155.0
 30
0.0
 11
1218.235358
 21
-120.233974
 31
0.0
  0
LINE
  5
D96
100
AcDbEntity
  8
V0-OBRYS
  6
CONTINUOUS
 62
    90
100
AcDbLine
 10
1215.235358
 20
124.78248
 30
0.0
 11
1215.548339
 21
-131.753824
 31
0.0
  0
LINE
  5
D97
100
AcDbEntity
  8
V0-OBRYS
  6
CONTINUOUS
 62
    90
100
AcDbLine
 10
1221.235358
 20
124.983448
 30
0.0
 11
1221.548339
 21
-131.753824
 31
0.0
  0
LINE
  5
D98
100
AcDbEntity
  8
V0-OBRYS
  6
CONTINUOUS
 62
    90
100
AcDbLine
 10
934.612556
 20
-356.639399
 30
0.0
 11
939.612556
 21
-361.639399
 31
0.0
  0
LINE
  5
D99
100
AcDbEntity
  8
V0-OBRYS
  6
CONTINUOUS
 62
    90
100
AcDbLine
 10
939.612556
 20
-371.639399
 30
0.0
 11
934.612556
 21
-376.639399
 31
0.0
  0
LINE
  5
D9A
100
AcDbEntity
  8
V0-OBRYS
  6
CONTINUOUS
 62
    90
100
AcDbLine
 10
939.612556
 20
-371.639399
 30
0.0
 11
939.612556
 21
-361.639399
 31
0.0
  0
LINE
  5
D9C
100
AcDbEntity
  8
V0-OBRYS
  6
CONTINUOUS
 62
    90
100
AcDbLine
 10
1215.548339
 20
-131.753824
 30
0.0
 11
1221.548339
 21
-131.753824
 31
0.0
  0
DIMENSION
  5
D9D
100
AcDbEntity
  8
V0-VYPLNE
  6
CONTINUOUS
 62
    41
100
AcDbDimension
  2
*D6
 10
1053.883946
 20
125.0
 30
0.0
 11
1042.383946
 21
147.5
 31
0.0
 70
    32
  3
ED20
100
AcDbAlignedDimension
 13
987.552254
 23
170.0
 33
0.0
 14
932.552254
 24
125.0
 34
0.0
 50
90.0
100
AcDbRotatedDimension
1001
ACAD
1000
DSTYLE
1002
{
1070
    40
1040
1.0
1002
}
  0
LINE
  5
D9E
100
AcDbEntity
  8
V0-OBRYS
  6
CONTINUOUS
 62
    90
100
AcDbLine
 10
987.552254
 20
167.0
 30
0.0
 11
982.552254
 21
167.0
 31
0.0
  0
LINE
  5
D9F
100
AcDbEntity
  8
V0-OBRYS
  6
CONTINUOUS
 62
    90
100
AcDbLine
 10
987.552254
 20
170.0
 30
0.0
 11
982.552254
 21
170.0
 31
0.0
  0
LINE
  5
DA0
100
AcDbEntity
  8
V0-OBRYS
  6
CONTINUOUS
100
AcDbLine
 10
1225.828473
 20
121.666381
 30
0.0
 11
1211.274232
 21
121.666381
 31
0.0
  0
LINE
  5
DA1
100
AcDbEntity
  8
V0-OBRYS
  6
CONTINUOUS
 62
    90
100
AcDbLine
 10
1207.938899
 20
167.379089
 30
0.0
 11
1217.272425
 21
167.379089
 31
0.0
  0
LINE
  5
DA2
100
AcDbEntity
  8
V0-OBRYS
  6
CONTINUOUS
 62
    90
100
AcDbLine
 10
1217.272425
 20
156.050352
 30
0.0
 11
1207.870063
 21
156.050352
 31
0.0
  0
LINE
  5
DA3
100
AcDbEntity
  8
V0-OBRYS
  6
CONTINUOUS
 62
    90
100
AcDbLine
 10
1168.235358
 20
155.0
 30
0.0
 11
1268.235358
 21
155.0
 31
0.0
  0
DIMENSION
  5
DA4
100
AcDbEntity
  8
V0-VYPLNE
  6
CONTINUOUS
 62
    41
100
AcDbDimension
  2
*D7
 10
1268.235358
 20
185.451469
 30
0.0
 11
1218.741639
 21
185.451469
 31
0.0
 70
   160
  3
ED20
100
AcDbAlignedDimension
 13
1168.235358
 23
155.0
 33
0.0
 14
1268.235358
 24
155.0
 34
0.0
100
AcDbRotatedDimension
1001
ACAD
1000
DSTYLE
1002
{
1070
    40
1040
1.0
1002
}
  0
LINE
  5
DA5
100
AcDbEntity
  8
V0-OBRYS
  6
CONTINUOUS
 62
    90
100
AcDbLine
 10
1207.938899
 20
158.051484
 30
0.0
 11
1207.938899
 21
155.0
 31
0.0
  0
LINE
  5
DA6
100
AcDbEntity
  8
V0-OBRYS
  6
CONTINUOUS
 62
    90
100
AcDbLine
 10
1207.938899
 20
155.0
 30
0.0
 11
1207.938899
 21
167.379089
 31
0.0
  0
LINE
  5
DA7
100
AcDbEntity
  8
V0-OBRYS
  6
CONTINUOUS
 62
    90
100
AcDbLine
 10
1168.235358
 20
155.0
 30
0.0
 11
1168.235358
 21
124.553484
 31
0.0
  0
LINE
  5
DA8
100
AcDbEntity
  8
V0-OBRYS
  6
CONTINUOUS
 62
    90
100
AcDbLine
 10
1204.898649
 20
159.245016
 30
0.0
 11
1207.907969
 21
159.245016
 31
0.0
  0
LINE
  5
DA9
100
AcDbEntity
  8
V0-OBRYS
  6
CONTINUOUS
 62
    90
100
AcDbLine
 10
1207.938899
 20
157.354442
 30
0.0
 11
1204.898226
 21
157.354442
 31
0.0
  0
LINE
  5
DAA
100
AcDbEntity
  8
V0-OBRYS
  6
CONTINUOUS
 62
    90
100
AcDbLine
 10
1204.898226
 20
165.607676
 30
0.0
 11
1207.995821
 21
165.607676
 31
0.0
  0
LINE
  5
DAB
100
AcDbEntity
  8
V0-OBRYS
  6
CONTINUOUS
 62
    90
100
AcDbLine
 10
1204.985868
 20
163.286024
 30
0.0
 11
1207.909236
 21
163.286024
 31
0.0
  0
LINE
  5
DAC
100
AcDbEntity
  8
V0-OBRYS
  6
CONTINUOUS
 62
    90
100
AcDbLine
 10
1204.898226
 20
157.354442
 30
0.0
 11
1204.898226
 21
165.607676
 31
0.0
  0
LINE
  5
DAD
100
AcDbEntity
  8
V0-OBRYS
  6
CONTINUOUS
 62
    90
100
AcDbLine
 10
1227.975925
 20
158.051484
 30
0.0
 11
1227.975925
 21
155.0
 31
0.0
  0
LINE
  5
DAE
100
AcDbEntity
  8
V0-OBRYS
  6
CONTINUOUS
 62
    90
100
AcDbLine
 10
1227.975925
 20
155.0
 30
0.0
 11
1227.975925
 21
167.379089
 31
0.0
  0
LINE
  5
DAF
100
AcDbEntity
  8
V0-OBRYS
  6
CONTINUOUS
 62
    90
100
AcDbLine
 10
1217.272425
 20
156.050352
 30
0.0
 11
1217.272425
 21
167.379089
 31
0.0
  0
LINE
  5
DB0
100
AcDbEntity
  8
V0-OBRYS
  6
CONTINUOUS
 62
    90
100
AcDbLine
 10
1219.272425
 20
156.050352
 30
0.0
 11
1219.272425
 21
167.379089
 31
0.0
  0
LINE
  5
DB1
100
AcDbEntity
  8
V0-VYPLNE
  6
DASHED
 62
    52
100
AcDbLine
 10
1215.235358
 20
155.0
 30
0.0
 11
1215.235358
 21
125.586349
 31
0.0
  0
LINE
  5
DB2
100
AcDbEntity
  8
V0-VYPLNE
  6
DASHED
 62
    52
100
AcDbLine
 10
1221.235358
 20
155.0
 30
0.0
 11
1221.235358
 21
125.988284
 31
0.0
  0
LINE
  5
DB3
100
AcDbEntity
  8
V0-OBRYS
  6
CONTINUOUS
 62
    90
100
AcDbLine
 10
1227.870063
 20
156.050352
 30
0.0
 11
1219.272425
 21
156.050352
 31
0.0
  0
LINE
  5
DB4
100
AcDbEntity
  8
V0-OBRYS
  6
CONTINUOUS
 62
    90
100
AcDbLine
 10
1268.235358
 20
155.0
 30
0.0
 11
1268.235358
 21
124.553484
 31
0.0
  0
LINE
  5
DB5
100
AcDbEntity
  8
V0-OBRYS
  6
CONTINUOUS
 62
    90
100
AcDbLine
 10
1219.272425
 20
167.379089
 30
0.0
 11
1227.975925
 21
167.379089
 31
0.0
  0
LINE
  5
DB6
100
AcDbEntity
  8
V0-OBRYS
  6
CONTINUOUS
 62
    90
100
AcDbLine
 10
1219.272425
 20
159.295263
 30
0.0
 11
1217.272425
 21
159.295263
 31
0.0
  0
LINE
  5
DB7
100
AcDbEntity
  8
V0-OBRYS
  6
CONTINUOUS
 62
    90
100
AcDbLine
 10
1219.272425
 20
163.336271
 30
0.0
 11
1217.272425
 21
163.336271
 31
0.0
  0
LINE
  5
DB8
100
AcDbEntity
  8
V0-OBRYS
  6
CONTINUOUS
 62
    90
100
AcDbLine
 10
1227.975925
 20
157.354442
 30
0.0
 11
1230.8419
 21
157.354442
 31
0.0
  0
LINE
  5
DB9
100
AcDbEntity
  8
V0-OBRYS
  6
CONTINUOUS
 62
    90
100
AcDbLine
 10
1230.8419
 20
165.607676
 30
0.0
 11
1227.975925
 21
165.607676
 31
0.0
  0
LINE
  5
DBA
100
AcDbEntity
  8
V0-OBRYS
  6
CONTINUOUS
 62
    90
100
AcDbLine
 10
1232.47504
 20
159.245016
 30
0.0
 11
1227.975925
 21
159.245016
 31
0.0
  0
LINE
  5
DBB
100
AcDbEntity
  8
V0-OBRYS
  6
CONTINUOUS
 62
    90
100
AcDbLine
 10
1232.47504
 20
163.286024
 30
0.0
 11
1227.975925
 21
163.286024
 31
0.0
  0
LINE
  5
DBC
100
AcDbEntity
  8
V0-OBRYS
  6
CONTINUOUS
 62
    90
100
AcDbLine
 10
1232.47504
 20
159.245016
 30
0.0
 11
1232.47504
 21
163.286024
 31
0.0
  0
LINE
  5
DBD
100
AcDbEntity
  8
V0-OBRYS
  6
CONTINUOUS
 62
    90
100
AcDbLine
 10
1230.8419
 20
157.354442
 30
0.0
 11
1230.8419
 21
165.607676
 31
0.0
  0
LWPOLYLINE
  5
DBE
100
AcDbEntity
  8
V0-OBRYS
  6
CONTINUOUS
 62
    90
100
AcDbPolyline
 90
        4
 70
     1
 43
0.0
 10
844.466563
 20
125.0
 10
860.637944
 20
125.0
 10
860.637944
 20
129.54388
 10
844.466563
 20
129.54388
  0
MTEXT
  5
DC0
100
AcDbEntity
  8
V0-NAZVY
100
AcDbMText
 10
1200.161926
 20
-308.493419
 30
0.0
 40
37.5
 41
308.4608
 71
     5
 72
     5
  1
MSK-250
  7
ED10
  0
MTEXT
  5
DC1
100
AcDbEntity
  8
V0-ZBYTEK
 62
    51
100
AcDbMText
 10
1209.786164
 20
-363.461692
 30
0.0
 40
21.0
 41
594.8886
 71
     5
 72
     5
  1
KLAPKA SKRTICI
  7
ED10
  0
MTEXT
  5
DC2
100
AcDbEntity
  8
V0-ZBYTEK
100
AcDbMText
 10
1207.395295
 20
-408.918262
 30
0.0
 40
15.0
 41
235.64325
 71
     5
 72
     5
  1
S RUCNIM OVLADANIM KOVOVYM
  7
ED10
  0
LINE
  5
E09
100
AcDbEntity
  8
V0-OBRYS
  6
CONTINUOUS
 62
    90
100
AcDbLine
 10
844.466563
 20
-129.54388
 30
0.0
 11
860.637944
 21
-129.54388
 31
0.0
  0
LINE
  5
E0A
100
AcDbEntity
  8
V0-OBRYS
  6
CONTINUOUS
 62
    90
100
AcDbLine
 10
860.637944
 20
-129.54388
 30
0.0
 11
860.637944
 21
-125.0
 31
0.0
  0
LINE
  5
E0B
100
AcDbEntity
  8
V0-OBRYS
  6
CONTINUOUS
 62
    90
100
AcDbLine
 10
860.637944
 20
-125.0
 30
0.0
 11
844.466563
 21
-125.0
 31
0.0
  0
LINE
  5
E0C
100
AcDbEntity
  8
V0-OBRYS
  6
CONTINUOUS
 62
    90
100
AcDbLine
 10
844.466563
 20
-125.0
 30
0.0
 11
844.466563
 21
-129.54388
 31
0.0
  0
LINE
  5
E0E
100
AcDbEntity
  8
V0-OBRYS
  6
CONTINUOUS
 62
    90
100
AcDbLine
 10
1225.859369
 20
-125.179044
 30
0.0
 11
1225.859369
 21
-120.233902
 31
0.0
  0
LINE
  5
E0F
100
AcDbEntity
  8
V0-OBRYS
  6
CONTINUOUS
 62
    90
100
AcDbLine
 10
1225.859369
 20
-120.233902
 30
0.0
 11
1210.24832
 21
-120.233902
 31
0.0
  0
LINE
  5
E10
100
AcDbEntity
  8
V0-OBRYS
  6
CONTINUOUS
 62
    90
100
AcDbLine
 10
1210.24832
 20
-120.233902
 30
0.0
 11
1210.24832
 21
-125.179044
 31
0.0
  0
LINE
  5
E14
100
AcDbEntity
  8
V0-OBRYS
  6
CONTINUOUS
 62
    90
100
AcDbLine
 10
1210.745828
 20
121.666381
 30
0.0
 11
1226.356877
 21
121.666381
 31
0.0
  0
LINE
  5
E15
100
AcDbEntity
  8
V0-OBRYS
  6
CONTINUOUS
 62
    90
100
AcDbLine
 10
1226.356877
 20
121.666381
 30
0.0
 11
1226.356877
 21
126.611523
 31
0.0
  0
LINE
  5
E17
100
AcDbEntity
  8
V0-OBRYS
  6
CONTINUOUS
 62
    90
100
AcDbLine
 10
1210.745828
 20
126.611523
 30
0.0
 11
1210.745828
 21
121.666381
 31
0.0
  0
LINE
  5
E19
100
AcDbEntity
  8
V0-VYPLNE
  6
DASHDOT
 62
    63
100
AcDbLine
 10
1086.235358
 20
0.0
 30
0.0
 11
1350.235358
 21
0.0
 31
0.0
  0
LINE
  5
E1B
100
AcDbEntity
  8
V0-OBRYS
  6
DASHED
 62
    52
100
AcDbLine
 10
787.303384
 20
-480.344294
 30
0.0
 11
917.801123
 21
-252.934505
 31
0.0
  0
LWPOLYLINE
  5
E1C
100
AcDbEntity
  8
V0-OBRYS
  6
CONTINUOUS
 62
    90
100
AcDbPolyline
 90
        6
 70
     1
 43
0.0
 10
823.175728
 20
156.997713
 10
827.552254
 20
154.470925
 10
831.928779
 20
156.997713
 10
831.928779
 20
162.051289
 10
827.552254
 20
164.578077
 10
823.175728
 20
162.051289
  0
CIRCLE
  5
E1D
100
AcDbEntity
  8
V0-OBRYS
  6
CONTINUOUS
 62
    90
100
AcDbCircle
 10
827.552254
 20
159.524501
 30
0.0
 40
4.288961
  0
CIRCLE
  5
E1E
100
AcDbEntity
  8
V0-OBRYS
  6
CONTINUOUS
 62
    90
100
AcDbCircle
 10
827.552254
 20
159.524501
 30
0.0
 40
2.099877
  0
CIRCLE
  5
EEC
100
AcDbEntity
  8
V0-OBRYS
  6
CONTINUOUS
 62
    90
100
AcDbCircle
 10
1218.235358
 20
0.0
 30
0.0
 40
125.0
  0
CIRCLE
  5
EED
100
AcDbEntity
  8
V0-OBRYS
  6
CONTINUOUS
 62
    90
100
AcDbCircle
 10
1218.235358
 20
0.0
 30
0.0
 40
132.0
  0
ELLIPSE
  5
EEE
100
AcDbEntity
  8
V0-OBRYS
  6
CONTINUOUS
 62
    90
100
AcDbEllipse
 10
1217.746733
 20
-0.24292
 30
0.0
 11
0.0
 21
119.6881279984882
 31
0.0
210
0.0
220
0.0
230
1.0
 40
0.691133
 41
0.0
 42
6.283185307179586
  0
ELLIPSE
  5
EEF
100
AcDbEntity
  8
V0-VYPLNE
  6
DASHED
 62
    52
100
AcDbEllipse
 10
852.230666
 20
-1.713544
 30
0.0
 11
0.0
 21
120.4005587655412
 31
0.0
210
0.0
220
0.0
230
1.0
 40
0.61597
 41
0.0
 42
6.283185307179586
  0
POINT
  5
F00
100
AcDbEntity
  8
V0-VYPLNE
  6
CONTINUOUS
 62
     7
100
AcDbPoint
 10
1218.235358
 20
0.0
 30
0.0
  0
MTEXT
  5
116B
100
AcDbEntity
  8
V0-NAZVY
100
AcDbMText
 10
1204.079169
 20
-184.493237
 30
0.0
 40
26.25
 41
215.92256
 71
     5
 72
     5
  1
MSK-250
  7
ED10
  0
MTEXT
  5
116C
100
AcDbEntity
  8
V0-NAZVY
100
AcDbMText
 10
844.677214
 20
-38.481969
 30
0.0
 40
26.25
 41
215.92256
 71
     5
 72
     5
  1
MSK-250
  7
ED10
  0
MTEXT
  5
116D
100
AcDbEntity
  8
V0-NAZVY
100
AcDbMText
 10
849.715558
 20
-449.663127
 30
0.0
 40
26.25
 41
215.92256
 71
     5
 72
     5
  1
MSK-250
  7
ED10
  0
VIEWPORT
  5
22
100
AcDbEntity
 67
     1
  8
0
100
AcDbViewport
 10
261.517699
 20
148.5
 30
0.0
 40
523.035398
 41
297.0
 68
    -1
 69
     1
1001
ACAD
1000
MVIEW
1002
{
1070
    16
1010
0.0
1020
0.0
1030
0.0
1010
0.0
1020
0.0
1030
1.0
1040
0.0
1040
297.0
1040
261.517699
1040
148.5
1040
50.0
1040
0.0
1040
0.0
1070
     0
1070
   100
1070
     1
1070
     1
1070
     0
1070
     0
1070
     0
1070
     0
1040
0.0
1040
0.0
1040
0.0
1040
1.0
1040
1.0
1040
10.0
1040
10.0
1070
     0
1002
{
1002
}
1002
}
  0
ENDSEC
  0
SECTION
  2
OBJECTS
  0
DICTIONARY
  5
C
100
AcDbDictionary
  3
ACAD_GROUP
350
D
  3
ACAD_MLINESTYLE
350
E
  3
ACDBVARIABLEDICTIONARY
350
5D
  0
DICTIONARY
  5
D
102
{ACAD_REACTORS
330
C
102
}
100
AcDbDictionary
  0
DICTIONARY
  5
E
102
{ACAD_REACTORS
330
C
102
}
100
AcDbDictionary
  3
STANDARD
350
13
  0
DICTIONARY
  5
5D
102
{ACAD_REACTORS
330
C
102
}
100
AcDbDictionary
  3
DIMADEC
350
5E
  3
SORTENTS
350
3D8
  0
MLINESTYLE
  5
13
102
{ACAD_REACTORS
330
E
102
}
100
AcDbMlineStyle
  2
STANDARD
 70
     0
  3

 62
     0
 51
90.0
 52
90.0
 71
     2
 49
0.5
 62
   256
  6
BYLAYER
 49
-0.5
 62
   256
  6
BYLAYER
  0
DICTIONARYVAR
  5
5E
102
{ACAD_REACTORS
330
5D
102
}
100
DictionaryVariables
280
     0
  1
0
  0
DICTIONARYVAR
  5
3D8
102
{ACAD_REACTORS
330
5D
102
}
100
DictionaryVariables
280
     0
  1
96
  0
ENDSEC
  0
EOF
